#TITLE:Forest Chillin';
#SUBTITLE:;
#ARTIST:OMORI;
#TITLETRANSLIT:;
#SUBTITLETRANSLIT:;
#ARTISTTRANSLIT:;
#GENRE:OMORI;
#CREDIT:[Ness];
#BANNER:OMORI - Forest Chillin' (for TapMania).png;
#BACKGROUND:OMORI - Forest Chillin' (for TapMania)-bg.png;
#LYRICSPATH:;
#CDTITLE:;
#MUSIC:OMORI - Forest Chillin' (for TapMania).mp3;
#OFFSET:-0.000000;
#SAMPLESTART:28.486214;
#SAMPLELENGTH:19.009903;
#SELECTABLE:YES;
#BPMS:0.000000=101.000000
;
#STOPS:
;
#BGCHANGES:;
#KEYSOUNDS:;
#ATTACKS:;

//---------------dance-single - [Ness]----------------
#NOTES:
     dance-single:
     [Ness]:
     Hard:
     7:
     0.313472,0.327940,0.217019,0.470208,0.012057,182.000000,164.000000,18.000000,39.000000,0.000000,0.000000,0.313472,0.327940,0.217019,0.470208,0.012057,182.000000,164.000000,18.000000,39.000000,0.000000,0.000000:
0000
0000
0000
0000
,
0000
0000
0000
0000
,
0000
0000
0000
0000
,
0000
0000
0000
0020
,
2030
0000
3001
0020
0100
0030
1002
0000
,
0103
0000
0010
0000
0100
0100
0010
0000
,
2000
0000
3001
0200
0010
0300
0120
0000
,
0031
0000
1000
0000
0001
0100
0100
0000
,
0020
0000
1030
0200
0010
0300
0011
0000
,
0100
0000
1001
0000
0002
0100
0103
0000
,
0020
0000
1030
0100
0100
0000
1100
0000
,
0100
0000
0000
0000
1001
0000
0000
0000
0100
0000
0010
0000
0001
0000
1000
0001
,
2000
0010
0010
3002
1000
0003
1001
0000
,
0100
0000
1001
0000
0100
0010
0210
0000
,
0302
0010
1000
2003
0001
3000
1001
0000
,
0100
0000
0001
1000
0100
0100
0120
0000
,
0032
0100
1003
0020
1000
0130
2001
0000
,
3100
0000
0010
0000
0001
1000
0010
0000
,
0200
1000
0310
2000
0010
3001
0120
0000
,
0130
0100
0001
0000
1000
0001
0100
0000
,
0002
0010
0100
0023
0000
0000
0130
0000
,
1000
0100
1000
0000
0001
1000
0200
0000
,
0320
0001
0130
1000
1000
0000
0100
0000
,
0010
0000
0010
0000
0100
0000
0000
0000
1000
0000
0001
0000
0100
0000
0001
1000
,
0002
0010
1000
2003
0010
3000
0110
0000
,
1000
0000
0001
0000
0010
0010
0210
0000
,
2300
0100
3001
0020
0100
0030
1001
0000
,
0100
0000
0010
0001
0100
0100
0102
0000
,
0203
1000
0010
0302
0100
0003
2001
0000
,
3010
0000
0100
0000
0001
1000
0100
0000
,
0020
0001
0130
0002
0100
1003
0200
0000
,
0310
0010
1000
0000
0001
1000
0100
0000
,
0010
0000
0000
0000
;

//---------------dance-single - ----------------
#NOTES:
     dance-single:
     :
     Medium:
     4:
     0.117121,0.154325,0.000000,0.421982,0.000000,68.000000,68.000000,0.000000,35.000000,0.000000,0.000000,0.117121,0.154325,0.000000,0.421982,0.000000,68.000000,68.000000,0.000000,35.000000,0.000000,0.000000:
0000
0000
0000
0000
,
0000
0000
0000
0000
,
0000
0000
0000
0000
,
0000
0000
0000
0010
,
2000
0000
3000
0002
0000
0003
0020
0000
,
0030
0000
0000
0000
,
0200
0000
0300
2000
0000
3000
0002
0000
,
0003
0000
0000
0000
,
0200
0000
0300
0020
0000
0030
0000
0000
,
0000
0000
0000
1000
,
0200
0300
0000
0000
,
0000
0000
0000
0000
,
0020
0000
0030
0002
0000
0003
0000
0000
,
1000
0001
0100
0010
,
0200
0000
0300
0002
0000
0003
0000
0000
,
2000
0000
3000
0002
0000
0003
0010
0000
,
0200
0000
0300
2000
0000
3000
0020
0000
,
0030
0000
1000
0000
,
0002
0000
0003
0020
0000
0030
0200
0000
,
0300
0000
1000
0000
,
0002
0000
0003
2000
0000
3000
0100
0000
,
0010
0100
0000
0010
,
0001
0100
0000
0010
,
1000
0100
0000
1000
,
0002
0000
0003
2000
0000
3000
0100
0000
,
0010
0100
0010
0001
,
2000
0000
3000
0002
0000
0003
0010
0000
,
0200
0000
0300
2000
0000
3000
0010
0000
,
0200
0000
0300
0002
0000
0003
0010
0000
,
0100
1000
0001
1000
,
0200
0000
0300
0020
0000
0030
0001
0000
,
2000
3000
0002
0003
,
0100
0000
0000
0000
;

//---------------dance-single - ----------------
#NOTES:
     dance-single:
     :
     Easy:
     2:
     0.105065,0.135034,0.000000,0.000000,0.000000,61.000000,61.000000,0.000000,0.000000,0.000000,0.000000,0.105065,0.135034,0.000000,0.000000,0.000000,61.000000,61.000000,0.000000,0.000000,0.000000,0.000000:
// measure 0
0000
0000
0000
0000
,  // measure 1
0000
0000
0000
0000
,  // measure 2
0000
0000
0000
0000
,  // measure 3
0000
0000
0000
0000
,  // measure 4
1000
0000
0000
0001
,  // measure 5
0000
0000
0100
0000
,  // measure 6
0010
0000
0000
0100
,  // measure 7
0000
0000
0001
0000
,  // measure 8
1000
0000
0000
0000
,  // measure 9
0100
0000
0000
0010
,  // measure 10
0001
0000
0000
0000
,  // measure 11
1000
0000
0001
0000
,  // measure 12
1000
0000
0010
0000
,  // measure 13
0100
0000
0001
1000
,  // measure 14
0001
0000
0010
0000
,  // measure 15
0100
0000
0100
0000
,  // measure 16
1000
0000
1000
1000
,  // measure 17
0010
0000
0010
0000
,  // measure 18
0001
0000
1000
0001
,  // measure 19
1000
0000
0001
0000
,  // measure 20
0100
0000
0100
0000
,  // measure 21
0010
0000
0010
0010
,  // measure 22
1000
0000
1000
0000
,  // measure 23
0100
0000
0100
0100
,  // measure 24
0010
0000
0001
0000
,  // measure 25
1000
0000
0010
0100
,  // measure 26
0010
0000
0100
0000
,  // measure 27
0001
0000
0010
0010
,  // measure 28
0100
0000
1000
1000
,  // measure 29
0001
0000
1000
0000
,  // measure 30
0100
0000
0010
0000
,  // measure 31
1000
0000
0001
0000
,  // measure 32
0010
0000
0000
0000
;

//---------------dance-single - ----------------
#NOTES:
     dance-single:
     :
     Beginner:
     1:
     0.055116,0.077162,0.000000,0.000000,0.000000,32.000000,32.000000,0.000000,0.000000,0.000000,0.000000,0.055116,0.077162,0.000000,0.000000,0.000000,32.000000,32.000000,0.000000,0.000000,0.000000,0.000000:
// measure 0
0000
0000
0000
0000
,  // measure 1
0000
0000
0000
0000
,  // measure 2
0000
0000
0000
0000
,  // measure 3
0000
0000
0000
0000
,  // measure 4
0010
0000
0000
0000
,  // measure 5
0000
0000
0000
0000
,  // measure 6
0100
0000
0000
0000
,  // measure 7
0000
0000
0000
0000
,  // measure 8
0001
0000
0000
0000
,  // measure 9
0000
0000
0000
1000
,  // measure 10
1000
0000
0000
0000
,  // measure 11
0000
0000
0000
0000
,  // measure 12
0100
0000
0000
0000
,  // measure 13
0100
0000
0000
0010
,  // measure 14
0010
0000
0000
0000
,  // measure 15
0001
0000
0000
1000
,  // measure 16
1000
0000
0000
0000
,  // measure 17
0010
0000
0000
0000
,  // measure 18
0100
0000
0000
0000
,  // measure 19
0001
0000
0000
0000
,  // measure 20
1000
0000
0000
0000
,  // measure 21
0001
0000
0000
1000
,  // measure 22
1000
0000
0000
0000
,  // measure 23
0100
0000
0000
0010
,  // measure 24
0010
0000
0000
0000
,  // measure 25
0001
0000
0000
1000
,  // measure 26
1000
0000
0000
0000
,  // measure 27
0100
0000
0000
0010
,  // measure 28
0010
0000
0000
0000
,  // measure 29
0100
0000
0000
0000
,  // measure 30
1000
0000
0000
0000
,  // measure 31
0001
0000
0000
0000
,  // measure 32
0100
0000
0000
0000
;
