#TITLE:Flouring With You;
#SUBTITLE:;
#ARTIST:OMORI;
#TITLETRANSLIT:;
#SUBTITLETRANSLIT:;
#ARTISTTRANSLIT:;
#GENRE:OMORI;
#CREDIT:[Ness];
#BANNER:OMORI - Flouring With You (for TapMania).png;
#BACKGROUND:OMORI - Flouring With You (for TapMania)-bg.png;
#LYRICSPATH:;
#CDTITLE:;
#MUSIC:OMORI - Flouring With You (for TapMania).mp3;
#OFFSET:-0.020000;
#SAMPLESTART:0.011363;
#SAMPLELENGTH:16.438356;
#SELECTABLE:YES;
#BPMS:0.000000=146.000000
;
#STOPS:
;
#BGCHANGES:;
#KEYSOUNDS:;
#ATTACKS:;

//---------------dance-single - [Ness]----------------
#NOTES:
     dance-single:
     [Ness]:
     Challenge:
     12:
     0.932689,1.040244,0.354684,0.157638,1.530398,497.000000,470.000000,27.000000,12.000000,63.000000,0.000000,0.932689,1.040244,0.354684,0.157638,1.530398,497.000000,470.000000,27.000000,12.000000,63.000000,0.000000:
0000
0000
0000
0000
,
0000
0000
0000
0000
,
1100
0000
0001
0100
0000
0010
0000
0100
0000
0001
0000
1000
0010
0000
0100
0000
,
0001
0000
0010
0000
0100
1000
0000
0001
0000
0100
0000
0010
1000
0000
0000
0000
,
0101
0000
0010
1000
0000
0010
0100
0000
0001
0000
1000
0000
0010
0000
0001
0000
,
0011
0000
0000
1010
0000
0000
0110
0000
0101
0000
0000
0000
1001
0000
0000
0000
,
1010
0000
1000
0100
0000
0010
0001
0000
0011
0000
0001
0100
0000
0010
1000
0000
,
1001
0000
1000
0010
0000
0100
0001
0000
0101
0000
0001
0010
0000
0100
1000
0001
,
0010
0000
0100
1000
0000
0010
0100
0000
0001
0000
1000
0010
0000
0100
0001
0010
,
0100
0000
0100
1000
0000
0001
0100
0000
0010
0000
1000
0100
0000
0010
0001
1000
,
0010
0000
1000
0001
0000
0010
0100
0000
0010
0000
0001
1000
0000
0010
0100
0000
,
0001
0000
1000
0100
0000
0010
0001
0000
1001
0000
0000
1100
0000
0000
0011
0000
,
1001
0000
0001
1000
0000
0010
0100
0000
0001
0000
0010
0100
1000
0010
0100
0001
,
1000
0000
0001
0100
0000
0010
1000
0000
0100
0000
0000
0110
0000
0000
1001
0000
,
0011
0000
0000
0000
0001
0000
1000
0000
0000
0000
0010
0000
0100
0000
0000
0000
0010
0000
1000
0000
0001
0000
1000
0000
0010
0000
0100
0000
0001
0000
1000
0001
,
1000
0000
0000
0110
0000
0000
0101
0000
1100
0000
0000
0000
1000
0100
0010
0001
,
1000
0100
0010
1000
0100
0010
1000
0100
0010
0001
0100
0010
0001
0100
0010
0001
,
0100
0001
1000
0100
0001
1000
0100
0001
1000
0010
0100
1000
0010
0100
1000
0010
,
0100
0001
0010
0100
0001
0010
0100
0001
0010
0100
1000
0010
0100
1000
0010
0100
,
1000
0010
0001
1000
0010
0001
1000
0010
0100
0001
0010
0100
0001
0010
0100
0001
,
0100
0010
1000
0100
0010
0001
0100
0010
1000
0001
0010
0100
1000
0001
0010
0100
,
1000
0010
0100
0001
1000
0010
0100
0001
1000
0100
0010
0001
1000
0100
0010
0001
,
0100
0010
1000
0100
0010
0001
0100
0010
1000
0001
0010
0001
1000
0010
1000
0001
,
0010
0100
1000
0010
0100
0001
0010
0100
1000
0001
0100
0010
1000
0001
0100
0010
,
2000
000M
000M
001M
000M
000M
310M
0000
0020
0000
0000
M001
M000
M000
M130
M010
,
M002
0000
0M00
1M00
0M00
0M00
0013
0000
0200
0000
000M
001M
000M
000M
130M
000M
,
2000
0000
0M00
0M01
0M00
0M00
3M10
0M00
0002
M000
M000
M100
M000
0000
1003
0010
,
0200
000M
000M
001M
000M
0000
0301
M000
M020
M000
M000
M100
0000
0000
1030
0000
,
0200
0000
00M0
00M1
00M0
00M0
1300
0000
0020
000M
000M
100M
000M
0000
0130
0001
,
M200
M000
M000
M010
M000
0000
0301
0000
0020
000M
000M
010M
000M
000M
1030
0000
,
1001
0000
0000
0000
0000
0000
1000
0000
0000
0000
0000
0000
0010
0000
0100
0000
0001
0000
0000
0000
0000
0000
0010
0000
0000
0000
0000
0000
0100
1000
0100
1000
,
0100
0010
0001
1000
0100
0010
0001
1000
0010
0100
0001
1000
0010
0100
0001
1000
,
0100
0010
0001
0100
0010
0001
0100
0010
0001
1000
0010
0001
1000
0010
0001
1000
,
0010
1000
0100
0010
1000
0100
0010
1000
0100
0001
1000
0100
0001
1000
0100
0001
,
1000
0010
0100
1000
0010
0100
1000
0010
0001
0010
0100
0001
0010
0100
0001
0010
,
0100
1000
0010
0100
1000
0010
0100
1000
0010
0001
1000
0010
0001
1000
0010
0001
,
0100
0010
1000
0100
0010
1000
0100
0010
1000
0100
0001
1000
0100
0001
1000
0100
,
0001
0010
0100
0001
0010
0100
0001
0010
1000
0001
0010
1000
0001
0010
1000
0001
,
0010
0100
1000
0010
0100
1000
0010
0100
1000
0001
0100
1000
0001
0100
1000
0001
,
0100
0010
1000
0100
0010
1000
0100
0010
1000
0100
0001
1000
0100
0001
1000
0100
,
0010
0000
0001
1000
0000
0010
0100
0000
0001
0000
1000
0000
0100
0000
0010
0000
,
0001
0000
0000
0011
0000
0000
1100
0000
1001
0000
0000
0000
1010
0000
0000
0000
,
1001
0000
0000
0000
,
0000
0000
0000
0000
,
0000
0000
0000
0000
,
0000
MMMM
0000
0000
;

//---------------dance-single - ----------------
#NOTES:
     dance-single:
     :
     Hard:
     9:
     0.624920,0.606905,0.144501,0.157638,0.722505,333.000000,322.000000,11.000000,12.000000,0.000000,0.000000,0.624920,0.606905,0.144501,0.157638,0.722505,333.000000,322.000000,11.000000,12.000000,0.000000,0.000000:
0000
0000
0000
0000
,
0000
0000
0000
0000
,
0010
0000
0000
1000
0100
0000
0000
0001
0010
0000
0000
0100
1000
0000
0000
0000
,
0001
0000
0001
0000
1000
0100
0000
1000
0000
0001
0000
1000
0100
0000
0000
0000
,
0010
0000
0001
1000
0000
0001
1000
0000
0001
0000
0100
0000
0010
0000
1000
0000
,
0100
0000
0000
0010
0000
0000
0100
0000
1100
0000
0000
0000
0101
0000
0000
0000
,
2001
0000
0000
0010
0000
0000
3010
0000
0200
0000
0000
0001
0000
0000
0301
0000
,
0020
0000
0000
0100
0000
0000
0130
0000
1000
0000
0100
0000
0010
0000
0001
0000
,
0200
0000
0000
0010
0000
0000
0310
0000
2000
0000
0000
0010
0000
0000
3010
0000
,
0200
0000
0000
0001
0000
0000
0301
0000
0010
0000
0100
0000
1000
0000
0010
0000
,
2000
0000
0000
0100
0000
0000
3010
0000
0002
0000
0000
1000
0000
0000
0013
0000
,
0200
0000
0000
0001
0000
0000
0310
0000
0100
0000
0000
1001
0000
0000
0100
0000
,
0020
0000
0000
0001
0000
0000
0130
0000
2000
0000
0000
0010
0000
0000
3100
0000
,
0020
0000
0000
0001
0000
0000
1030
0000
0100
0000
0010
0000
1000
0000
0001
0000
,
0100
0000
0001
1000
0000
0010
0100
0000
0010
0000
1000
0000
0001
0000
1000
0000
,
0001
0000
0000
0010
0000
0000
0100
0000
1100
0000
0000
0000
0101
0000
0000
0000
,
1001
0000
1000
0100
0000
1000
0100
0000
0010
0000
0001
0100
0000
0001
0100
0000
,
0001
0000
1000
0100
0000
1000
0100
0000
0010
0000
0001
1000
0000
0001
1000
0000
,
0010
0000
0100
0001
0000
0100
0001
0000
1000
0000
0010
0100
0000
0010
0100
0000
,
0010
0000
1000
0100
0000
1000
0100
0000
0010
0000
0001
1000
0000
0001
1000
0000
,
0100
0000
0010
0001
0000
0010
0001
0000
1000
0000
0010
0100
0000
0010
0100
0000
,
0001
0000
1000
0100
0000
1000
0100
0000
0010
0000
0001
1000
0000
0001
1000
0000
,
0010
0000
0100
0001
0000
0100
0001
0000
1000
0000
0100
0010
0000
0100
0010
0000
,
0001
0000
1000
0010
0000
1000
0010
0000
0100
0000
0001
0100
0000
0001
0100
0000
,
0001
0000
0000
1000
0000
0000
0100
0000
1000
0000
0000
0010
0000
0000
0100
0000
,
0001
0000
0000
0010
0000
0000
0100
0000
0010
0000
0000
0001
0000
0000
1000
0000
,
0100
0000
0000
0010
0000
0000
0100
0000
1000
0000
0000
0001
0000
0000
1000
0000
,
0010
0000
0000
0100
0000
0000
0001
0000
0010
0000
0000
0001
0000
0000
1000
0000
,
0010
0000
0000
0100
0000
0000
0010
0000
1000
0000
0000
0001
0000
0000
1000
0000
,
0100
0000
0000
0010
0000
0000
0100
0000
1000
0000
0000
0001
0000
0000
0010
0000
,
0100
0000
0000
0010
0000
0000
0001
0000
1000
0000
0000
0001
0000
0000
0100
0000
,
0001
0100
0001
0000
1000
0000
0010
0000
0100
0010
0100
0000
0001
1000
0001
0000
,
1000
0000
0010
1000
0000
0001
1000
0000
0100
0000
0010
0001
0000
1000
0001
0000
,
0100
0000
0010
1000
0000
0100
1000
0000
0001
0000
0100
0010
0000
1000
0001
0000
,
0010
0000
0001
0100
0000
0010
0100
0000
0001
0000
1000
0010
0000
0100
0010
0000
,
1000
0000
0100
0010
0000
0001
0100
0000
0001
0000
1000
0100
0000
0010
0100
0000
,
1000
0000
0010
1000
0000
0001
0010
0000
0001
0000
0100
0010
0000
1000
0100
0000
,
1000
0000
0010
0100
0000
0010
1000
0000
0001
0000
1000
0100
0000
0010
0001
0000
,
0100
0000
0001
1000
0000
0001
0010
0000
0100
0000
0010
0001
0000
1000
0001
0000
,
1000
0000
0010
0100
0000
0001
0010
0000
0100
0000
1000
0010
0000
0100
0001
0000
,
1000
0000
0001
0100
0000
0010
1000
0000
0100
0000
0010
0000
0001
0000
1000
0000
,
0010
0000
0000
0110
0000
0000
1000
0000
0101
0000
0000
0000
1100
0000
0000
0000
,
1001
0000
0000
0000
;

//---------------dance-single - ----------------
#NOTES:
     dance-single:
     :
     Medium:
     6:
     0.392217,0.413799,0.091955,0.302139,0.151069,209.000000,202.000000,7.000000,23.000000,0.000000,0.000000,0.392217,0.413799,0.091955,0.302139,0.151069,209.000000,202.000000,7.000000,23.000000,0.000000,0.000000:
0000
0000
0000
0000
,
0000
0000
0000
0000
,
1010
0001
0100
0010
,
1000
0000
0001
0000
0100
0000
0000
0010
0000
0100
0000
0000
1001
0000
0000
0000
,
0001
0000
0000
0010
0000
0000
0100
0000
1000
0000
0001
0000
1000
0000
0001
0000
,
1000
0000
0000
0010
0000
0000
0100
0000
0001
0000
0000
0000
1001
0000
0000
0000
,
1000
0000
0000
0010
0000
0000
0010
0000
1000
0000
0000
0100
0000
0000
0100
0000
,
0010
0000
0000
0100
0000
0000
0100
0000
0010
0000
0000
0000
0001
0000
0000
0000
,
0100
0000
0000
0001
0000
0000
0001
0000
1000
0000
0000
0001
0000
0000
0001
0000
,
0010
0000
0000
0001
0000
0000
0001
0000
0100
0000
0000
0000
0010
0000
0000
0000
,
1000
0000
0000
0100
0000
0000
0100
0000
0010
0000
0000
0001
0000
0000
0001
0000
,
0100
0000
0000
0010
0000
0000
0010
0000
1000
0000
0000
1000
0000
0000
1000
0000
,
0100
0000
0000
0010
0000
0000
0001
0000
1000
0000
0000
0001
0000
0000
1000
0000
,
0010
0000
0000
1000
0000
0000
0010
0000
0100
0000
0000
0001
0000
0000
1000
0000
,
0100
0000
0000
0010
0000
0000
0001
0000
1000
0000
0100
0000
0010
0000
0001
0000
,
1000
0000
0000
0001
0000
0000
1000
0000
0001
0000
0000
0000
1001
0000
0000
0000
,
0002
0000
0100
0000
0010
0000
0103
0001
,
0200
0000
0010
0000
0001
0000
0310
0100
,
0020
0000
1000
0000
0100
0000
1030
0010
,
1000
0000
0001
1000
0010
0100
0001
0000
,
2000
0000
0100
0000
0010
0000
3001
1000
,
0002
0000
0010
0000
0100
0000
0013
0001
,
0020
0000
0100
0000
0001
0000
0130
0010
,
0100
0000
1000
0010
0100
0001
1000
0000
,
2200
0000
0000
0000
0000
0000
3300
0010
,
0002
0000
0000
0000
2003
0000
0000
3001
,
0020
0000
0000
0000
0000
0000
0030
0100
,
2000
0000
3002
0000
,
0203
0000
0000
0000
0000
0000
0300
0010
,
2000
0000
3002
2003
,
3002
0000
0000
0000
0000
0000
0013
0000
0100
0000
0000
1000
0000
0000
0001
0000
,
2000
0000
3000
0010
2000
0000
3000
0000
,
1002
0000
0010
0000
1000
0000
0013
0001
,
2000
0000
0001
0000
0010
0000
3001
1000
,
0002
0000
0100
0000
0010
0000
0103
0001
,
0100
0000
0010
1000
0001
0100
0010
0000
,
1000
0000
0100
0010
0001
0000
0010
0100
,
1000
0000
0010
1000
0001
0000
0010
0001
,
0100
0000
0001
0100
0010
0000
1000
0100
,
0010
0000
1000
0010
0001
0000
0010
0100
,
1000
0000
0000
0010
0000
0000
0100
0000
0001
0000
1000
0000
0010
0000
0100
0000
,
0001
0000
0000
0010
0000
0000
0100
0000
1000
0000
0000
0000
0001
0000
0000
0000
,
1001
0000
0000
0000
;

//---------------dance-single - ----------------
#NOTES:
     dance-single:
     :
     Easy:
     3:
     0.238333,0.275866,0.065682,0.000000,0.000000,127.000000,122.000000,5.000000,0.000000,0.000000,0.000000,0.238333,0.275866,0.065682,0.000000,0.000000,127.000000,122.000000,5.000000,0.000000,0.000000,0.000000:
// measure 0
0000
0000
0000
0000
,  // measure 1
0000
0000
0000
0000
,  // measure 2
1000
0001
1000
0001
,  // measure 3
0100
0100
0010
0000
,  // measure 4
1000
0100
0010
0001
,  // measure 5
1000
0001
1001
0000
,  // measure 6
0010
0010
0001
0000
,  // measure 7
1000
0000
0001
0000
,  // measure 8
1000
1000
0100
0000
,  // measure 9
0010
0100
0010
0001
,  // measure 10
0100
0100
0010
0000
,  // measure 11
1000
0001
1000
0000
,  // measure 12
0001
0010
0001
0000
,  // measure 13
1000
0100
0010
0000
,  // measure 14
0001
0100
0010
1000
,  // measure 15
0100
0010
0110
0000
,  // measure 16
0001
0001
1000
1000
,  // measure 17
0001
0100
0001
0000
,  // measure 18
1000
1000
0001
0001
,  // measure 19
1000
0100
1000
0000
,  // measure 20
0001
0001
1000
1000
,  // measure 21
0010
1000
0010
0000
,  // measure 22
1000
1000
0001
0001
,  // measure 23
0010
0001
0010
0000
,  // measure 24
0100
0000
0010
0000
,  // measure 25
0100
0000
1000
0000
,  // measure 26
0001
0000
1000
0000
,  // measure 27
0010
0000
0100
0000
,  // measure 28
0001
0000
0010
0000
,  // measure 29
0100
0000
1000
0100
,  // measure 30
0010
0000
0001
0000
,  // measure 31
1000
0000
0001
0000
,  // measure 32
1001
0000
0010
0000
,  // measure 33
1000
0010
0001
0100
,  // measure 34
1000
0000
1000
0000
,  // measure 35
0001
0100
1000
0010
,  // measure 36
0001
0000
1000
0000
,  // measure 37
0001
0010
1000
0100
,  // measure 38
0001
0000
1000
0000
,  // measure 39
0100
0001
0100
1000
,  // measure 40
0001
1000
0001
1000
,  // measure 41
0010
0100
0110
0000
,  // measure 42
1001
0000
0000
0000
;

//---------------dance-single - ----------------
#NOTES:
     dance-single:
     :
     Beginner:
     1:
     0.118228,0.193106,0.039409,0.000000,0.000000,63.000000,60.000000,3.000000,0.000000,0.000000,0.000000,0.118228,0.193106,0.039409,0.000000,0.000000,63.000000,60.000000,3.000000,0.000000,0.000000,0.000000:
// measure 0
0000
0000
0000
0000
,  // measure 1
0000
0000
0000
0000
,  // measure 2
0010
0000
0010
0000
,  // measure 3
0100
0000
0100
0000
,  // measure 4
0001
0000
0001
0000
,  // measure 5
1000
0000
1000
0000
,  // measure 6
0100
0000
0000
0000
,  // measure 7
0010
0000
0000
0000
,  // measure 8
0100
0000
0000
0000
,  // measure 9
1000
0000
0000
0000
,  // measure 10
0001
0000
0000
0000
,  // measure 11
1000
0000
0001
0000
,  // measure 12
1000
0000
0000
0000
,  // measure 13
0010
0000
0100
0000
,  // measure 14
0010
0000
0000
0000
,  // measure 15
0100
0000
0100
0000
,  // measure 16
0100
0000
0000
0000
,  // measure 17
0001
0000
0000
0000
,  // measure 18
0010
0000
0000
0000
,  // measure 19
0100
0000
0000
0000
,  // measure 20
1000
0000
0000
0000
,  // measure 21
0001
0000
0000
0000
,  // measure 22
1000
0000
0000
0000
,  // measure 23
0010
0000
0000
0000
,  // measure 24
0100
0000
0000
0000
,  // measure 25
0100
0000
0100
0000
,  // measure 26
0100
0000
0000
0000
,  // measure 27
0001
0000
0001
0000
,  // measure 28
0001
0000
0000
0000
,  // measure 29
1000
0000
1000
0000
,  // measure 30
1000
0000
0001
0000
,  // measure 31
1000
0000
0001
0000
,  // measure 32
1001
0000
0000
0000
,  // measure 33
0001
0000
0001
0000
,  // measure 34
1000
0000
0000
0000
,  // measure 35
0001
0000
1000
0000
,  // measure 36
0100
0000
0000
0000
,  // measure 37
0010
0000
0001
0000
,  // measure 38
0100
0000
0010
0000
,  // measure 39
1000
0000
0001
0000
,  // measure 40
1001
0000
0010
0000
,  // measure 41
1000
0000
0001
0000
,  // measure 42
1001
0000
0000
0000
;
