#TITLE:BREADY STEADY GO;
#SUBTITLE:;
#ARTIST:OMORI;
#TITLETRANSLIT:;
#SUBTITLETRANSLIT:;
#ARTISTTRANSLIT:;
#GENRE:OMORI;
#CREDIT:[Ness];
#BANNER:OMORI - BREADY STEADY GO (for TapMania).png;
#BACKGROUND:OMORI - BREADY STEADY GO (for TapMania)-bg.png;
#LYRICSPATH:;
#CDTITLE:;
#MUSIC:OMORI - BREADY STEADY GO (for TapMania).mp3;
#OFFSET:-0.310000;
#SAMPLESTART:19.571182;
#SAMPLELENGTH:11.999998;
#LASTBEATHINT:310.000000;
#SELECTABLE:YES;
#BPMS:0.000000=155.000000
,33.000000=160.000000
;
#STOPS:33.000000=6.141000,
286.000000=3.582000
;
#BGCHANGES:;
#KEYSOUNDS:;
#ATTACKS:TIME=0.341938:LEN=12.677420:MODS=Dark;

//---------------dance-single - [Ness]----------------
#NOTES:
     dance-single:
     [Ness]:
     Challenge:
     10:
     0.731526,0.998181,0.530802,0.085865,0.589346,656.000000,588.000000,68.000000,11.000000,23.000000,0.000000,0.731526,0.998181,0.530802,0.085865,0.589346,656.000000,588.000000,68.000000,11.000000,23.000000,0.000000:
// measure 0
0000
0000
0000
0000
,  // measure 1
0000
0000
0000
0000
,  // measure 2
0000
0000
0000
0000
,  // measure 3
0000
0000
0000
0000
,  // measure 4
0000
0000
0000
0000
,  // measure 5
0000
0000
0000
0000
,  // measure 6
0000
0000
0000
0000
,  // measure 7
0000
0000
0000
0000
,  // measure 8
0000
0000
0000
0000
0000
0000
0000
0000
1020
0000
0000
0230
0000
0000
0301
0000
,  // measure 9
0010
0000
0001
1000
0010
0000
0100
0000
0001
0000
0100
0000
1000
0000
0100
0000
,  // measure 10
0010
0000
1000
0100
0000
0010
0001
0000
1000
0000
0001
0000
0100
0000
0010
0000
,  // measure 11
1000
0000
0000
0000
0000
0000
0001
0000
0000
0010
0000
0000
0000
0000
0000
0100
0000
0000
1000
0000
0000
0000
0000
0000
0010
0000
0100
0000
0001
0000
0100
0000
0000
0000
0000
0000
0010
0000
0000
0000
0000
0000
1000
0000
0000
0000
0000
0000
,  // measure 12
0001
0000
0000
0100
0010
0000
1000
0000
0000
0000
1000
0000
0001
0000
0000
0000
1000
0000
0001
0000
0020
0000
0000
0000
0000
0000
0000
0000
0130
0000
0000
0000
,  // measure 13
1000
0000
0000
0001
0100
0000
0010
0000
1000
0000
0010
0100
0001
0000
1000
0000
,  // measure 14
0010
0010
0100
1000
0100
0001
1000
0001
,  // measure 15
0010
0000
0100
1000
0100
0000
0001
0000
0010
0000
0100
0000
1000
0000
0001
0000
,  // measure 16
0010
0000
0000
0100
1000
0000
0001
0000
0201
0000
0000
0320
0000
0000
1030
0000
,  // measure 17
0100
0000
0010
0100
1000
0000
0001
0000
0010
0000
0100
0000
1000
0000
0001
0000
,  // measure 18
0010
0000
0100
1000
0000
0010
0100
0000
0001
0000
1000
0000
0010
0000
0001
0000
,  // measure 19
1000
0000
0000
0000
0000
0000
0100
0000
0000
0001
0000
0000
0000
0000
0000
0001
0000
0000
1000
0000
0000
0000
0000
0000
0100
0000
0010
0000
0001
0000
1000
0000
0000
0000
0000
0000
0001
0000
0000
0000
0000
0000
1000
0000
0000
0000
0000
0000
,  // measure 20
0010
0000
0000
1000
0100
0000
0010
0000
0000
0000
0100
0000
0010
0000
0000
0000
0011
0000
0000
0000
1000
0000
0000
0000
0100
0000
0000
0000
0001
0000
0000
0000
,  // measure 21
0010
0000
0001
0100
1000
0000
0100
0000
0010
0000
0001
1000
0010
0000
0100
0000
,  // measure 22
0001
0000
1000
0100
0010
0000
0001
0000
1000
0000
0010
0100
0001
0000
0010
0000
,  // measure 23
0100
0000
1000
0010
0100
0000
0001
0000
0M0M
0000
1000
0010
0001
0000
0010
0000
,  // measure 24
1000
0000
0001
0000
0011
0000
0000
0000
1100
0000
1000
0100
1000
0000
1000
0000
,  // measure 25
0001
0000
0001
0000
0010
0000
0010
0000
0100
0000
0100
1000
0100
0000
0010
0000
,  // measure 26
0010
0000
0010
0000
0001
0000
0001
0000
1000
0000
0001
0100
0001
0000
0001
0000
,  // measure 27
0001
1000
0100
0100
0010
1000
0010
0001
,  // measure 28
1000
0000
0100
0000
1000
0000
0100
0000
0000
0000
0000
0000
1000
0000
0000
0000
0000
0000
0000
0000
0000
0000
0000
0000
0101
0000
0000
0000
0000
0000
0001
0000
0000
0100
0000
0000
0010
0000
0000
0000
0000
0000
0010
0000
0000
0000
0000
0000
,  // measure 29
0001
0000
0000
0000
0001
0000
0000
0000
0010
0000
0000
0000
0010
0000
0000
1000
0100
0000
0000
0000
0100
0000
0000
0000
0010
0000
0000
0000
0010
0000
0000
0000
,  // measure 30
0001
0000
0000
0000
0010
0000
0100
0000
1001
0000
1000
0100
1000
0000
1000
0000
,  // measure 31
1001
0000
0001
0100
0001
0000
0001
0000
0010
0100
0010
0100
1000
0100
1000
0100
,  // measure 32
1000
0000
0000
0001
0000
0000
1000
0000
0000
0001
0000
0000
0100
0000
0000
0000
0000
0000
0001
0000
0100
0000
0001
0000
2000
0000
0000
0000
0000
0000
0000
0000
0000
0000
0000
0000
0000
0000
0000
0000
0000
0000
3100
0000
0000
0000
0000
0000
,  // measure 33
0010
0000
0000
0001
0000
0000
0100
0001
1000
0000
0010
0000
0100
0000
0001
0000
,  // measure 34
0010
0000
0100
0000
0010
0000
0001
0000
0101
0000
0001
1000
0000
1000
0100
0000
,  // measure 35
1010
0000
1000
0001
0000
0001
0010
0000
0011
0000
0100
0010
0000
0100
0010
0000
,  // measure 36
1000
0000
0100
0000
0010
0000
0001
0000
1000
0100
0010
0100
1000
0010
0100
0010
,  // measure 37
1000
0001
0010
0001
0100
0010
1000
0010
0100
0001
0100
0010
0001
0010
0100
0010
,  // measure 38
1000
0010
0100
0010
1000
0100
0010
0100
2000
0000
0000
0000
3001
0000
0010
0000
,  // measure 39
0011
0000
0110
0000
1100
0000
0110
0000
0001
1000
0010
0100
0001
0100
0010
1000
,  // measure 40
0001
0000
0000
0010
0000
0000
0100
0000
0000
0000
0000
0000
0000
0000
0000
0000
0000
0000
0110
0000
0000
0000
0000
0000
1000
0000
0100
0000
0010
0000
0001
0000
0000
0000
0000
0000
0001
0000
0010
0000
0100
0000
1000
0000
0000
0000
0000
0000
,  // measure 41
1000
0000
0010
0000
0001
0000
0010
0000
0100
0000
1000
0000
0100
0000
0010
1000
,  // measure 42
0100
0000
0001
0000
0100
0000
1000
0001
0100
0001
1000
0001
0010
0001
1000
0001
,  // measure 43
0100
0000
0010
0000
1000
0000
0001
0000
0010
0000
0001
1000
0100
0000
1000
0010
,  // measure 44
0100
0000
0001
0000
1000
0000
0100
0010
0100
0000
1001
0000
0000
0000
1001
0000
,  // measure 45
0010
0001
0000
0011
0100
0011
0000
0101
,  // measure 46
0010
0000
1100
0000
0000
0000
1010
0000
0100
0000
0010
1000
0100
0000
0011
0000
,  // measure 47
0100
1010
0001
1100
0200
0000
0310
0001
,  // measure 48
1000
0001
0100
0010
0201
0000
0301
0100
,  // measure 49
1000
0100
0001
0100
0010
0100
0001
0100
,  // measure 50
1000
0100
0001
0100
M010
100M
0M10
M001
,  // measure 51
0M10
100M
0M10
M001
1M00
01M0
M001
01M0
,  // measure 52
100M
01M0
M001
01M0
001M
1000
0100
1000
,  // measure 53
0010
0000
1000
0001
0000
0001
0100
0000
0001
0000
0010
0100
0000
0100
0010
0000
,  // measure 54
0100
0000
1000
0100
0000
0100
1000
0000
0001
0000
0001
0010
0000
0100
1000
0000
,  // measure 55
1000
0000
1000
0100
0000
0010
0001
0000
0001
0000
1000
0010
0000
0100
0001
0000
,  // measure 56
1000
0000
0001
0010
0100
0000
0110
0000
1001
0000
0000
0000
0001
0000
1000
0000
,  // measure 57
0100
0000
1000
0000
0001
0000
1000
0000
0010
0100
0001
0100
0010
1000
0010
0100
,  // measure 58
0001
0100
0001
1000
0010
1000
0001
1000
0100
0000
0000
1100
0000
0000
0011
0000
,  // measure 59
1001
0000
0000
0101
0000
0000
1010
0000
0110
0000
0000
0000
0100
0000
1000
0000
,  // measure 60
0010
0000
0001
0000
0100
0000
0010
0100
0001
0000
0000
0101
0000
0000
0001
0010
,  // measure 61
0100
0000
0000
1100
0000
0000
1000
0010
0100
0000
0000
0101
0000
0000
1010
0000
,  // measure 62
0100
0000
1001
0000
0110
0000
0000
0000
0101
0000
0000
0011
0000
0000
1001
0000
,  // measure 63
1100
0000
0000
1010
0000
0000
1001
0000
0101
0000
0000
1100
0000
0000
0110
0000
,  // measure 64
0010
0000
1001
0000
0110
0000
0000
0000
0001
0100
0010
0100
0001
0100
1000
0100
,  // measure 65
0001
0000
0000
0000
0000
0000
0100
0000
0000
0010
0000
0000
0000
0000
0000
0100
0000
0000
0010
0000
0000
0000
0000
0000
1010
0000
0000
0000
1000
0000
0000
0000
0010
0000
0000
0000
0100
0000
0000
0000
0001
0000
0000
0000
0010
0000
0000
0000
,  // measure 66
0001
0000
1000
0100
0000
0001
0100
0000
0110
0000
1000
0100
1000
0000
0001
0000
,  // measure 67
0110
0000
0001
0100
0001
0000
1000
0000
0110
0000
0001
0100
0000
1000
0100
0000
,  // measure 68
1001
0000
0000
0000
0110
0000
0110
0000
1001
0000
0001
0010
0000
0001
0010
0000
,  // measure 69
1001
0000
0001
1000
0010
0000
1000
0010
0100
0000
0000
0101
0000
0000
0010
0000
,  // measure 70
1100
0000
0000
0010
0000
0000
0110
0000
1001
0000
1001
0000
0100
0000
0100
0000
,  // measure 71
0010
0000
0000
0000
0000
0000
0000
0000
0000
0000
0000
0000
0100
0000
0000
0000
0000
0000
0000
0000
0000
0000
0000
0000
0001
0000
0000
0000
0000
0000
0000
0000
0000
0000
0000
0000
1000
0000
0000
0000
0000
0000
0000
0000
0000
0000
0000
0000
0010
0000
0000
0000
0000
0000
0000
0000
0000
0000
0000
0000
0100
0000
0000
0000
0000
0000
0000
0000
0000
0000
0000
0000
0001
0000
0000
0000
0000
0000
0000
0000
0000
0000
0000
0000
1000
0000
0000
0000
0000
0000
0000
0000
0000
0000
0000
0000
2002
3003
0000
0000
0000
0000
0000
0000
0000
0000
0000
0000
0000
0000
0000
0000
0000
0000
0000
0000
0000
0000
0000
0000
0000
0000
0000
0000
0000
0000
0000
0000
0000
0000
0000
0000
0000
0000
0000
0000
0000
0000
0000
0000
0000
0000
0000
0000
0000
0000
0000
0000
0000
0000
0000
0000
0000
0000
0000
0000
0000
0000
0000
0000
0000
0000
0000
0000
0000
0000
0000
0000
0000
0000
0000
0000
0000
0000
0000
0000
0000
0000
0000
0000
0000
0000
0000
0000
0000
0000
0000
0000
0000
0000
0000
0000
,  // measure 72
1001
0000
0000
0000
,  // measure 73
0000
0000
0000
0000
,  // measure 74
0000
0000
0000
0000
,  // measure 75
0000
0000
0000
0000
,  // measure 76
0000
0000
0000
0000
,  // measure 77
0000
0000
MMMM
0000
;

//---------------dance-single - ----------------
#NOTES:
     dance-single:
     :
     Hard:
     8:
     0.478391,0.590127,0.202954,0.163924,0.175633,429.000000,403.000000,26.000000,21.000000,0.000000,0.000000,0.478391,0.590127,0.202954,0.163924,0.175633,429.000000,403.000000,26.000000,21.000000,0.000000,0.000000:
0000
0000
0000
0000
,
0000
0000
0000
0000
,
0000
0000
0000
0000
,
0000
0000
0000
0000
,
0000
0000
0000
0000
,
0000
0000
0000
0000
,
0000
0000
0000
0000
,
0000
0000
0000
0000
,
0000
0000
0000
0000
0000
0000
0000
0000
0100
0000
0000
0001
0000
0000
1000
0000
,
0010
0000
1000
0001
1000
0000
0100
0000
0000
0000
0010
0000
0001
0000
1000
0000
,
0010
0000
0000
0100
0000
0000
0001
0000
0000
0000
1000
0000
0100
0000
1000
0000
,
0010
0000
0000
0100
0000
0000
0001
0000
0000
0000
0201
0000
0000
0000
0301
0000
,
0010
0000
0000
0100
0000
0000
1000
0000
0000
0000
0002
0000
0000
0000
1003
0000
,
0010
0000
0000
0100
0001
0000
0000
0000
1000
0000
0010
0000
1000
0000
0001
0000
,
0010
0100
1000
0100
0000
0010
0001
1000
,
0010
0000
0100
0001
0100
0000
0010
0000
1000
0000
0001
0000
0100
0000
0010
0000
,
2000
0000
0000
0000
3001
0000
1000
0000
0100
0000
0000
0010
0000
0000
0001
0000
,
1000
0000
0010
1000
0001
0000
1000
0000
0000
0000
0100
0000
1000
0000
0001
0000
,
0010
0000
0000
0100
0000
0000
1000
0000
0000
0000
0100
0000
1000
0000
0001
0000
,
0100
0000
0000
0010
0000
0000
1000
0000
0000
0000
1010
0000
0000
0000
1000
0000
,
0001
0000
0000
0010
0000
0000
0110
0000
0000
0000
1000
0000
0100
0000
1000
0000
,
0010
1000
0010
0100
0001
0100
0001
1000
,
0001
0010
0001
0010
0100
1000
0100
0010
,
0001
1000
0100
0010
0000
0001
1000
0010
,
0100
0001
1000
0000
0000
0002
0000
1003
,
0001
0100
0010
0000
1000
0100
1000
0100
,
0010
0100
1000
0100
0010
0100
0010
0100
,
0010
0001
1000
0001
0010
0100
0010
0100
,
1000
0000
1001
0000
0000
1000
0001
0100
,
0001
1000
0100
1000
0010
1000
0001
0010
,
0100
0000
0010
0001
1000
0001
1000
0001
,
0010
0001
0010
0001
1000
0100
1000
0100
,
0010
0001
0100
0000
0002
0000
0000
0000
,
1003
0000
0000
0010
0000
0000
0100
0000
0001
0000
1000
0000
0100
0000
0010
0000
,
0001
0000
1000
0000
0100
0000
0010
0000
0002
0000
0000
1000
0000
0000
1003
0000
,
0020
0000
0000
0100
0000
0000
0130
0000
2000
0000
0000
0001
0000
0000
3001
0000
,
0200
0000
0000
0310
1000
0001
1000
0100
,
1000
0001
1000
0100
0010
0001
1000
0001
,
0010
0001
1000
0001
0020
0000
0130
1000
,
0001
1000
0100
0010
0001
0100
0010
1000
,
0100
0010
0000
1001
0200
0000
0320
0000
,
1030
0001
1000
0100
1000
0010
0100
0001
,
0020
0000
0030
0001
0100
0010
1000
0001
,
1000
0100
1000
0001
0010
0100
1000
0010
,
0200
0000
0300
0001
1000
0100
0000
1000
,
0010
0100
0000
0001
0010
1000
0000
1000
,
0010
0100
0000
0100
0010
1000
0001
1000
,
0100
0010
0100
0010
0002
0000
0000
0000
,
0000
0000
1003
0001
0100
0000
0100
0000
,
0100
0100
0100
0100
,
0100
0100
1020
0100
,
1000
0130
0201
0010
,
0001
0310
1001
0010
,
0001
0000
0000
1000
0000
0000
0001
0000
0100
0000
0000
0010
0000
0000
0100
0000
,
0001
0000
0000
0010
0000
0000
0100
0000
1000
0000
0000
0100
0000
0000
0010
0000
,
0001
0000
0000
1000
0000
0000
0010
0000
0100
0000
0000
0001
0000
0000
0100
0000
,
0010
1000
0100
0010
0220
0000
0000
0000
,
0000
0000
0330
0000
0001
0100
1000
0100
,
0001
0000
0100
0000
1000
0000
0100
0000
0010
0000
0000
1000
0001
0000
0001
0000
,
0010
0000
0000
0001
1000
0000
1000
0000
2002
0000
0000
0000
0000
0000
0000
0000
,
0000
0000
0000
0000
3003
0000
0001
0000
0100
0000
0000
0101
0000
0000
0101
0000
,
0000
0000
0000
1010
0000
0000
1010
0000
0000
0000
0000
1100
0000
0000
1100
0000
,
0100
0000
0010
0000
1001
0000
0000
0000
0010
0000
0000
0011
0000
0000
0011
0000
,
1000
0000
0000
1001
0000
0000
1001
0000
0100
0000
0000
1100
0000
0000
1100
0000
,
0010
0100
1001
0000
1000
0001
1000
0010
,
0100
0000
0000
0000
0000
0000
0001
0000
0000
0000
0000
0000
0000
0000
0000
0010
0000
0000
0000
0000
0000
0000
0000
0000
0100
0000
0000
0000
1000
0000
0000
0000
0100
0000
0000
0000
1000
0000
0000
0000
0100
0000
0000
0000
1000
0000
0000
0000
,
0100
0000
0000
0010
0000
0000
0001
0000
1000
0000
0001
1000
0001
0000
0100
0000
,
0001
0000
1000
0001
1000
0000
0100
0000
0010
0000
0000
0001
0000
0000
1000
0000
,
0010
0000
0100
0000
0010
0000
1000
0000
0001
0000
0000
0010
0000
0000
0001
0000
,
1000
0000
0000
0100
0000
0000
0010
0000
0100
0000
0000
1000
0000
0000
0001
0000
,
0100
0000
0000
0010
0000
0000
1000
0000
0100
0000
0010
0000
0100
0000
0010
0000
,
0001
1000
0001
0000
1000
0001
1000
0000
1001
0000
0000
0000
0000
0000
0000
0000
,
1001
0000
0000
0000
;

//---------------dance-single - ----------------
#NOTES:
     dance-single:
     :
     Medium:
     6:
     0.354611,0.477722,0.202954,0.202954,0.000000,318.000000,292.000000,26.000000,26.000000,0.000000,0.000000,0.354611,0.477722,0.202954,0.202954,0.000000,318.000000,292.000000,26.000000,26.000000,0.000000,0.000000:
0000
0000
0000
0000
,
0000
0000
0000
0000
,
0000
0000
0000
0000
,
0000
0000
0000
0000
,
0000
0000
0000
0000
,
0000
0000
0000
0000
,
0000
0000
0000
0000
,
0000
0000
0000
0000
,
0000
0000
0002
0013
,
0001
1000
0100
0000
1000
0100
1000
0000
,
0010
1000
0100
0000
1000
0000
0001
0000
,
0100
0000
0010
0000
1000
0010
1000
0000
,
0001
0010
0100
0000
1000
0000
1100
0000
,
0011
0000
1100
0000
0010
0100
0010
1000
,
0100
0000
0010
0000
0001
1000
0010
0000
,
0100
0001
1000
0000
0010
0000
0100
0000
,
0010
0000
1001
0000
0000
0001
0000
1100
,
0000
0010
0000
0110
0000
0010
0000
1001
,
0000
0001
0000
1000
0100
0010
0000
0011
,
0000
1000
0000
1010
0000
0100
0000
0010
,
0000
1000
0100
0010
0001
0100
0001
0100
,
0010
0100
0001
0000
1000
0010
1000
0000
,
1000
0100
1000
0000
0001
0010
0001
0000
,
0001
0100
0001
0000
0000
0000
1000
0000
,
0001
0000
2002
0000
3003
0000
0100
0010
,
0200
0000
0301
0000
0001
0010
0002
0000
,
1000
0000
1003
0000
0010
1000
0010
0000
,
0100
0010
0100
0000
0001
0000
1000
0000
,
0100
0010
0200
0000
0300
0000
1000
0000
,
0001
0000
0010
0000
0100
0000
1000
0001
,
2000
0000
3010
0000
0100
0000
0001
0100
,
0001
0000
1000
0100
1000
0000
0001
0000
,
0010
0100
2000
0000
,
3002
1003
0100
0010
,
0200
1300
2001
3001
,
1002
1003
2001
3010
,
2002
0000
3003
0000
0001
0100
0001
0100
,
0010
1000
0010
1000
0100
1000
0100
1000
,
0001
0010
0001
0010
0001
0000
0100
0000
,
0010
1000
0200
0320
,
0130
1000
1001
0010
,
0001
0000
0100
0000
1000
0000
0100
0010
,
0002
0000
1003
0001
,
0100
0000
0010
0000
1000
0000
0010
0100
,
0002
0000
0000
0000
1003
0100
0000
0000
,
0010
0001
0000
0000
1000
0010
0000
0000
,
0100
0001
0000
0000
1000
0000
0001
0000
,
0100
0010
1000
0001
0200
0000
0000
0000
,
0000
0000
0310
1000
0200
0000
0000
0000
,
0000
0000
0300
0000
,
0000
0000
0000
0000
1000
0100
1000
0000
,
1000
0100
1000
0000
0001
0010
0001
0000
,
0001
0010
0001
0000
0110
0000
1000
0000
,
0001
0100
1000
0010
,
0001
0010
1000
0100
,
0010
0100
1000
0001
,
0100
0000
0010
0100
0020
0000
0000
0000
,
0000
0000
0030
0000
1000
0100
0010
0001
,
1000
0100
0010
0001
2000
0000
0000
0000
,
0002
3003
2002
0000
,
3003
0000
0010
0011
,
0010
0011
0010
0011
,
1000
0001
1000
0000
0010
0000
1010
0000
,
0010
1010
0010
1010
,
1000
0001
1000
0000
0100
1000
0100
1000
,
0100
0000
0010
0000
0001
0100
0001
0100
,
0001
1000
0010
0110
,
1000
1001
0100
0010
,
0100
0000
0001
0000
0010
0100
0010
0000
,
0001
1000
0010
0000
0100
0001
0100
0000
,
0010
1000
0100
0000
1000
0100
0010
0001
,
1000
0100
0010
0001
1000
0000
0000
0000
,
1001
0000
0000
0000
;

//---------------dance-single - ----------------
#NOTES:
     dance-single:
     :
     Easy:
     4:
     0.253135,0.337215,0.132701,0.257595,0.000000,227.000000,210.000000,17.000000,33.000000,0.000000,0.000000,0.253135,0.337215,0.132701,0.257595,0.000000,227.000000,210.000000,17.000000,33.000000,0.000000,0.000000:
0000
0000
0000
0000
,
0000
0000
0000
0000
,
0000
0000
0000
0000
,
0000
0000
0000
0000
,
0000
0000
0000
0000
,
0000
0000
0000
0000
,
0000
0000
0000
0000
,
0000
0000
0000
0000
,
0000
0000
0001
0100
,
0001
0010
0100
1000
,
0100
0010
0001
1000
,
0001
1000
0010
1000
,
0100
0000
1000
1000
,
0001
0001
0100
0010
,
0100
0010
1000
0010
,
1000
0001
1000
0100
,
1000
0001
0010
0001
,
0100
0010
1000
0001
,
0100
0010
0100
0001
,
1000
0100
0010
0100
,
1000
0000
1001
0010
,
0001
0001
1000
1000
,
0001
0001
1000
1000
,
0001
0001
0000
1000
,
0100
0001
0010
0100
,
0010
0100
1000
0100
,
0001
0100
1000
0100
,
1000
0001
0010
0100
,
0010
0001
1000
0001
,
1000
0001
1000
0010
,
1000
0001
0100
0010
,
0100
0010
1000
0100
,
0010
0001
2000
0000
,
3002
0000
1003
0100
,
0010
0100
2000
3000
,
0020
0030
0002
0003
,
0200
0300
0010
1000
,
0100
0010
0001
1000
,
0010
0100
0002
0013
,
0100
1000
0001
1000
,
0200
0310
0110
0000
,
1001
0000
0010
0001
,
0200
0300
0010
1000
,
0001
1000
0100
0010
,
0200
0300
2100
3000
,
1020
0030
0012
0003
,
0201
0300
0100
0010
,
0100
0010
2000
0000
,
0000
3001
2002
0000
,
0000
0000
3003
0000
,
0000
0000
0002
0003
,
0002
0003
2000
3000
,
2000
3000
0010
0100
,
0020
0030
2000
3000
,
0002
0003
1000
0100
,
0020
0030
0200
0300
,
2000
3000
2002
0000
,
0000
3003
0001
1000
,
0010
0100
0002
0003
,
2000
3000
2002
0000
,
3003
0000
1000
0100
,
0001
0100
1000
0100
,
0001
0101
1000
0100
,
0001
0100
1000
0100
,
0001
0101
1000
0010
,
0100
0100
0010
1000
,
0100
1100
0010
0100
,
0010
0010
1000
1000
,
0001
0001
0010
0100
,
1000
0001
0100
0010
,
0110
1000
0001
0010
,
1001
0010
1001
0000
,
1001
0000
0000
0000
;

//---------------dance-single - ----------------
#NOTES:
     dance-single:
     :
     Beginner:
     2:
     0.160579,0.252912,0.062447,0.000000,0.000000,144.000000,136.000000,8.000000,0.000000,0.000000,0.000000,0.160579,0.252912,0.062447,0.000000,0.000000,144.000000,136.000000,8.000000,0.000000,0.000000,0.000000:
0000
0000
0000
0000
,
0000
0000
0000
0000
,
0000
0000
0000
0000
,
0000
0000
0000
0000
,
0000
0000
0000
0000
,
0000
0000
0000
0000
,
0000
0000
0000
0000
,
0000
0000
0000
0000
,
0000
0000
1000
0000
,
0100
0000
0010
0000
,
0100
0000
1000
0000
,
0001
0000
0100
0000
,
0010
0000
1001
0000
,
0010
0000
0001
0000
,
0010
0000
1000
0000
,
0001
0000
0100
0000
,
0010
0000
0100
0100
,
0100
0000
0001
0000
,
1000
0000
0010
0010
,
0010
0000
1000
0000
,
0001
0000
0100
0000
,
0010
0010
0010
0010
,
0010
0010
0010
0010
,
0010
0010
0000
0000
,
1000
0000
0100
0000
,
0010
0000
0001
0000
,
1000
0000
0001
0000
,
1000
0000
0001
0000
,
0100
0100
0000
0010
,
0000
1000
0000
0001
,
0000
0010
0010
0000
,
0010
0000
0100
0000
,
1000
0000
1001
0000
,
0010
0000
0001
0000
,
0010
0000
1000
0000
,
1000
0000
0001
0000
,
0001
0000
0100
0100
,
0100
0100
0100
0100
,
0100
0100
0100
0000
,
0100
0000
0010
0000
,
0010
0000
1001
0000
,
0010
0000
0001
0000
,
1000
0000
0001
0000
,
0100
0000
0010
0000
,
1000
0000
0100
0000
,
0100
0000
0100
0000
,
0100
0000
0100
0000
,
0010
0000
0001
0000
,
0000
1000
1000
0000
,
0000
0000
0000
0000
,
0000
0000
0010
0000
,
0000
0000
0100
0000
,
0000
0000
0001
0000
,
0000
0000
1000
0000
,
0000
0000
0100
0000
,
0000
0000
0010
0000
,
0000
0000
1001
0000
,
0000
0000
0010
0000
,
0010
0000
1001
0000
,
0010
0000
1001
0000
,
0000
0000
0100
0000
,
0100
0000
0100
0000
,
0100
0100
0100
0000
,
0100
0000
0100
0000
,
0100
0100
0100
0100
,
0100
0000
0010
0010
,
0010
0000
0010
0000
,
0010
0000
0100
0100
,
0100
0000
0010
0010
,
0010
0000
0001
0001
,
0001
0000
1000
1000
,
1000
0000
1001
0000
,
1001
0000
0000
0000
;
