#TITLE:An Archaeic Resonance;
#SUBTITLE:;
#ARTIST:OMORI;
#TITLETRANSLIT:;
#SUBTITLETRANSLIT:;
#ARTISTTRANSLIT:;
#GENRE:OMORI;
#CREDIT:[Ness];
#BANNER:OMORI - An Archaeic Resonance (for TapMania).png;
#BACKGROUND:OMORI - An Archaeic Resonance (for TapMania)-bg.png;
#LYRICSPATH:;
#CDTITLE:;
#MUSIC:OMORI - An Archaeic Resonance (for TapMania).mp3;
#OFFSET:0.020000;
#SAMPLESTART:0.281363;
#SAMPLELENGTH:16.000000;
#SELECTABLE:YES;
#BPMS:0.000000=120.000000
;
#STOPS:
;
#BGCHANGES:;
#KEYSOUNDS:;
#ATTACKS:;

//---------------dance-single - [Ness]----------------
#NOTES:
     dance-single:
     [Ness]:
     Hard:
     7:
     0.367789,0.370723,0.338753,0.372629,0.169377,152.000000,132.000000,20.000000,22.000000,0.000000,0.000000,0.367789,0.370723,0.338753,0.372629,0.169377,152.000000,132.000000,20.000000,22.000000,0.000000,0.000000:
0000
0010
1000
0010
0100
0000
0001
0000
,
2200
0000
0000
0000
3300
0000
0010
1000
0010
0000
0000
0100
0000
0000
1001
0000
,
0000
0000
0001
0000
0010
0000
1000
0000
0010
0000
0000
0100
0000
0000
0202
0000
,
0000
0000
0000
0000
0303
0000
1000
0010
1000
0000
0000
0001
0000
0000
1001
0000
,
0000
0001
0100
0010
2000
0000
3002
0000
,
0013
0000
0000
0000
0110
0000
0100
1000
0100
0000
0000
0010
0000
0000
1001
0000
,
0000
0000
0001
0000
0100
0000
1000
0000
0100
0000
0000
0010
0000
0000
1000
0000
,
0100
0000
0000
0000
0110
0000
0001
0100
0001
0000
0000
1000
0000
0000
0100
0000
,
0000
0010
0001
1000
0010
0000
1100
0000
,
0202
0000
0000
0000
0303
0000
1000
0100
0010
0000
0000
0001
0000
0000
1001
0000
,
0000
0000
0001
0000
0100
0000
0010
0000
1000
0000
0000
0100
0000
0000
0020
0000
,
0100
0000
0000
0000
0130
0000
1000
0001
1000
0000
0000
0010
0000
0000
0110
0000
,
0000
0100
0001
1000
1100
0000
0011
0000
,
2002
0000
0000
0000
3003
0000
0010
0100
0001
0000
0000
1000
0000
0000
1100
0000
,
0000
0000
1000
0000
0100
0000
0001
0000
0100
0000
0000
0010
0000
0000
0002
0000
,
0100
0000
0000
0000
0103
0000
0010
1000
0010
0000
0000
0100
0000
0000
0001
0000
,
1000
0100
0010
0001
0200
0000
0310
0000
,
1002
0000
0200
0000
0000
0300
0000
1000
,
0000
1003
0010
0000
0000
0000
0001
1000
,
1200
0000
0020
0000
0000
0030
0000
1000
,
0000
1300
0001
0000
0000
0000
0100
0010
,
0100
0001
2100
0000
0000
0000
0000
0001
,
0000
3001
0010
0000
0000
0000
0100
0010
,
0012
0000
2000
0000
0000
3000
0000
0103
,
0000
0010
1000
0001
0010
0000
0100
0000
,
2200
0000
0000
3300
;

//---------------dance-single - ----------------
#NOTES:
     dance-single:
     :
     Medium:
     6:
     0.261324,0.261687,0.135501,0.372629,0.084688,108.000000,100.000000,8.000000,22.000000,0.000000,0.000000,0.261324,0.261687,0.135501,0.372629,0.084688,108.000000,100.000000,8.000000,22.000000,0.000000,0.000000:
0000
0000
0000
0000
,
0202
0000
0000
0000
0303
0000
0010
0000
1000
0000
0000
0100
0000
0000
0010
0000
,
0000
0001
1000
0001
2000
0000
3100
0000
,
0010
0000
0000
0000
0001
0000
0000
0000
1000
0000
0000
0001
0000
0000
0100
0000
,
0000
0010
1000
0010
0200
0000
0301
0000
,
0010
0000
0000
0000
0100
0000
0000
0000
1000
0000
0000
0001
0000
0000
0100
0000
,
0000
0000
0010
0000
1000
0000
0100
0000
0010
0000
0000
0001
0000
0000
1000
0000
,
0000
0000
0000
0000
0000
0000
0001
0000
0010
0000
0000
0100
0000
0000
1000
0000
,
0000
0001
0100
0001
2000
0000
3010
0000
,
0220
0000
0000
0000
0330
0000
1000
0000
0100
0000
0000
0010
0000
0000
0100
0000
,
0000
1000
0001
1000
0200
0000
0310
0000
,
0001
0000
0000
0000
0000
0000
1000
0000
0010
0000
0000
0100
0000
0000
0001
0000
,
0000
0010
0100
0010
0002
0000
1003
0000
,
0100
0000
0000
0000
0000
0000
0010
0000
0100
0000
0000
1000
0000
0000
0001
0000
,
0000
0000
1000
0000
0010
0000
0000
0000
0100
0000
0000
0001
0000
0000
0010
0000
,
0000
0000
0000
0000
0001
0000
0000
0000
0010
0000
0000
0100
0000
0000
1000
0000
,
0000
0001
1000
0110
,
2002
0000
0000
0000
3003
0000
0000
0010
,
0000
1000
0020
0000
0000
0000
0030
0000
,
0100
0000
2002
0000
3003
0000
0000
0100
,
0000
0100
0002
0000
0000
0000
0003
0000
,
0010
0000
2002
0000
3003
0000
0000
0010
,
0000
0100
0020
0000
0000
0000
0030
0000
,
1000
0000
2002
0000
3003
0000
0000
0100
,
0000
0010
1000
0010
0001
0000
0010
0000
,
0220
0000
0000
0330
;

//---------------dance-single - ----------------
#NOTES:
     dance-single:
     :
     Easy:
     3:
     0.145180,0.174458,0.169377,0.389566,0.000000,60.000000,50.000000,10.000000,23.000000,0.000000,0.000000,0.145180,0.174458,0.169377,0.389566,0.000000,60.000000,50.000000,10.000000,23.000000,0.000000,0.000000:
// measure 0
0000
0000
0000
0000
,  // measure 1
2002
0000
3003
0000
,  // measure 2
0000
0010
1000
0100
,  // measure 3
2200
0000
0000
3300
,  // measure 4
0000
0001
1000
0001
,  // measure 5
0022
0000
0000
0033
,  // measure 6
0000
1000
0001
1000
,  // measure 7
2020
0000
0000
3030
,  // measure 8
0000
0010
1000
0001
,  // measure 9
0202
0000
0000
0303
,  // measure 10
0000
0010
0100
1000
,  // measure 11
2200
0000
0000
3300
,  // measure 12
0000
0001
1000
0010
,  // measure 13
0220
0000
0330
0000
,  // measure 14
0000
1000
0001
0100
,  // measure 15
2002
0000
3003
0000
,  // measure 16
0000
0001
1000
0010
,  // measure 17
0100
0000
0020
0000
0000
0000
0000
1000
,  // measure 18
0030
0010
0000
0000
,  // measure 19
1000
0000
0200
0000
0000
0000
0000
1000
,  // measure 20
0300
0010
0000
0000
,  // measure 21
2002
0000
0000
0000
3003
0000
0000
0010
,  // measure 22
0000
0010
0000
0000
,  // measure 23
0100
0000
0020
0000
0000
0000
0000
0100
,  // measure 24
0030
1000
0001
0100
,  // measure 25
2002
0000
0000
3003
;

//---------------dance-single - ----------------
#NOTES:
     dance-single:
     :
     Beginner:
     1:
     0.087108,0.105860,0.033875,0.169377,0.000000,36.000000,34.000000,2.000000,10.000000,0.000000,0.000000,0.087108,0.105860,0.033875,0.169377,0.000000,36.000000,34.000000,2.000000,10.000000,0.000000,0.000000:
// measure 0
0000
0000
0000
0000
,  // measure 1
2000
0000
3000
0000
,  // measure 2
0000
0010
0010
0000
,  // measure 3
0200
0000
0300
0000
,  // measure 4
0000
0001
0001
0000
,  // measure 5
0020
0000
0030
0000
,  // measure 6
0000
0100
0100
0000
,  // measure 7
2000
0000
3000
0000
,  // measure 8
0000
0010
0010
0000
,  // measure 9
0200
0000
0300
0000
,  // measure 10
0000
0001
0001
0000
,  // measure 11
2000
0000
3000
0000
,  // measure 12
0000
0100
0100
0000
,  // measure 13
0020
0000
0030
0000
,  // measure 14
0000
0001
0001
0000
,  // measure 15
0020
0000
0030
0000
,  // measure 16
0000
1000
1000
0000
,  // measure 17
2002
0000
3003
0000
,  // measure 18
0100
0000
0000
0000
,  // measure 19
1000
0000
0000
0000
,  // measure 20
0100
0000
0000
0000
,  // measure 21
0001
0000
0000
0000
,  // measure 22
0100
0000
0000
0000
,  // measure 23
0010
0000
0000
0000
,  // measure 24
0000
0100
0100
0000
,  // measure 25
1001
0000
0000
0000
;
