#TITLE:Nightshade (Diskowarp Easily Amused Mix);
#SUBTITLE:;
#ARTIST:Melody and Mezzo;
#TITLETRANSLIT:;
#SUBTITLETRANSLIT:;
#ARTISTTRANSLIT:;
#GENRE:DDR UNIVERSE;
#CREDIT:;
#BANNER:Nightshade (Diskowarp Easily Amused Mix)-bn.jpg;
#BACKGROUND:Nightshade (Diskowarp Easily Amused Mix)-bg.jpg;
#LYRICSPATH:;
#CDTITLE:;
#MUSIC:Nightshade (Diskowarp Easily Amused Mix).mp3;
#OFFSET:-0.722000;
#SAMPLESTART:50.212452;
#SAMPLELENGTH:12.000000;
#SELECTABLE:YES;
#BPMS:0.000000=160.000000
;
#STOPS:
;
#BGCHANGES:;
#KEYSOUNDS:;
#ATTACKS:;

//---------------dance-single - ----------------
#NOTES:
     dance-single:
     :
     Medium:
     6:
     0.477465,0.553592,0.393800,0.131267,0.000000,331.000000,292.000000,39.000000,13.000000,0.000000,0.000000,0.477465,0.553592,0.393800,0.131267,0.000000,331.000000,292.000000,39.000000,13.000000,0.000000,0.000000:
0000
0000
0000
0000
,
0000
0000
0000
0000
,
0000
0000
0000
0000
,
0000
0000
0000
0000
,
2000
0000
0002
3000
0020
0003
0030
0000
,
0001
0001
0000
0000
0000
0000
0000
0000
,
0001
0000
0001
0000
1000
0100
0010
0000
,
0210
0000
0000
0000
,
0000
0000
0000
0000
0000
0300
0000
0000
,
0001
0000
1000
0000
0010
1000
0100
0000
,
1000
0000
0001
0000
0010
0001
0100
0000
,
0010
0000
0010
0000
0100
0010
1000
0000
,
0001
1000
0100
0000
1000
0001
0100
0000
,
0001
0000
1000
0000
0001
0100
0010
0000
,
1000
0000
0001
0000
1000
0100
0010
0000
,
0100
0000
0100
0000
1000
0001
0010
0000
,
0001
1000
0001
1000
0001
0000
0000
0000
,
0020
0000
0100
0000
0031
0000
1000
0010
,
0100
0000
0001
0010
0100
0000
0110
0000
,
0200
1000
0001
1300
,
0010
0001
0010
0001
0010
0000
0000
0000
,
0002
0000
0010
0000
0103
0000
0001
0100
,
0010
0000
1000
0100
0010
0000
0110
0000
,
0020
0001
1000
0031
,
1000
0010
1000
0010
1000
0000
0000
0010
,
1000
0000
1010
0000
0010
0000
0100
0001
,
0010
0000
0100
1000
0010
0000
1010
0000
,
0101
0000
0001
1000
0001
0000
0100
0000
,
0001
0100
0001
0100
0001
0000
0000
0000
,
0001
0000
0101
0000
0100
0000
0001
0100
,
0010
0000
1000
0100
0010
0000
0110
0000
,
1001
1001
1100
0101
,
0001
0100
0010
2000
3010
0000
0000
0000
,
1010
0000
1010
0000
1010
0000
1000
0001
,
1000
0010
1000
0100
1000
0001
1000
0000
,
0011
0000
0011
0000
0011
0000
0001
1000
,
0001
0010
0001
0100
0001
1000
0001
0000
,
1000
0100
0001
0010
,
1000
0001
1000
0100
1000
0001
0010
0000
,
0012
0000
0100
0103
,
1001
0000
0000
0000
,
0101
0000
0101
0000
0101
0000
0001
1000
,
0001
0100
0001
0010
0001
1000
0001
0000
,
1100
0000
1100
0000
1100
0000
1000
0001
,
1000
0100
1000
0010
1000
0001
1000
0000
,
0001
0010
1000
0100
,
0001
1000
0001
0010
0001
1000
0100
0000
,
2100
0000
0010
3010
,
1002
0010
0013
0000
,
1000
0000
0001
0000
0100
0001
0010
0000
,
0001
0000
1000
0000
0100
1000
0010
0000
,
0100
0000
0100
0000
0010
0100
0001
0000
,
1000
0001
0010
0000
0001
1000
0010
0000
,
1000
0000
0001
0000
1000
0010
0100
0000
,
0001
0000
1000
0000
0001
0010
0100
0000
,
0010
0000
0010
0000
0001
1000
0100
0000
,
1001
0110
1001
0000
,
1001
0000
1001
0000
1001
0000
1000
0100
,
1000
0010
1000
0001
1000
0010
1000
0000
,
0110
0000
0110
0000
0110
0000
0010
1000
,
0010
0100
0010
0001
0010
1000
0010
0000
,
0001
0100
1000
0010
,
1000
0100
0010
0001
0010
0001
0100
0000
,
0102
0000
0010
0013
,
0010
0100
0010
0100
0110
0000
0000
0000
;

//---------------dance-single - ----------------
#NOTES:
     dance-single:
     :
     Hard:
     9:
     0.621714,0.683849,0.626041,0.171656,0.025244,431.000000,369.000000,62.000000,17.000000,0.000000,0.000000,0.621714,0.683849,0.626041,0.171656,0.025244,431.000000,369.000000,62.000000,17.000000,0.000000,0.000000:
// measure 0
0000
0000
0000
0000
,  // measure 1
0000
0000
0000
0000
,  // measure 2
0000
0000
0000
0000
,  // measure 3
0000
0000
0000
0000
,  // measure 4
0002
0000
0200
0003
0020
0300
0000
0000
,  // measure 5
0130
0200
0000
0000
0000
0000
0000
0000
,  // measure 6
0310
0000
0000
0000
1000
0010
0100
0002
,  // measure 7
2000
0000
0000
0000
,  // measure 8
3003
0000
0000
0000
,  // measure 9
1000
0100
0010
0001
0010
0100
1000
0001
,  // measure 10
1000
0010
0100
0001
0100
0010
1000
0100
,  // measure 11
1000
0100
0001
0100
1000
0100
0001
0100
,  // measure 12
0010
0001
0100
0010
1000
0100
1000
0000
,  // measure 13
0001
0010
0100
1000
0100
0010
0001
1000
,  // measure 14
0001
0100
0010
1000
0010
0100
0001
0010
,  // measure 15
0001
0010
1000
0010
0001
0010
1000
0010
,  // measure 16
0100
1000
0010
0100
0001
0000
0101
0000
,  // measure 17
0001
0100
0001
0010
0001
1000
0001
0010
,  // measure 18
0100
1000
0100
1000
0010
0010
0010
0000
,  // measure 19
1010
0000
0101
0001
1010
0000
0101
0000
,  // measure 20
0001
0100
0010
0100
0010
0010
0010
0000
,  // measure 21
1000
0010
1000
0100
1000
0001
1000
0100
,  // measure 22
0010
0000
0001
0000
0010
0000
0001
1000
0001
0000
0000
0000
1100
0000
0000
0000
,  // measure 23
2000
0000
0200
3000
0020
0300
0002
0030
,  // measure 24
1003
0010
0100
0010
0001
0000
0110
0010
,  // measure 25
0200
0000
0000
0301
2000
0000
0000
3010
,  // measure 26
0100
0001
0100
0001
1000
1000
1000
0000
,  // measure 27
0011
0000
1100
1000
0011
0000
1100
0000
,  // measure 28
1000
0100
0010
0100
0010
0010
0110
0000
,  // measure 29
0001
0100
0010
1000
0100
1000
0010
0100
,  // measure 30
0010
1000
0010
1000
0001
0001
0001
0000
,  // measure 31
0100
0000
0000
0000
0010
0000
0000
1000
0010
0000
0000
0000
1000
0000
0000
0000
,  // measure 32
0001
0010
0100
1000
0100
0000
1100
0000
,  // measure 33
1100
0110
0110
0011
,  // measure 34
1000
0100
0010
0001
0010
0010
0010
0000
,  // measure 35
0011
0110
0110
1100
,  // measure 36
0001
0010
0100
1000
0100
0100
0100
0000
,  // measure 37
1001
0000
0110
0000
1010
1001
0000
0001
,  // measure 38
0000
2000
0000
0000
3010
0010
0010
0000
,  // measure 39
1001
0000
0000
0000
0000
0000
0001
0010
0001
0000
0000
0000
0010
0000
0000
0000
,  // measure 40
0220
0000
0000
0000
0000
0330
0000
0000
,  // measure 41
0011
0001
1001
1000
1100
0100
0110
0010
,  // measure 42
0001
1000
0010
0100
0001
0001
0001
0000
,  // measure 43
1010
0010
0110
0100
0101
0001
1001
1000
,  // measure 44
0001
0010
0100
1000
0001
0001
0001
0000
,  // measure 45
1100
0100
0110
0010
0011
1001
0000
0001
,  // measure 46
0000
2000
0000
0000
3010
0010
0010
0000
,  // measure 47
1001
0000
0110
1001
,  // measure 48
0001
0001
1000
1000
1001
0000
0000
0000
,  // measure 49
0001
0010
0100
1000
0100
0010
0001
1000
,  // measure 50
0001
0100
0010
1000
0010
0100
0001
0010
,  // measure 51
0001
0010
1000
0010
0001
0010
1000
0010
,  // measure 52
0100
1000
0010
0100
0001
0010
0001
0000
,  // measure 53
1000
0100
0010
0001
0010
0100
1000
0001
,  // measure 54
1000
0010
0100
0001
0100
0010
1000
0100
,  // measure 55
1000
0100
0001
0100
1000
0100
0001
1000
,  // measure 56
0001
0010
0000
0000
1000
0100
0000
0000
1001
0000
0000
0000
0000
0000
0000
0000
,  // measure 57
1100
1000
1001
0001
0011
0010
0110
0100
,  // measure 58
1000
0001
0010
0100
1000
1000
1000
0000
,  // measure 59
1100
0100
0110
0010
0011
0001
1001
1000
,  // measure 60
0100
0010
0001
1000
0100
0100
0100
0000
,  // measure 61
1100
1000
1001
1000
1010
0011
0000
0001
,  // measure 62
0000
2000
0000
0000
3010
0010
0010
0000
,  // measure 63
0110
0000
1001
0110
,  // measure 64
1001
0001
0011
0010
0110
0000
0000
0000
;

//---------------dance-single - ----------------
#NOTES:
     dance-single:
     :
     Easy:
     3:
     0.275516,0.293078,0.060585,0.080780,0.000000,191.000000,185.000000,6.000000,8.000000,0.000000,0.000000,0.275516,0.293078,0.060585,0.080780,0.000000,191.000000,185.000000,6.000000,8.000000,0.000000,0.000000:
0000
0000
0000
0000
,
0000
0000
0000
0000
,
0000
0000
0000
0000
,
0000
0000
0000
0000
,
1000
0001
1000
0000
,
0010
0000
0100
0000
,
0110
0000
0000
0000
,
2002
0000
0000
0000
,
3003
0000
0000
0000
,
1000
0010
0100
0001
,
2000
0000
3001
0000
,
0001
0010
0100
1000
,
0001
1000
0001
0000
,
0001
0100
0010
1000
,
0002
0000
1003
0000
,
1000
0100
0010
0001
,
1000
0001
1000
0000
,
1000
1000
0010
1000
,
0001
0001
0010
0000
,
0001
0000
0010
0000
,
0010
0010
0010
0000
,
0001
0001
0010
0001
,
1000
1000
0010
0000
,
1000
0000
0010
0000
,
0010
0010
0010
0000
,
1000
1000
0100
0010
,
0001
0001
1000
0000
,
0001
0010
0001
0000
,
1000
0010
1000
0000
,
0001
0001
0100
0010
,
1000
1000
0001
0000
,
1000
0100
1000
0000
,
0100
0100
0100
0000
,
1000
1000
1000
0001
,
0010
0100
1000
0000
,
1000
1000
1000
0010
,
0100
0001
1000
0000
,
0010
0010
0010
1000
,
0100
0010
0001
0000
,
1001
0000
1000
0000
,
0010
0100
0100
0000
,
0001
0001
0001
1000
,
0010
0100
0001
0000
,
0001
0001
0001
0010
,
0100
1000
0001
0000
,
0100
0100
0100
0001
,
0010
0100
1000
0000
,
1001
0000
0001
0000
,
2002
0000
3003
0000
,
0001
0100
0010
1000
,
0002
0000
1003
0000
,
1000
0100
0010
0001
,
1000
0001
1000
0000
,
1000
0010
0100
0001
,
2000
0000
3001
0000
,
0001
0010
0100
1000
,
0001
1000
0001
0000
,
0010
0010
0010
0100
,
0001
0010
0100
0000
,
0010
0010
0010
0001
,
1000
0100
0010
0000
,
1000
1000
1000
0001
,
0010
0100
1000
0000
,
1001
0000
0001
0000
,
1000
0001
1000
0000
;

//---------------dance-single - ----------------
#NOTES:
     dance-single:
     :
     Beginner:
     1:
     0.191851,0.226183,0.040390,0.000000,0.000000,133.000000,129.000000,4.000000,0.000000,0.000000,0.000000,0.191851,0.226183,0.040390,0.000000,0.000000,133.000000,129.000000,4.000000,0.000000,0.000000,0.000000:
0000
0000
0000
0000
,
0000
0000
0000
0000
,
0000
0000
0000
0000
,
0000
0000
0000
0000
,
1000
1000
1000
0000
,
0001
0001
0001
0000
,
0100
0000
0000
0000
,
0110
0000
0000
0000
,
0000
0000
0000
0000
,
1000
0000
0001
0000
,
0100
0000
0001
0000
,
0010
0000
0100
0000
,
1000
1000
1000
0000
,
0001
0000
1000
0000
,
0010
0000
0100
0000
,
0001
0000
1000
0000
,
0010
0010
0010
0000
,
0100
0100
0000
0000
,
0010
0010
0000
0000
,
1000
0000
0001
0000
,
1000
1000
1000
0000
,
0010
0010
0000
0000
,
0100
0100
0000
0000
,
0001
0000
1000
0000
,
0001
0001
0001
0000
,
1000
0000
0001
0000
,
1000
1000
1000
0000
,
0010
0000
0100
0000
,
0010
0010
0010
0000
,
0100
0000
0001
0000
,
0010
0010
0010
0000
,
0001
0000
0100
0000
,
0010
0010
0010
0000
,
1000
1000
0000
0000
,
0001
0001
0000
0000
,
0100
0100
0000
0000
,
0001
0001
0000
0000
,
0010
0010
0000
0000
,
0001
0001
0000
0000
,
1000
1000
0000
0000
,
1001
0000
0000
0000
,
1000
1000
0000
0000
,
0010
0010
0000
0000
,
1000
1000
0000
0000
,
0001
0001
0000
0000
,
0100
0100
0000
0000
,
0010
0010
0000
0000
,
0100
0100
0000
0000
,
0110
0000
0000
0000
,
1000
0000
0001
0000
,
1000
0000
0010
0000
,
1000
0000
0100
0000
,
1000
1000
1000
0000
,
0001
0000
0100
0000
,
0010
0000
1000
0000
,
0010
0000
0100
0000
,
0001
0001
0001
0000
,
1000
1000
0000
0000
,
0001
0001
0000
0000
,
0100
0100
0000
0000
,
0010
0010
0000
0000
,
1000
1000
1000
0000
,
0001
0001
0001
0000
,
1000
0000
0001
0000
,
1001
0000
0000
0000
;

//---------------dance-double - ----------------
#NOTES:
     dance-double:
     :
     Beginner:
     1:
     0.191851,0.226183,0.040390,0.000000,0.000000,133.000000,129.000000,4.000000,0.000000,0.000000,0.000000,0.191851,0.226183,0.040390,0.000000,0.000000,133.000000,129.000000,4.000000,0.000000,0.000000,0.000000:
00000000
00000000
00000000
00000000
,
00000000
00000000
00000000
00000000
,
00000000
00000000
00000000
00000000
,
00000000
00000000
00000000
00000000
,
00000010
00000010
00000010
00000000
,
00010000
00010000
00010000
00000000
,
00001000
00000000
00000000
00000000
,
00011000
00000000
00000000
00000000
,
00000000
00000000
00000000
00000000
,
00001000
00000000
01000000
00000000
,
00010000
00000000
00100000
00000000
,
00010000
00000000
10000000
00000000
,
00010000
00010000
00010000
00000000
,
00100000
00000000
00001000
00000000
,
00010000
00000000
00000100
00000000
,
00001000
00000000
00000001
00000000
,
00000100
00000100
00000100
00000000
,
00000010
00000010
00000000
00000000
,
00010000
00010000
00000000
00000000
,
00001000
00000000
00010000
00000000
,
00001000
00001000
00001000
00000000
,
00100000
00100000
00000000
00000000
,
00010000
00010000
00000000
00000000
,
01000000
00000000
00100000
00000000
,
10000000
10000000
10000000
00000000
,
00010000
00000000
00100000
00000000
,
00001000
00001000
00001000
00000000
,
00010000
00000000
00001000
00000000
,
00010000
00010000
00010000
00000000
,
00000100
00000000
00001000
00000000
,
00000010
00000010
00000010
00000000
,
00001000
00000000
00000001
00000000
,
00001000
00001000
00001000
00000000
,
00000100
00000100
00000000
00000000
,
00010000
00010000
00000000
00000000
,
00001000
00001000
00000000
00000000
,
01000000
01000000
00000000
00000000
,
00010000
00010000
00000000
00000000
,
00100000
00100000
00000000
00000000
,
01000000
01000000
00000000
00000000
,
01100000
00000000
00000000
00000000
,
00010000
00010000
00000000
00000000
,
00000010
00000010
00000000
00000000
,
00000100
00000100
00000000
00000000
,
00000001
00000001
00000000
00000000
,
00001000
00001000
00000000
00000000
,
00000100
00000100
00000000
00000000
,
00010000
00010000
00000000
00000000
,
00011000
00000000
00000000
00000000
,
00001000
00000000
00100000
00000000
,
00010000
00000000
10000000
00000000
,
00100000
00000000
01000000
00000000
,
00001000
00001000
00001000
00000000
,
00010000
00000000
00000100
00000000
,
00001000
00000000
00000010
00000000
,
00000100
00000000
00000001
00000000
,
00001000
00001000
00001000
00000000
,
00000100
00000100
00000000
00000000
,
00010000
00010000
00000000
00000000
,
00001000
00001000
00000000
00000000
,
00100000
00100000
00000000
00000000
,
00010000
00010000
00010000
00000000
,
01000000
01000000
01000000
00000000
,
00100000
00000000
01000000
00000000
,
01100000
00000000
00000000
00000000
;

//---------------dance-double - ----------------
#NOTES:
     dance-double:
     :
     Easy:
     4:
     0.285613,0.293078,0.070682,0.020195,0.000000,198.000000,191.000000,7.000000,2.000000,0.000000,0.000000,0.285613,0.293078,0.070682,0.020195,0.000000,198.000000,191.000000,7.000000,2.000000,0.000000,0.000000:
00000000
00000000
00000000
00000000
,
00000000
00000000
00000000
00000000
,
00000000
00000000
00000000
00000000
,
00000000
00000000
00000000
00000000
,
00000001
00000100
00001000
00000000
,
00000100
00000000
00010000
00000000
,
01000000
10000000
01000000
00100000
,
20000000
00000000
00000000
00000000
,
30000000
00000000
00000000
00000000
,
01000000
00100000
00010000
00100000
,
00001000
00000000
00000010
00000000
,
00000100
00001000
00000010
00000001
,
00000010
00000100
00000001
00000000
,
00001000
00010000
00100000
01000000
,
10000000
00010000
10000000
00000000
,
00010000
00100000
00001000
00010000
,
00000100
00000000
00011000
00000000
,
00000010
00001000
00000001
00000000
,
00000100
00001000
00010000
00011000
,
00010000
00000000
00100000
00000000
,
01000000
00100000
10000000
10000000
,
00100000
10000000
02000000
00000000
,
00010000
00010000
03010000
00000000
,
00001000
00000010
00000001
00000010
,
00001000
00010000
00001000
00000000
,
01000000
00010000
10000000
00000000
,
01000000
00010000
00001000
00011000
,
00001000
00000000
00000010
00000000
,
00000100
00001000
00000010
00000100
,
00000010
00010000
00001000
00000000
,
00010000
00001000
01000000
00000000
,
00100000
01000000
10000000
01000000
,
00010000
00001000
00000100
00000000
,
00000010
00000010
00000010
00000001
,
00001000
00000010
00000000
00010000
,
00001000
00001000
00001000
00100000
,
00010000
10000000
00000000
00010000
,
01000000
01000000
01000000
00000000
,
00001000
00010000
00001000
00010000
,
00000100
00000000
00000010
00000001
,
00001000
00001000
00001001
00000000
,
00001000
00001000
00001000
00000100
,
00010000
00001000
00000000
00100000
,
00010000
00010000
00010000
01000000
,
00100000
10000000
00000000
00010000
,
00100000
00100000
00100000
00000000
,
00001000
00000000
00010000
00000100
,
00001000
00000000
00000010
00000100
,
00000110
00000000
00000000
00000000
,
00000001
00000100
00001000
00010000
,
00001000
00000000
01000000
00000000
,
00010000
00100000
01000000
10000000
,
00010000
00100000
00001000
00000000
,
00010000
00000100
00000010
00000001
,
00001000
00000010
00000100
00000000
,
00000010
00010000
00001000
00100000
,
00010000
10000000
10010000
00000000
,
10000000
10000000
10000000
00010000
,
00100000
00001000
00000000
00010000
,
00001000
00001000
00001000
00010000
,
00000100
00000010
00000000
00000100
,
00001000
00001000
00001000
00000000
,
00000001
00000000
00000000
00001001
,
00001000
00000000
00000100
00010000
,
00001000
00010000
00001000
00000000
;

//---------------dance-double - ----------------
#NOTES:
     dance-double:
     :
     Medium:
     7:
     0.442845,0.521028,0.201949,0.262533,0.000000,307.000000,287.000000,20.000000,26.000000,0.000000,0.000000,0.442845,0.521028,0.201949,0.262533,0.000000,307.000000,287.000000,20.000000,26.000000,0.000000,0.000000:
00000000
00000000
00000000
00000000
,
00000000
00000000
00000000
00000000
,
00000000
00000000
00000000
00000000
,
00000000
00000000
00000000
00000000
,
00011000
00110000
10010000
00000000
,
00100000
10000000
00000000
00000000
00000000
00000000
00000000
00000000
,
01000000
00000000
00010000
00000000
00001000
00000010
00000001
00000000
,
00000022
00000000
00000000
00000000
,
00000033
00000000
00000000
00000000
,
00000010
00000000
00010000
00000000
00001000
00010000
00000100
00000000
,
00010000
00000000
00001000
00000000
00100000
01000000
10000000
00000000
,
00010000
00000000
10000000
00000000
00010000
00100000
00001000
00000000
,
00000100
00000010
00000001
00000000
00000010
00001000
00000100
00000000
,
00010000
00000000
01000000
00000000
10000000
00100000
01000000
00000000
,
00010000
00000000
10000000
00000000
01000000
00100000
00010000
00000000
,
00001000
00000000
00000010
00000000
00000100
00000001
00000010
00000000
,
00000100
00001000
00000100
00001000
00000100
00000000
00000000
00000000
,
00021000
00000000
00000100
00000000
00031000
00000000
01000000
00010000
,
01000000
00010000
01010000
00000000
,
00010000
00100000
00001000
00010000
,
00000100
00000010
00000100
00000010
00000100
00000000
00000000
00000000
,
00012000
00000000
01000000
00000000
00013000
00000000
00000100
00000010
,
00000100
00000000
00001000
00000010
00000100
00000000
00000000
00000000
,
00000001
00000100
00010000
01000000
,
00100000
10000000
00100000
10000000
00100000
00000000
00000000
10000000
,
00010000
00000000
00100000
00000000
00001000
00000000
00010000
00000100
,
00000010
00000110
00000011
00000000
,
00000101
00000000
00001000
00010000
00001000
00000000
00010000
00000000
,
00100000
01000000
00100000
01000000
00100000
00000000
00000000
00000000
,
10000000
00000000
01000000
00000000
00100000
00000000
01000000
10000000
,
00010000
00000000
00100000
00001000
00010000
00000000
00011000
00000000
,
00011000
00001100
00011000
01010000
,
00001000
00010000
00000100
00001000
00000001
00000000
00000000
00000000
,
00000020
00000000
00000230
00000000
00002300
00000000
01003000
00100000
,
00010000
00100000
01000000
10000000
00010000
10000000
10000000
00000000
,
00200000
00000000
02300000
00000000
03020000
00000000
00030100
00000010
,
00001000
00000100
00000010
00000001
00001000
00000001
00000001
00000000
,
00000100
00000010
00000100
00000010
,
00000100
00010000
00100000
01000000
10000000
01000000
00100000
00000000
,
02000000
00000000
13000000
00010000
,
00200000
00000000
00300000
00000000
,
02000000
00000000
03020000
00000000
00032000
00000000
00003010
00000001
,
00000010
00000100
00001000
00000001
00000100
00000001
00000001
00000000
,
00000200
00000000
00002300
00000000
00023000
00000000
00130000
10000000
,
00100000
01000000
00010000
10000000
01000000
10000000
10000000
00000000
,
01000000
00100000
01000000
00100000
,
01000000
10000000
01000000
00010000
00001000
00000010
00000001
00000000
,
00002000
00000000
00003100
00010000
,
00001000
00010000
00011000
00000000
,
00001000
00000000
00100000
00000000
00010000
00100000
01000000
00000000
,
10000000
00000000
00100000
00000000
10000000
01000000
00010000
00000000
,
00001000
00000000
00000010
00000000
00000001
00001000
00000100
00000000
,
00000010
00000100
00001000
00000000
00000001
00000100
00000010
00000000
,
00001000
00000000
00000100
00000000
00010000
00001000
00100000
00000000
,
01000000
00000000
00100000
00000000
10000000
00010000
00100000
00000000
,
00001000
00000000
00010000
00000000
00000100
00000010
00000001
00000000
,
00000011
00001001
00001100
00000000
,
00000020
00000000
00002030
00000000
00003200
00000000
00010300
00001000
,
01000000
00100000
10000000
01000000
10000000
00100000
00100000
00000000
,
02000000
00000000
03020000
00000000
00230000
00000000
00301000
00010000
,
00000010
00000100
00000001
00000010
00000001
00000100
00000100
00000000
,
00000001
00000100
00010000
00100000
,
01000000
00100000
00010000
00100000
01000000
10000000
01000000
00000000
,
20000000
00000000
30010000
00100000
,
00001000
00010000
00001000
00010000
00011000
00000000
00000000
00000000
;

//---------------dance-double - ----------------
#NOTES:
     dance-double:
     :
     Hard:
     9:
     0.561129,0.553592,0.525067,0.131267,0.015146,389.000000,337.000000,52.000000,13.000000,0.000000,0.000000,0.561129,0.553592,0.525067,0.131267,0.015146,389.000000,337.000000,52.000000,13.000000,0.000000,0.000000:
00000000
00000000
00000000
00000000
,
00000000
00000000
00000000
00000000
,
00000000
00000000
00000000
00000000
,
00000000
00000000
00000000
00000000
,
00000200
00001000
00010000
00000300
,
00000100
00020000
00000000
00000000
00000000
00000000
00030000
00000000
,
00011000
00000000
00000000
00000000
00001000
00010000
00000100
00001000
,
00002200
00000000
00000000
00000000
,
00003300
00000000
00000000
00000000
,
00000010
00001000
00000100
00000001
00000100
00010000
00100000
00000000
,
10000000
01000000
00100000
00001000
00000100
00000001
00000001
00000000
,
00000010
00000001
00000100
00001000
00010000
00100000
10000000
00000000
,
00100000
10000000
00100000
00000000
01000000
10000000
01000000
00100000
,
01000000
10000000
00100000
01000000
00001000
00010000
00000100
00000000
,
00001000
00000010
00000100
00000001
00000010
00000100
00010000
00000000
,
00001000
00010000
01000000
10000000
00100000
01000000
00010000
10000000
,
01000000
00010000
00001000
00000010
00000001
00000000
00000011
00000000
,
00000001
00001000
00000100
00010000
00001000
00100000
00010000
10000000
,
01000000
10000000
00010000
01000000
00100000
00100000
00100000
00000000
,
01100000
00011000
00001100
00011000
,
00010000
00001000
01000000
00100000
10000000
10000000
10000000
00000000
,
10000000
00010000
01000000
00001000
00010000
00000010
00001000
00000001
,
00000100
00000000
00000001
00000000
00001000
00000000
00000100
00001000
00000100
00000000
00000000
00000000
00001001
00000000
00000000
00000000
,
00000002
00000013
00000200
00001300
,
00000010
00010000
00001000
00100000
00010000
00000000
00000000
10000000
,
00200000
00000000
00000000
01300000
00020000
00000000
00000000
00130000
,
00001000
00000010
00000100
00001000
00000010
00000010
00000010
00000000
,
00000110
00011000
00110000
00011000
,
00001000
00010000
00000100
00000010
00000001
00000001
00000001
00000000
,
00000100
00001000
00010000
00100000
01000000
10000000
01000000
00010000
,
00100000
01000000
10000000
00100000
10000000
10000000
10000000
00000000
,
10000000
00000000
00000000
00000000
01000000
00000000
00000000
00100000
00010000
00000000
00000000
00000000
00001000
00000000
00000000
00000000
,
00000100
00000001
00000100
00000010
00000001
00000000
00001001
00000000
,
00000110
00001100
00001100
00011000
,
00001000
01000000
00100000
00010000
00100000
00100000
00100000
00000000
,
01100000
01010000
01010000
00011000
,
00010000
00000100
00000010
00001000
00000010
00000010
00000010
00000000
,
00000001
00000000
00000011
00000000
00000010
00000100
00000000
00001000
,
00000000
00000020
00000000
00000000
00001030
00001000
00001000
00000000
,
00001010
00000000
00000000
00000000
00000000
00000000
00010000
00001000
00010000
00000000
00000000
00000000
00001000
00000000
00000000
00000000
,
00202000
00000000
00303000
00000000
,
00110000
11000000
01010000
00011000
,
00001000
00000100
00000001
00000100
00001000
00000100
00000010
00000000
,
00001010
00000101
00001100
00011000
,
00010000
01000000
10000000
01000000
00010000
01000000
00100000
00000000
,
00001000
00010000
00001000
00010000
00001000
00011000
00000000
00010000
,
00000000
00000200
00000000
00000000
00001300
00001000
00001000
00000000
,
00001001
00000000
00000011
00001010
,
00000010
00000010
00010000
00010000
00010010
00000000
00000000
00000000
,
00000010
00001000
00000100
00000001
00000100
00010000
00100000
00000000
,
10000000
01000000
00100000
00001000
00000100
00000001
00000001
00000000
,
00000010
00000001
00000100
00001000
00010000
00100000
10000000
00000000
,
00100000
10000000
00100000
00000000
01000000
10000000
01000000
00100000
,
01000000
10000000
00100000
01000000
00001000
00010000
00000100
00000000
,
00001000
00000010
00000100
00000001
00000010
00000100
00010000
00000000
,
00001000
00010000
01000000
10000000
00100000
01000000
00010000
00000000
,
01010000
00011000
00000110
00000000
,
00001100
00011000
00011000
00110000
,
00010000
00100000
01000000
10000000
00100000
00100000
00100000
00000000
,
01010000
00011000
00011000
00001010
,
00001000
00000010
00000100
00000001
00000010
00000010
00000010
00000000
,
00000100
00010000
00000100
00010000
00000100
00010000
00000000
00010100
,
00000000
00020000
00000000
00000000
00031000
00001000
00001000
00000000
,
00011000
00000000
00110000
11000000
,
10000000
01000000
00001000
00000100
00000001
00000000
00000000
00000000
;
