#TITLE:New Gold (Dom Dolla Remix);
#SUBTITLE:;
#ARTIST:Gorillaz ft. Tame Impala & Bootie Brown;
#TITLETRANSLIT:;
#SUBTITLETRANSLIT:;
#ARTISTTRANSLIT:;
#GENRE:Cracker Island;
#CREDIT:[Ness];
#BANNER:New Gold (Dom Dolla Remix).png;
#BACKGROUND:New Gold (Dom Dolla Remix)-bg.png;
#LYRICSPATH:New Gold (Dom Dolla Remix).lrc;
#CDTITLE:;
#MUSIC:New Gold (Dom Dolla Remix).mp3;
#OFFSET:-0.019000;
#SAMPLESTART:41.585743;
#SAMPLELENGTH:15.118111;
#LASTBEATHINT:315.000000;
#SELECTABLE:YES;
#BPMS:0.000000=126.999992
;
#STOPS:
;
#BGCHANGES:;
#KEYSOUNDS:;
#ATTACKS:;

//---------------dance-single - ----------------
#NOTES:
     dance-single:
     :
     Challenge:
     10:
     0.662254,0.864806,0.469616,0.207973,0.583665,691.000000,621.000000,70.000000,31.000000,0.000000,0.000000,0.662254,0.864806,0.469616,0.207973,0.583665,691.000000,621.000000,70.000000,31.000000,0.000000,0.000000:
0000
0000
0000
0000
,
0000
0000
0000
0000
,
0000
0000
0000
0000
,
0000
0000
0000
0000
,
1020
0000
0200
0000
0330
2100
0000
0002
,
0000
3003
0000
0000
1000
0010
0001
0010
,
0001
0100
0020
0000
0000
1000
1030
0000
,
0102
0013
2010
3100
,
1001
0000
0000
1000
0100
0000
0000
0000
0001
0000
0000
0001
0010
0000
0100
0000
,
1000
0000
0000
1000
0010
0000
0000
0000
1000
0000
0000
1000
0001
0000
0010
0000
,
0100
0000
0000
0100
0010
0000
0000
0000
0001
0000
0000
1000
0010
0000
0100
0000
,
0100
0000
0000
0001
1000
0000
0000
0000
0001
0000
0000
0001
0010
0000
0100
0000
,
1000
0000
0000
1000
0010
0000
0000
0000
1000
0000
0000
1000
0001
0000
0010
0000
,
0100
0000
0000
0100
0010
0000
0000
0000
0001
0000
0000
0001
0100
0000
1000
0000
,
0100
0000
0100
0000
0010
0000
0000
0000
1000
0000
0000
1000
0001
0000
0000
0000
,
1000
0000
0000
1000
0100
0000
0000
0000
0201
0000
0000
0000
0310
0000
0000
0000
,
1000
0100
1000
0100
1000
0001
1000
0001
1000
0100
1000
0100
1000
0001
1000
0001
,
0100
0001
0100
0001
1000
0001
1000
0001
0100
0001
0100
0001
1000
0001
1000
0001
,
0010
0001
0010
0001
1000
0001
1000
0001
1000
0010
1000
0010
1000
0001
1000
0001
,
1000
0100
1000
0100
0010
0100
0010
0100
0010
0001
0010
0001
1000
0001
1000
0001
,
0100
0001
0100
0010
1000
0000
1000
0001
0000
0001
0010
0000
0010
0000
0100
1000
,
0000
1000
0000
1000
0010
0000
0100
0001
0000
0001
0010
0000
0100
0000
0011
0000
,
1001
0000
0000
1000
0010
0000
0100
0000
0001
0000
0010
0001
0100
0000
0010
0000
,
1000
0000
0000
0100
0010
0000
0001
0000
0100
0000
0001
0010
0001
0000
0100
0000
,
0010
0000
0000
1000
0100
0000
1000
0000
0001
0000
0010
0001
0100
0000
0001
0000
,
1000
0000
0000
0100
0010
0000
0001
0000
0100
0000
0001
1000
0100
0000
1010
0000
,
1001
0000
0000
1000
0010
0000
1000
0000
0100
0000
1000
0001
0100
0000
0001
0000
,
0010
0000
0000
0001
1000
0000
0001
0000
0100
0000
0010
1000
0100
0000
1000
0000
,
0001
0000
0000
0100
0001
0000
0010
0000
0100
0000
1000
0001
0100
0000
0010
0000
,
1000
1100
1100
1001
1001
0101
0101
0001
,
1000
0010
1000
0000
0100
0010
0001
0100
0001
0000
0001
0010
0000
0000
0000
0000
,
0001
1000
0010
1000
0001
0100
0001
1000
0100
0000
1000
0001
0000
0000
1000
0000
,
0100
0010
0100
1000
0001
0000
0100
0001
0000
0001
0010
0100
0010
0000
0001
0000
,
0100
0001
1000
0001
0010
0001
1000
0100
1000
0000
0010
0100
0000
0000
0001
0000
,
0010
0000
0001
1000
0010
0000
0000
1000
0100
1000
0001
0100
0000
0000
0000
0001
,
0010
0000
0100
1000
0010
1000
0001
0100
0010
0100
0001
1000
0000
0000
0000
0000
,
0001
0010
0100
1000
0001
0000
1000
0010
0000
1000
0100
0000
0010
0000
0001
0100
,
0000
0001
0000
1000
0100
0000
0010
0001
0000
1000
0010
0000
0100
0000
0001
1000
,
0000
0001
0010
0000
0100
0000
1000
0001
0000
1000
0010
0000
0100
0000
0001
1000
,
0000
0001
0010
0000
0000
0000
0100
0000
0000
0000
1010
0000
0000
0000
0001
0000
,
1000
0000
0100
1000
0000
0000
0010
0000
0000
0000
0101
0000
0000
0000
1000
0000
,
0001
0000
0010
0001
0000
0000
0100
0000
0000
0000
1001
0000
0000
0000
0100
0000
,
0001
0000
1000
0001
0000
0000
0100
0000
0000
0000
1010
0000
0000
0000
0100
0000
,
1000
0000
0001
0100
0000
0000
0010
0000
0000
0000
0101
0000
0000
0000
0100
0000
,
0001
0000
1000
0010
0000
0000
0100
0000
0000
0000
0011
0000
0000
0000
1000
0000
,
0010
0000
0100
0001
0000
0000
0010
0000
0000
0000
1100
0000
0000
0000
0010
0000
,
1001
0000
0000
0001
1000
0000
0100
0000
0010
0000
0001
0100
0010
0000
1000
0000
,
0100
0000
0000
1000
0010
0000
0100
0000
0001
0000
0010
0001
1000
0000
0001
0000
,
0100
0000
0000
0010
1000
0000
0100
0000
0010
0000
0001
1000
0010
0000
0100
0000
,
0001
0000
0011
0000
0011
0000
0110
0000
0110
0000
1100
0000
1100
0000
1000
0001
,
0100
0000
1001
0000
0000
1000
0010
0000
0000
0000
1001
0000
0000
1000
0010
0000
,
0000
0000
1001
0000
0000
1000
0010
0000
0000
0000
1001
0000
0000
1000
0010
0100
,
0000
0000
1001
0000
0000
0010
0100
0000
0000
0000
1001
0000
0000
0010
0001
0000
,
0000
0000
1001
0000
0000
0100
1000
0000
0000
0000
1001
0000
0000
0001
0010
0100
,
1000
0000
0010
1000
0001
0000
0100
0000
0001
0000
1001
0000
0010
0001
0100
0000
,
1001
0000
0100
0001
1000
0000
0100
0000
0010
0000
1001
0000
1000
0010
1000
0000
,
1001
0000
0001
0100
0010
0000
1000
0000
0100
0000
1001
0000
0001
0010
0001
0000
,
0100
0000
0101
0000
0101
0000
1001
0000
1001
0000
1100
0000
1100
0000
1000
0001
,
0100
0000
1001
0000
0000
1000
0100
0000
0000
0000
0011
0000
0000
0001
0100
0000
,
0000
0000
1100
0000
0000
1000
0010
0000
0000
0000
0110
0000
0000
0001
0010
0001
,
0000
0000
0110
0000
0000
1000
0100
0000
0000
0000
0101
0000
0000
1000
0100
0000
,
0000
0000
0011
0000
0000
1000
0010
0000
0000
0000
1010
0000
0000
0100
0001
0000
,
0101
0000
0000
0001
0010
0000
0100
0000
1000
0000
0102
0000
0003
0000
2001
0000
,
3000
0000
0000
1000
0010
0000
0100
0000
0010
0000
0010
1000
0100
0000
0100
0000
,
1000
0000
1000
0001
0020
0000
0100
0000
0031
0000
0001
0100
0020
0000
1000
0000
,
1030
0000
1000
0100
2000
0000
0001
0000
3001
0000
1000
0010
0200
0000
0010
0000
,
0310
0000
0000
1000
0100
0000
1000
0000
0001
0000
2100
0000
3000
0000
1002
0000
,
0003
0000
0000
0100
1000
0000
0001
0000
0010
0000
0001
1000
0010
0000
0100
0000
,
0010
0000
1000
0100
2000
0000
0001
0000
3001
0000
0010
0001
0200
0000
0010
0000
,
0310
0000
1000
0001
0020
0000
0100
0000
0031
0000
0100
0001
2000
0000
3100
0000
,
1100
0000
0000
1000
0010
0000
0100
0000
0100
0000
0210
0000
0300
0000
1002
0000
,
0003
0000
0000
0001
0010
0000
1000
0000
1000
0000
0010
0100
0010
0000
1000
0000
,
1000
0000
0100
1000
0020
0000
0100
0000
0130
0000
0001
0010
0200
0000
1000
0000
,
0310
0000
0010
0001
2000
0000
0010
0000
3010
0000
0100
0001
0200
0000
0010
0000
,
0310
0000
0000
0010
1000
0000
1000
0000
0001
0000
0021
0000
0030
0000
0210
0000
,
0300
0000
1000
0000
0010
0100
0001
1000
,
0001
0010
0200
0000
1300
0000
1001
0000
,
0010
0000
1001
0000
0100
0000
0001
2002
,
0000
3003
0000
0000
0000
0000
0000
0000
;

//---------------dance-single - ----------------
#NOTES:
     dance-single:
     :
     Hard:
     7:
     0.460990,0.471712,0.335440,0.174429,0.147594,481.000000,431.000000,50.000000,26.000000,0.000000,0.000000,0.460990,0.471712,0.335440,0.174429,0.147594,481.000000,431.000000,50.000000,26.000000,0.000000,0.000000:
0000
0000
0000
0000
,
0000
0000
0000
0000
,
0000
0000
0000
0000
,
0000
0000
0000
0000
,
0102
0000
0020
0000
0003
1000
0000
0031
,
0000
0000
0000
0000
1000
0001
0100
0001
,
1000
0200
0010
0300
0001
0200
0010
0300
,
1000
0101
1001
0100
,
1010
0000
0000
1000
0010
0000
0000
0000
1000
0000
0000
1000
0100
0000
0000
0000
,
0001
0000
0000
0000
0101
0000
0000
0000
0001
0000
0000
0001
0010
0000
0000
0000
,
0100
0000
0000
1000
0001
0000
0000
0000
0100
0000
0000
0000
0110
0000
0000
0000
,
0010
0000
0000
1000
0100
0000
0000
0000
1000
0000
0000
0001
0010
0000
0000
0000
,
0001
0000
1001
0000
0000
0110
0000
2002
,
0000
3003
0000
0000
0001
0100
1000
0100
,
0001
0100
0001
0000
0001
0010
0001
0000
,
0010
1000
0010
0000
1000
0000
1100
0000
,
0100
1000
0100
0001
0100
1000
0100
0001
,
0100
0010
0100
0001
0100
0010
0100
1000
,
0100
0001
0100
1000
0100
0010
0100
1000
,
0100
0001
0100
1000
0100
0010
0100
1000
,
0001
0000
1000
0000
0100
0000
0000
1000
0000
0001
0100
0000
0001
0000
0000
0010
,
0000
0001
0000
0010
0100
0000
0000
1000
0000
0010
1000
0000
0100
0000
0010
0000
,
1002
0000
0103
0000
0001
1000
0100
0000
,
1200
0000
0310
0000
1000
0010
0100
0000
,
0210
0000
0302
0000
0013
0100
0000
0100
,
1000
0000
2010
0000
3001
1000
0000
0001
,
0201
0000
0310
0000
1000
0001
0010
0000
,
0021
0000
0130
0000
1000
0001
0100
0000
,
2001
0000
3100
0000
0001
1000
0010
0000
,
0100
0100
0001
0001
1000
1000
0100
0100
,
0110
0000
1000
0000
0001
0100
1000
0000
,
0001
0100
0001
0001
0001
1000
0100
0000
,
1000
0010
1000
0100
0100
0010
0001
0001
,
1000
0001
0100
0001
0010
0000
0110
0000
,
1000
0000
0000
0001
0100
0000
0000
0000
0001
0000
1000
0001
0000
0000
0000
0000
,
0010
0000
0001
0000
0010
0000
0100
0000
1000
0000
1000
0001
0000
0000
0000
0000
,
1000
0000
0010
0000
1000
0000
0000
0001
0000
0010
0100
0000
0010
0000
0000
0001
,
0000
0100
0000
0001
1000
0000
0000
0001
0000
1000
0100
0000
1000
0000
0001
0000
,
0100
0101
1000
0101
,
0100
0101
0001
1100
,
0002
0000
0013
0000
2000
0100
3100
0000
,
0101
0000
0010
0000
1000
0100
0001
0000
,
0001
1000
0100
0000
1000
0000
0110
0000
,
0001
0010
0100
0000
0010
0001
1000
0000
,
0001
0100
1000
0000
0001
0100
1000
0000
,
0001
0100
1000
0100
0001
0100
1000
0000
,
0110
0000
0000
0001
0010
0000
0000
0000
0100
0000
1000
0000
0001
0000
1000
0000
,
0100
0000
0000
1000
0001
0000
0000
0000
0100
0000
0010
0000
1000
0000
0001
0000
,
0010
0000
0000
0100
0010
0000
0000
0000
0001
0000
1000
0000
0010
0000
0100
0000
,
0001
0001
1000
1000
0100
0100
0010
0010
,
0110
0000
0001
0000
0000
0001
0100
0000
0000
0000
1000
0000
0000
1000
0100
0000
,
0000
0000
0001
0000
0000
0001
0100
0000
0000
0000
1000
0000
0000
0000
0110
0000
,
0000
0000
0001
0000
0000
0001
0010
0000
0000
0000
1000
0000
0000
1000
0010
0000
,
0100
0110
1001
0110
,
0001
0000
0000
0001
0010
0000
0000
0000
1000
0000
0001
0000
0100
0000
0100
0000
,
0001
0000
0000
0001
1000
0000
0000
0000
0100
0000
1000
0000
0001
0000
1000
0000
,
0100
0000
0000
0010
0100
0000
0000
0000
1000
0000
0010
0000
0100
0000
0001
0000
,
1000
1000
0100
0100
0010
0010
0001
0001
,
1000
0000
0010
0000
0000
0100
0001
0000
0000
0000
0010
0000
0000
0001
1000
0000
,
0000
0000
0100
0000
0000
1000
0010
0000
0000
0000
0100
0000
0000
0000
1001
0000
,
0000
0000
0100
0000
0000
0001
0010
0000
0000
0000
0100
0000
0000
1000
0001
0000
,
1000
1100
0110
0011
,
1001
0000
0000
0001
1000
0000
0000
0000
0000
0000
2010
0000
3000
0000
1002
0000
,
0003
0000
0000
0000
0010
0001
0100
1000
,
0100
0001
0020
0000
0130
0000
1100
0000
,
1000
0000
0000
0001
0100
0000
0000
0000
0001
0000
1000
0000
0001
0000
0000
0000
,
0011
0000
0000
1000
0010
0000
0000
0000
0000
0000
1200
0000
0300
0000
0102
0000
,
0003
0000
0000
0000
0001
1000
0010
0100
,
0001
1000
0200
0000
0000
0310
0100
0000
,
1000
0110
1001
0010
,
1001
0000
0000
1000
0001
0000
0000
0001
0100
0000
0010
0000
0100
0000
1000
0000
,
0100
0000
0110
0000
0001
1000
0010
0100
,
0001
1000
0020
0000
1030
0000
1100
0000
,
1000
0001
0100
0000
0001
0000
0101
0000
,
0020
0130
0200
0301
,
1000
0000
0001
0000
0100
0010
1000
0100
,
1000
0001
1000
0000
0010
0000
1010
0000
,
0001
0000
1001
0000
0100
0000
0001
2000
,
0000
3000
0000
0000
0000
0000
0000
0000
;

//---------------dance-single - ----------------
#NOTES:
     dance-single:
     :
     Medium:
     6:
     0.353649,0.392465,0.254934,0.154302,0.000000,369.000000,331.000000,38.000000,23.000000,0.000000,0.000000,0.353649,0.392465,0.254934,0.154302,0.000000,369.000000,331.000000,38.000000,23.000000,0.000000,0.000000:
0000
0000
0000
0000
,
0000
0000
0000
0000
,
0000
0000
0000
0000
,
0000
0000
0000
0000
,
2000
0000
0001
3000
0000
0020
0000
0100
,
0030
0000
0000
0000
0001
0100
1000
0000
,
0100
0010
0000
0000
,
1001
0100
0010
1001
,
0002
0000
1000
0003
0000
0020
0000
0100
,
0030
1000
0001
0100
,
0001
0010
0100
0000
0010
0000
0001
0000
,
1000
0100
0001
0100
,
0020
0000
1000
0030
0000
0200
0000
0001
,
0300
0000
0101
0000
0001
0100
0010
0000
,
1000
0100
1000
0000
0001
0000
0010
0000
,
1000
0100
0001
0010
,
0000
0100
0000
1000
0000
0001
0000
1000
,
0000
0010
0000
1000
0000
0001
0000
1000
,
0000
0100
0000
0001
0000
1000
0000
0001
,
0000
0010
0000
0001
0000
1000
0000
0100
,
0010
0000
0000
0000
,
0001
1000
0010
0110
,
1001
0000
0100
0000
0001
0100
0001
0000
,
1001
0000
0100
0000
1000
0100
1000
0000
,
1001
0000
0100
0000
0001
0100
0001
0000
,
1001
0000
0100
0000
1000
0100
1000
0000
,
0110
0000
0001
0000
1000
0010
0001
0000
,
0110
0000
0001
0000
1000
0010
0001
0000
,
0110
0000
0001
0000
1000
0010
0001
0000
,
0001
0010
0001
0010
1000
0010
1000
0010
,
0100
0000
0101
0000
1000
0100
1000
0000
,
0010
0000
1000
0000
0010
0100
0001
0000
,
0010
1001
0010
1001
,
0100
0000
0001
0000
1000
0001
0100
0000
,
1000
0000
1100
0000
1000
0100
1000
0000
,
0001
0000
0011
0000
0010
0001
0010
0000
,
0001
0100
1000
0000
0010
0100
0010
0000
,
0001
1000
0001
0000
1000
0100
0001
0000
,
0110
2000
3100
1000
,
0001
0020
0032
1003
,
0001
0200
0301
2000
,
3200
1300
0001
1000
,
0120
0130
0001
0010
,
0200
1300
0010
1000
,
0010
0001
0100
1000
,
0001
1000
0100
0010
,
1001
0000
0100
0000
0001
0100
1000
0000
,
1001
0000
0100
0000
1000
0010
0001
0000
,
1001
0000
0100
0000
0001
0100
1000
0000
,
1000
0100
1000
0100
0001
0100
0001
0100
,
1000
0101
1000
0101
,
1000
0000
0101
0000
1000
0100
0001
0100
,
1000
0101
1000
0101
,
1000
0101
1000
0101
,
1001
0000
0100
0000
1000
0010
0100
0010
,
1000
0000
0100
0000
0001
0010
0100
0010
,
0001
0000
0100
0000
1000
0100
0001
0000
,
0001
0100
0001
0100
1000
0100
1000
0100
,
0001
1100
0001
1100
,
0001
0000
1100
0000
0001
0100
1000
0100
,
0001
1100
0001
1100
,
0001
1100
0001
1100
,
2001
0000
0001
3000
0000
0200
0000
0010
,
0300
0000
0001
0000
1000
0001
0100
0000
,
1000
0100
0001
0100
,
1000
0010
0100
0001
,
0020
0000
0100
0030
0000
2000
0000
0001
,
3000
0000
0000
0000
0001
0100
1000
0000
,
0100
0010
0100
1000
,
0001
0010
0100
1000
,
0210
0000
0001
0300
0000
2000
0000
0001
,
3000
0000
0010
0000
1000
0100
1000
0000
,
0001
0010
0100
0000
0010
0000
0001
0000
,
0100
1000
0100
0001
,
0020
0000
0100
0030
0000
2000
0000
0001
,
3000
0100
1000
0100
,
0001
0100
1000
0000
0100
0000
0010
0000
,
0100
0010
0100
0002
,
0003
0000
0000
0000
;

//---------------dance-single - ----------------
#NOTES:
     dance-single:
     :
     Easy:
     4:
     0.257810,0.260805,0.067088,0.154302,0.000000,269.000000,259.000000,10.000000,23.000000,0.000000,0.000000,0.257810,0.260805,0.067088,0.154302,0.000000,269.000000,259.000000,10.000000,23.000000,0.000000,0.000000:
0000
0000
0000
0000
,
0000
0000
0000
0000
,
0000
0000
0000
0000
,
0000
0000
0000
0000
,
0020
0100
0000
0100
,
0130
0000
1000
0100
,
0002
0000
2003
0000
,
3020
0000
0230
0000
,
0302
1000
0000
1000
,
1003
0000
0010
1000
,
0200
0000
0320
0000
,
0032
0000
2003
0000
,
3002
0100
0000
0100
,
0103
0000
0001
1000
,
0200
0000
0320
0000
,
0230
0000
2300
0000
,
3001
0001
1000
1000
,
0001
0001
1000
1000
,
0001
1000
0001
1000
,
0001
1000
0001
1000
,
1001
0000
0000
0000
,
0010
1000
0001
0100
,
1001
0100
0010
1000
,
0001
0100
0010
1000
,
0001
0100
0001
1000
,
0001
0100
0001
1000
,
1001
0001
0010
0100
,
1000
0001
0010
0100
,
1000
0001
0010
0100
,
1000
1000
0001
0001
,
1001
0100
1000
1000
,
0001
0001
1000
0001
,
0100
0100
0010
0010
,
0100
0001
1000
0000
,
0001
0010
0100
0000
,
1000
0100
0001
0000
,
1000
1000
0001
0001
,
1000
0010
0100
0001
,
2001
0000
3002
0000
,
0023
0000
0230
0000
,
2300
0000
3002
0000
,
0203
0000
0320
0000
,
1030
0100
0000
1000
,
0001
0100
0000
0001
,
0010
0100
0000
0010
,
0001
1000
0000
0000
,
1001
0100
1000
1000
,
0100
0001
0100
0100
,
0001
0010
0001
0001
,
0010
0010
0100
0100
,
0110
1000
0100
1000
,
0001
1000
0100
0001
,
0100
0001
1000
0001
,
0100
0001
1000
0001
,
1001
0010
0001
0001
,
0010
1000
0010
0010
,
1000
0100
1000
1000
,
0001
0001
1000
1000
,
1001
0001
0001
1000
,
1000
0001
0100
1000
,
0100
0001
0001
0010
,
0010
0100
1000
0001
,
1001
0100
1000
0100
,
0001
0001
1000
0001
,
1000
1000
0001
0001
,
1000
0001
1000
1000
,
0010
1000
0001
0001
,
0010
0001
0100
0100
,
0001
0100
0001
0010
,
0100
0100
0010
0010
,
0100
1000
0001
1000
,
0100
0010
0100
1000
,
0010
1000
0100
1000
,
0010
1000
0100
0001
,
0100
0010
0100
0010
,
0001
0100
0001
0100
,
1000
0100
1000
0100
,
0001
0100
0001
0100
;

//---------------dance-single - ----------------
#NOTES:
     dance-single:
     :
     Beginner:
     2:
     0.150469,0.208644,0.080506,0.161011,0.000000,157.000000,145.000000,12.000000,24.000000,0.000000,0.000000,0.150469,0.208644,0.080506,0.161011,0.000000,157.000000,145.000000,12.000000,24.000000,0.000000,0.000000:
// measure 0
0000
0000
0000
0000
,  // measure 1
0000
0000
0000
0000
,  // measure 2
0000
0000
0000
0000
,  // measure 3
0000
0000
0000
0000
,  // measure 4
0001
0000
0000
0000
,  // measure 5
1000
0000
0010
0000
,  // measure 6
0100
0000
0000
0000
,  // measure 7
0001
0001
0001
0001
,  // measure 8
0001
0000
0000
0000
,  // measure 9
0010
0000
0100
0000
,  // measure 10
1000
0000
0000
0000
,  // measure 11
0001
0000
0000
0000
,  // measure 12
0100
0000
0000
0000
,  // measure 13
0010
0000
1000
0000
,  // measure 14
0100
0000
0000
0000
,  // measure 15
0010
0000
0000
0000
,  // measure 16
0100
0100
0000
0100
,  // measure 17
0000
0100
0000
0100
,  // measure 18
0000
0100
0000
0100
,  // measure 19
0000
0100
0000
0100
,  // measure 20
0100
0000
0000
0000
,  // measure 21
0010
0000
0010
0000
,  // measure 22
1001
0000
0000
0001
,  // measure 23
0001
0000
0000
1000
,  // measure 24
1000
0000
0000
0010
,  // measure 25
0010
0000
0000
0100
,  // measure 26
0100
0000
0000
0001
,  // measure 27
0001
0000
0000
1000
,  // measure 28
1000
0000
0000
0001
,  // measure 29
0001
0001
0001
0001
,  // measure 30
0001
0000
0001
0000
,  // measure 31
0010
0000
0001
0000
,  // measure 32
1000
1000
1000
0000
,  // measure 33
0010
0000
1000
0000
,  // measure 34
1001
0000
0100
0000
,  // measure 35
0001
0000
0001
0000
,  // measure 36
1000
0000
0001
0000
,  // measure 37
1000
0000
1000
0000
,  // measure 38
0200
0000
0300
0000
,  // measure 39
0200
0000
0300
0000
,  // measure 40
0200
0000
0300
0000
,  // measure 41
0200
0000
0300
0000
,  // measure 42
0020
0000
0030
0000
,  // measure 43
0020
0000
0030
0000
,  // measure 44
0020
0000
0030
0000
,  // measure 45
0020
0000
0030
0000
,  // measure 46
1001
0000
0000
0010
,  // measure 47
0010
0000
0000
0001
,  // measure 48
0001
0000
0000
1000
,  // measure 49
1000
1000
1000
1000
,  // measure 50
1000
0000
0110
0000
,  // measure 51
0001
0000
0110
0000
,  // measure 52
1000
0000
0110
0000
,  // measure 53
0001
0000
0110
0000
,  // measure 54
1001
0000
0000
0001
,  // measure 55
0001
0000
0000
1000
,  // measure 56
1000
0000
0000
0100
,  // measure 57
0100
0100
0100
0100
,  // measure 58
0100
0000
1001
0000
,  // measure 59
0010
0000
1001
0000
,  // measure 60
0100
0000
1001
0000
,  // measure 61
0010
0000
1001
0000
,  // measure 62
1000
1000
0000
0001
,  // measure 63
0001
0000
0100
0000
,  // measure 64
0020
0030
0020
0030
,  // measure 65
0020
0030
0020
0030
,  // measure 66
1000
1000
0000
0001
,  // measure 67
0001
0000
0100
0000
,  // measure 68
0020
0030
0020
0030
,  // measure 69
0020
0030
0020
0030
,  // measure 70
1000
1000
0000
0001
,  // measure 71
0001
0000
0100
0000
,  // measure 72
0020
0030
0020
0030
,  // measure 73
0020
0030
0020
0030
,  // measure 74
1000
1000
0000
0001
,  // measure 75
0001
0000
0100
0000
,  // measure 76
0020
0030
0020
0030
,  // measure 77
0020
0030
0020
0030
;
