#TITLE:Misery Business;
#SUBTITLE:;
#ARTIST:Paramore;
#TITLETRANSLIT:;
#SUBTITLETRANSLIT:;
#ARTISTTRANSLIT:;
#GENRE:Riot!;
#CREDIT:;
#BANNER:Misery Business-bn.jpg;
#BACKGROUND:Misery Business-bg.jpg;
#LYRICSPATH:;
#CDTITLE:;
#MUSIC:Misery Business.mp3;
#OFFSET:-0.002006;
#SAMPLESTART:36.063305;
#SAMPLELENGTH:22.196529;
#LASTBEATHINT:325.664642;
#SELECTABLE:YES;
#BPMS:0.000000=173.000000
;
#STOPS:
;
#BGCHANGES:;
#KEYSOUNDS:;
#ATTACKS:;

//---------------dance-single - ----------------
#NOTES:
     dance-single:
     :
     Hard:
     8:
     0.673095,0.674427,0.602840,0.000000,0.007932,594.000000,518.000000,76.000000,0.000000,0.000000,0.000000,0.673095,0.674427,0.602840,0.000000,0.007932,594.000000,518.000000,76.000000,0.000000,0.000000,0.000000:
// measure 0
0000
0000
0000
0000
,  // measure 1
0000
0000
0000
0000
,  // measure 2
0000
0000
0000
0000
,  // measure 3
0000
0000
0000
0000
,  // measure 4
1000
1000
0000
1000
0001
0010
1000
0010
,  // measure 5
0001
0001
0000
1000
0100
0100
0000
1000
,  // measure 6
0001
0001
0000
0001
1000
0010
0001
0010
,  // measure 7
1000
0001
1000
0100
0010
0100
0010
0000
,  // measure 8
0001
0000
1000
0000
0010
0100
0010
1000
,  // measure 9
0000
1000
0001
1000
0100
0010
0100
0100
,  // measure 10
1000
0000
0001
0000
0010
0001
1000
0010
,  // measure 11
0100
0100
0001
1000
0100
0010
0100
1000
,  // measure 12
0001
0000
0100
0010
1000
0100
1000
0010
,  // measure 13
0000
0010
0100
0001
0100
0010
1000
0000
,  // measure 14
0001
0000
0010
0001
0010
0001
1000
0100
,  // measure 15
0000
0010
0001
1000
0010
0100
0010
0000
,  // measure 16
0000
0000
0001
0000
1000
0010
0000
1001
,  // measure 17
0000
0001
0010
0100
1000
0010
0100
0000
,  // measure 18
0001
0000
1000
0010
0100
0001
0000
1001
,  // measure 19
0000
0001
0010
0100
1000
0100
0010
0001
,  // measure 20
0100
0000
0000
0001
0100
0010
1000
0000
,  // measure 21
0001
1000
0000
0010
0000
0100
0001
1000
,  // measure 22
0100
0000
0010
0000
0100
1000
0100
0000
,  // measure 23
0010
0001
0100
0000
0010
1000
0100
0000
,  // measure 24
1100
0100
1000
0100
0010
0100
0001
0100
,  // measure 25
1000
0100
0010
0100
1000
0000
0000
0000
,  // measure 26
0010
1010
0010
1010
,  // measure 27
0010
1000
0001
0100
0000
0010
0000
0100
,  // measure 28
0001
0011
0001
0011
,  // measure 29
0001
0100
0010
1000
0100
0010
0100
1000
,  // measure 30
0001
1001
0001
1001
,  // measure 31
1000
0010
0100
0001
0010
0100
1000
0000
,  // measure 32
0010
1010
0010
1010
,  // measure 33
1000
0100
0010
0001
0100
0010
0100
0000
,  // measure 34
0101
0101
0101
0101
,  // measure 35
0101
0000
0101
0000
0101
0100
0010
1000
,  // measure 36
0110
0110
0110
0110
,  // measure 37
0110
0000
0110
0000
0110
0100
0010
1000
,  // measure 38
1010
1010
1010
1010
,  // measure 39
1010
0000
1010
0000
1010
1000
0010
0100
,  // measure 40
1001
1001
1001
1001
,  // measure 41
0010
0001
1000
0010
0100
0000
0000
0000
,  // measure 42
0001
0001
0000
0001
1000
0010
0001
0010
,  // measure 43
1000
1000
0000
1000
0100
0100
0000
0100
,  // measure 44
0010
0010
0000
0010
0001
1000
0010
0100
,  // measure 45
0001
0000
0000
1000
0000
0000
0001
0000
0100
0000
0000
0000
0000
0000
0000
0000
,  // measure 46
0001
0100
0010
0100
0001
0100
0010
0100
,  // measure 47
0001
1000
0001
0100
0001
1000
0001
0100
,  // measure 48
0010
1000
0010
0100
0010
1000
0010
0100
,  // measure 49
0001
0001
0001
0100
1000
1000
1000
0100
,  // measure 50
0001
0100
0010
0100
0001
0100
0010
0100
,  // measure 51
0001
0010
0100
0010
0001
0010
0100
0010
,  // measure 52
0001
1000
0010
1000
0001
1000
0010
1000
,  // measure 53
0001
0100
0100
0100
0010
1000
1000
1000
,  // measure 54
0100
1000
0100
0010
0100
1000
0100
0010
,  // measure 55
0001
1000
0001
0010
0001
1000
0001
0010
,  // measure 56
0001
0100
0010
0100
0001
0100
0010
0100
,  // measure 57
0001
1000
0010
1000
0001
1000
0010
1000
,  // measure 58
0100
0010
0100
1000
0100
0010
0100
1000
,  // measure 59
0001
0010
0100
1000
0001
0010
0100
1000
,  // measure 60
0010
0100
0010
0100
0001
0010
0100
1000
,  // measure 61
0001
0000
1001
0000
,  // measure 62
1010
0010
1010
0010
,  // measure 63
1001
1000
1001
1000
,  // measure 64
0101
0100
0101
0100
,  // measure 65
0010
1000
0001
0100
1100
0000
0000
0000
,  // measure 66
0001
1100
0001
1100
,  // measure 67
0001
0010
0100
1000
0000
0010
0000
0100
,  // measure 68
0001
0101
0001
0101
,  // measure 69
1000
0010
0100
0001
0010
0100
1000
0000
,  // measure 70
0010
1001
0010
1001
,  // measure 71
0010
0100
1000
0010
0100
0001
0010
0100
,  // measure 72
1000
0100
1000
0100
1000
0100
1000
0000
,  // measure 73
0001
0010
0100
1000
0010
0100
0001
0000
,  // measure 74
0101
0101
0101
0101
,  // measure 75
0101
0000
0101
0000
0101
1000
0010
0100
,  // measure 76
0110
0110
0110
0110
,  // measure 77
0110
0000
0110
0000
0110
0001
0010
0100
,  // measure 78
1100
1100
1100
1100
,  // measure 79
1100
0000
1100
0000
1100
0010
0100
0010
,  // measure 80
0101
0101
0101
0101
,  // measure 81
0010
0001
1000
0010
0100
0000
0000
0000
,  // measure 82
0001
0001
0000
0001
1000
0010
0001
0010
,  // measure 83
1000
1000
0000
1000
0100
0100
0000
0100
,  // measure 84
0010
0010
0000
0010
0100
1000
0010
0100
,  // measure 85
0001
1000
0000
0001
0100
0000
0000
0000
,  // measure 86
1000
1000
0000
1000
0001
0010
1000
0010
,  // measure 87
0001
0001
0000
1000
1000
1000
0000
0010
,  // measure 88
0010
0010
0000
0100
0001
0010
0100
1000
,  // measure 89
0010
0000
0000
0100
0000
0000
0010
0000
0110
0000
0000
0000
0000
0000
0000
0000
;

//---------------dance-single - ----------------
#NOTES:
     dance-single:
     :
     Medium:
     6:
     0.518986,0.603435,0.602840,0.000000,0.007932,458.000000,382.000000,76.000000,0.000000,0.000000,0.000000,0.518986,0.603435,0.602840,0.000000,0.007932,458.000000,382.000000,76.000000,0.000000,0.000000,0.000000:
// measure 0
0000
0000
0000
0000
,  // measure 1
0000
0000
0000
0000
,  // measure 2
0000
0000
0000
0000
,  // measure 3
0000
0000
0000
0000
,  // measure 4
1001
0000
0000
1000
0001
0000
0010
0000
,  // measure 5
0100
1000
0000
1000
0100
0000
0000
0000
,  // measure 6
0010
0000
0000
0001
1000
0000
0001
0000
,  // measure 7
0100
0001
0000
0100
0001
0000
1000
0000
,  // measure 8
0010
1000
0100
0010
,  // measure 9
0100
0000
0100
0000
1000
0001
1000
0000
,  // measure 10
0100
0100
0010
0001
,  // measure 11
0100
0000
0010
0000
0100
0001
0100
0000
,  // measure 12
0001
0001
1000
0010
,  // measure 13
1000
0000
0100
0000
0010
0100
0010
0000
,  // measure 14
0100
1000
0010
0100
,  // measure 15
0001
1000
0001
0000
0010
0100
0010
0000
,  // measure 16
0001
1000
0010
0010
,  // measure 17
0001
1000
0100
0010
,  // measure 18
0100
1000
0001
0001
,  // measure 19
1000
0000
0010
0000
0100
0001
1000
0010
,  // measure 20
0100
0000
0001
0010
,  // measure 21
0100
1000
0100
0010
,  // measure 22
0001
0001
1000
1000
,  // measure 23
0010
0100
0010
0000
1000
0001
1000
0000
,  // measure 24
0100
0010
0100
0010
,  // measure 25
0001
1000
0001
1000
0001
0000
0000
0000
,  // measure 26
0010
1010
0010
1010
,  // measure 27
0010
0100
0001
1000
,  // measure 28
0001
0011
0001
0011
,  // measure 29
0001
1000
0100
0010
,  // measure 30
0001
1001
0001
1001
,  // measure 31
0100
1000
0010
0100
,  // measure 32
0010
1010
0010
1010
,  // measure 33
1000
0010
0100
0001
,  // measure 34
0101
0101
0101
0101
,  // measure 35
0101
0101
0101
1000
,  // measure 36
0110
0110
0110
0110
,  // measure 37
0110
0110
0110
0001
,  // measure 38
1010
1010
1010
1010
,  // measure 39
1010
1010
1010
0100
,  // measure 40
1001
1001
1001
1001
,  // measure 41
1000
0001
1000
0001
1000
0000
0000
0000
,  // measure 42
1001
0000
0000
0001
1000
0000
0010
0000
,  // measure 43
1000
0100
0000
1000
0100
0000
0000
0000
,  // measure 44
1001
0000
0000
0100
0001
0000
0100
0000
,  // measure 45
0010
0000
0000
0010
0000
0000
0010
0000
0100
0000
0000
0000
0000
0000
0000
0000
,  // measure 46
0001
0001
0010
0010
,  // measure 47
0100
1000
0001
0000
1000
0010
0100
0000
,  // measure 48
0010
0010
1000
1000
,  // measure 49
0001
0100
0010
0000
1000
0001
0100
0000
,  // measure 50
0010
0010
1000
1000
,  // measure 51
0100
0010
0001
0000
0010
0100
1000
0000
,  // measure 52
0010
0010
0100
0100
,  // measure 53
0001
1000
0100
0000
1000
0001
0100
0000
,  // measure 54
0010
1000
0100
0000
0010
0001
0100
0000
,  // measure 55
0001
0100
0010
0000
1000
0010
0100
0000
,  // measure 56
0001
1000
0100
0000
1000
0001
0100
0000
,  // measure 57
0001
0010
0100
0000
1000
0010
0100
0000
,  // measure 58
0001
0010
1000
0000
1000
0010
0001
0000
,  // measure 59
0001
0100
1000
0000
1000
0100
0001
0000
,  // measure 60
1000
0010
0100
0001
0010
0100
1000
0010
,  // measure 61
0100
0000
1001
0000
,  // measure 62
1010
0010
1010
0010
,  // measure 63
1001
1000
1001
1000
,  // measure 64
0101
0100
0101
0100
,  // measure 65
0001
1000
0001
1000
0001
0000
0000
0000
,  // measure 66
0100
1100
0100
1100
,  // measure 67
0010
0100
0001
1000
,  // measure 68
0001
0101
0001
0101
,  // measure 69
0001
0010
0100
1000
,  // measure 70
0010
1001
0010
1001
,  // measure 71
1000
0001
0100
0010
,  // measure 72
1000
0010
1000
0000
0001
0010
0001
0000
,  // measure 73
1000
0010
0100
0000
,  // measure 74
0101
0101
0101
0101
,  // measure 75
0101
0101
0101
1000
,  // measure 76
0110
0110
0110
0110
,  // measure 77
0110
0110
0110
0001
,  // measure 78
1100
1100
1100
1100
,  // measure 79
1100
1100
1100
0010
,  // measure 80
0101
0101
0101
0101
,  // measure 81
1000
0001
1000
0001
1000
0000
0000
0000
,  // measure 82
1001
0000
0000
1000
0010
0000
0010
0000
,  // measure 83
0100
0001
0000
1000
0100
0000
0000
0000
,  // measure 84
0010
0000
0000
0010
0001
0000
1000
0000
,  // measure 85
0010
0100
0110
0000
,  // measure 86
0001
0100
0000
0100
0010
0000
1000
0000
,  // measure 87
0001
0010
0000
0010
0100
0000
1000
0000
,  // measure 88
0001
1000
0000
1000
0010
0000
0100
0000
,  // measure 89
0010
0000
0000
0010
0000
0000
0010
0000
0100
0000
0000
0000
0000
0000
0000
0000
;

//---------------dance-single - ----------------
#NOTES:
     dance-single:
     :
     Easy:
     5:
     0.433999,0.567938,0.666296,0.158642,0.000000,383.000000,299.000000,84.000000,20.000000,0.000000,0.000000,0.433999,0.567938,0.666296,0.158642,0.000000,383.000000,299.000000,84.000000,20.000000,0.000000,0.000000:
// measure 0
0000
0000
0000
0000
,  // measure 1
0000
0000
0000
0000
,  // measure 2
0000
0000
0000
0000
,  // measure 3
0000
0000
0000
0000
,  // measure 4
1000
1000
0100
0010
,  // measure 5
0001
0001
1000
1000
,  // measure 6
0010
0010
0100
0001
,  // measure 7
1000
0100
0001
0100
,  // measure 8
0110
0100
0010
0100
,  // measure 9
0100
0001
1000
0100
,  // measure 10
1100
0100
0010
0100
,  // measure 11
1000
1000
0001
0010
,  // measure 12
0002
0000
1003
0010
,  // measure 13
0100
0001
0100
0010
,  // measure 14
2000
0000
3100
0010
,  // measure 15
0001
1000
0100
0100
,  // measure 16
0110
0100
1000
1000
,  // measure 17
0010
0100
0001
0001
,  // measure 18
0110
0100
0001
0001
,  // measure 19
1000
1000
0100
0010
,  // measure 20
0220
0330
1000
0001
,  // measure 21
0100
0010
2000
0000
,  // measure 22
3001
0010
0100
1000
,  // measure 23
0010
0010
0200
0000
,  // measure 24
0302
0000
2003
0000
,  // measure 25
3100
0100
0110
0000
,  // measure 26
0000
2002
0000
3003
,  // measure 27
0010
1000
0100
0010
,  // measure 28
0002
0000
0000
0000
,  // measure 29
1003
0001
0100
0010
,  // measure 30
0100
2002
3003
0010
,  // measure 31
1000
0100
0010
0001
,  // measure 32
2000
0000
3002
0000
,  // measure 33
0103
0010
1000
0000
,  // measure 34
0101
0101
0101
0101
,  // measure 35
0101
0101
0101
0000
,  // measure 36
0110
0110
0110
0110
,  // measure 37
0110
0110
0110
0000
,  // measure 38
1010
1010
1010
1010
,  // measure 39
1010
1010
1010
0000
,  // measure 40
1001
1001
1001
1001
,  // measure 41
1001
0110
1001
0000
,  // measure 42
0101
0100
0010
0100
,  // measure 43
0001
0001
1000
1000
,  // measure 44
0010
0010
1000
0100
,  // measure 45
0001
0100
1000
0000
,  // measure 46
0001
0001
1000
1000
,  // measure 47
0010
0010
0100
0100
,  // measure 48
0001
0001
1000
1000
,  // measure 49
1010
1010
1001
1001
,  // measure 50
1000
1000
0100
0100
,  // measure 51
0010
0010
0001
0001
,  // measure 52
1000
1000
0001
0001
,  // measure 53
0101
0101
1001
1001
,  // measure 54
1000
0100
1000
0100
,  // measure 55
0001
0100
0001
0100
,  // measure 56
1000
0100
1000
0100
,  // measure 57
0001
0100
1000
0100
,  // measure 58
0001
0100
1000
0100
,  // measure 59
0001
0100
1000
0100
,  // measure 60
0001
0100
1000
0010
,  // measure 61
0001
0010
1000
0000
,  // measure 62
1010
0000
1001
0000
,  // measure 63
0011
0000
1001
0000
,  // measure 64
1010
0000
1001
0000
,  // measure 65
0011
0000
1001
0000
,  // measure 66
0000
0220
0000
0330
,  // measure 67
0001
0100
0010
1000
,  // measure 68
0200
0000
0000
0010
,  // measure 69
0310
0100
1000
0001
,  // measure 70
0100
2002
3003
1000
,  // measure 71
0001
0100
0001
0010
,  // measure 72
0100
1000
0010
0100
,  // measure 73
0001
0010
0001
0000
,  // measure 74
0101
0101
0101
0101
,  // measure 75
0101
0101
0101
0000
,  // measure 76
0110
0110
0110
0110
,  // measure 77
0110
0110
0110
0000
,  // measure 78
1100
1100
1100
1100
,  // measure 79
1100
1100
1100
0000
,  // measure 80
0101
0101
0101
0101
,  // measure 81
1100
1100
1001
0000
,  // measure 82
0010
0010
0001
1000
,  // measure 83
0100
0100
0001
0001
,  // measure 84
0100
0100
1000
0010
,  // measure 85
0100
0001
1000
0000
,  // measure 86
0010
0010
1000
0100
,  // measure 87
0010
0010
0001
0001
,  // measure 88
1000
1000
0001
0100
,  // measure 89
0010
0100
1001
0000
;

//---------------dance-single - ----------------
#NOTES:
     dance-single:
     :
     Beginner:
     2:
     0.267425,0.567938,0.483858,0.214167,0.000000,236.000000,175.000000,61.000000,27.000000,0.000000,0.000000,0.267425,0.567938,0.483858,0.214167,0.000000,236.000000,175.000000,61.000000,27.000000,0.000000,0.000000:
// measure 0
0000
0000
0000
0000
,  // measure 1
0000
0000
0000
0000
,  // measure 2
0000
0000
0000
0000
,  // measure 3
0000
0000
0000
0000
,  // measure 4
1000
0000
0001
0000
,  // measure 5
0100
0000
0100
0000
,  // measure 6
0001
0000
1000
0000
,  // measure 7
0100
0000
0100
0000
,  // measure 8
0001
0000
0000
0000
,  // measure 9
0100
0000
0000
0000
,  // measure 10
1000
0000
0010
0000
,  // measure 11
1000
0000
0001
0000
,  // measure 12
0010
0000
0000
0000
,  // measure 13
0100
0000
0000
0000
,  // measure 14
1000
0000
0000
0000
,  // measure 15
0001
0000
0000
0000
,  // measure 16
0100
0000
0100
0000
,  // measure 17
0010
0000
0010
0000
,  // measure 18
1000
0000
1000
0000
,  // measure 19
0001
0000
0001
0000
,  // measure 20
0100
0000
0100
0000
,  // measure 21
0010
0000
0010
0000
,  // measure 22
0100
0000
0100
0000
,  // measure 23
0001
0000
1000
0000
,  // measure 24
0100
0100
0100
0100
,  // measure 25
0100
0100
0100
0000
,  // measure 26
0000
0220
0000
0330
,  // measure 27
0001
0000
0001
0000
,  // measure 28
1000
0000
1000
0000
,  // measure 29
0010
0000
0010
0000
,  // measure 30
0000
0220
0000
0330
,  // measure 31
0100
0000
0100
0000
,  // measure 32
0001
0000
0001
0000
,  // measure 33
1000
0000
1000
0000
,  // measure 34
1001
1001
1001
1001
,  // measure 35
1001
1001
1001
0000
,  // measure 36
0110
0110
0110
0110
,  // measure 37
0110
0110
0110
0000
,  // measure 38
1001
1001
1001
1001
,  // measure 39
1001
1001
1001
0000
,  // measure 40
0110
0110
0110
0110
,  // measure 41
0110
0000
1001
0000
,  // measure 42
0010
0000
1000
0000
,  // measure 43
0001
0000
0001
0000
,  // measure 44
0010
0000
0001
0000
,  // measure 45
1000
0000
1000
0000
,  // measure 46
0200
0000
0000
0300
,  // measure 47
0200
0000
0000
0300
,  // measure 48
0200
0000
0000
0300
,  // measure 49
2000
3000
0002
0003
,  // measure 50
0200
0000
0000
0300
,  // measure 51
0200
0000
0000
0300
,  // measure 52
0200
0000
0000
0300
,  // measure 53
0002
0003
2000
3000
,  // measure 54
0020
0000
0000
0030
,  // measure 55
2000
0000
0000
3000
,  // measure 56
0002
0000
0000
0003
,  // measure 57
0200
0000
0000
0300
,  // measure 58
0020
0000
0000
0030
,  // measure 59
2000
0000
0000
3000
,  // measure 60
0002
0003
0020
0030
,  // measure 61
0200
0300
0110
0000
,  // measure 62
1000
0000
1000
0000
,  // measure 63
1000
0000
1000
0000
,  // measure 64
0001
0000
0001
0000
,  // measure 65
0001
0000
0001
0000
,  // measure 66
0000
2002
0000
3003
,  // measure 67
0010
0000
0100
0000
,  // measure 68
0001
0000
0010
0000
,  // measure 69
0100
0000
1000
0000
,  // measure 70
0000
2002
0000
3003
,  // measure 71
1000
0000
1000
0000
,  // measure 72
0001
0000
0100
0000
,  // measure 73
0010
0000
0000
0000
,  // measure 74
0110
0110
0110
0110
,  // measure 75
0110
0110
0110
0000
,  // measure 76
1001
1001
1001
1001
,  // measure 77
1001
1001
1001
0000
,  // measure 78
0110
0110
0110
0110
,  // measure 79
0110
0110
0110
0000
,  // measure 80
1001
1001
1001
1001
,  // measure 81
1001
1001
1001
0000
,  // measure 82
0010
0000
1000
0000
,  // measure 83
0001
0000
0001
0000
,  // measure 84
0010
0000
0001
0000
,  // measure 85
0100
0000
0100
0000
,  // measure 86
0010
0000
1000
0000
,  // measure 87
0100
0000
0100
0000
,  // measure 88
1000
0000
0001
0000
,  // measure 89
0100
0000
1001
0000
;
