#TITLE:Malacca;
#SUBTITLE:;
#ARTIST:nc ft NRG factory;
#TITLETRANSLIT:;
#SUBTITLETRANSLIT:;
#ARTISTTRANSLIT:;
#GENRE:;
#CREDIT:;
#BANNER:Malacca-bn.jpg;
#BACKGROUND:Malacca-bg.jpg;
#LYRICSPATH:;
#CDTITLE:;
#MUSIC:Malacca.ogg;
#OFFSET:0.000000;
#SAMPLESTART:58.310001;
#SAMPLELENGTH:15.000000;
#SELECTABLE:YES;
#DISPLAYBPM:140.000000;
#BPMS:0.000000=139.714996
,4.000000=140.000000
;
#STOPS:
;
#BGCHANGES:;
#KEYSOUNDS:;
#ATTACKS:;

//---------------dance-single - ----------------
#NOTES:
     dance-single:
     :
     Beginner:
     1:
     0.127768,0.156030,0.068050,0.000000,0.000000,92.000000,85.000000,7.000000,0.000000,0.000000,0.000000,0.127768,0.156030,0.068050,0.000000,0.000000,92.000000,85.000000,7.000000,0.000000,0.000000,0.000000:
0000
0000
0000
0000
,
0000
0000
0000
0000
,
0000
0000
0000
0000
,
0000
0000
0000
0000
,
0000
0000
0000
0000
,
0010
0000
0000
0000
,
0100
0000
0000
0000
,
0001
0000
0000
0000
,
1000
0000
0000
0000
,
0010
0000
0010
0000
,
1000
0000
1000
0000
,
0100
0000
0100
0000
,
0001
0000
0001
0000
,
0010
0010
0000
0000
,
0100
0100
0000
0000
,
0001
0001
0000
0000
,
1000
1000
0000
0000
,
1001
0000
0000
0000
,
0100
0000
1000
0000
,
0001
0000
0010
0000
,
0001
0000
1000
0000
,
0010
0000
0100
0000
,
0001
0000
0100
0000
,
1000
0000
0010
0000
,
0100
0000
0000
0000
,
1001
0000
0000
0000
,
0001
0000
1000
0000
,
1001
0000
0000
0000
,
1000
0000
0001
0000
,
1001
0000
0000
0000
,
1001
0000
0000
0000
,
0010
0000
0100
0000
,
1000
0000
0001
0000
,
1001
0000
0000
0000
,
1000
0000
0001
0000
,
0010
0000
0001
0000
,
1000
0000
0100
0000
,
0010
0000
0100
0000
,
1000
0000
0001
0000
,
0001
0000
1000
0000
,
0010
0000
0000
0000
,
1001
0000
0000
0000
,
0001
0000
0100
0000
,
1000
0000
0100
0000
,
0010
0000
0100
0000
,
0001
0000
1000
0000
,
0010
0010
0000
0000
,
0100
0100
0000
0000
,
0001
0001
0000
0000
,
1000
1000
0000
0000
,
0010
0000
1000
0000
,
0100
0000
0001
0000
,
0010
0000
0100
0000
,
0001
0000
1000
0000
;

//---------------dance-single - ----------------
#NOTES:
     dance-single:
     :
     Easy:
     3:
     0.205540,0.235138,0.087493,0.038886,0.000000,148.000000,139.000000,9.000000,4.000000,0.000000,0.000000,0.205540,0.235138,0.087493,0.038886,0.000000,148.000000,139.000000,9.000000,4.000000,0.000000,0.000000:
0000
0000
0000
0000
,
0000
0000
0000
0000
,
0000
0000
0000
0000
,
0000
0000
0000
0000
,
0000
0000
0000
0000
,
0100
0010
1000
0000
,
0010
0001
1000
0000
,
0100
0000
0001
0000
,
0010
0000
1000
0000
,
0100
1000
0100
0000
,
0001
0010
0001
0000
,
0100
0001
0100
0000
,
1000
0010
1000
0000
,
0100
0100
1000
0000
,
0001
0001
1000
0000
,
0010
0000
0100
0000
,
1000
1000
0010
0000
,
1001
0000
0100
0000
,
0010
0001
0010
0000
,
1001
0000
0100
0000
,
0001
0100
0001
0000
,
0110
0000
0010
0000
,
1000
0100
1000
0000
,
1001
0000
0001
0000
,
0010
0100
0010
0000
,
1001
0000
0100
0010
,
1000
0100
0001
0000
,
0110
0000
0010
1000
,
0001
0000
1000
0000
,
0010
1000
0010
0000
,
0001
0010
0001
0000
,
0100
0000
0010
0000
,
1000
0001
1000
0001
,
2002
0000
0000
3003
,
0100
0100
1000
0000
,
0100
0010
1000
0010
,
0001
0001
0100
0000
,
0001
0010
1000
0100
,
0010
0010
0001
0000
,
0100
1000
0100
0010
,
0001
0000
1000
0000
,
2002
0000
0000
3003
,
0001
0100
1000
0000
,
0010
0100
1000
0001
,
0100
0001
0010
0000
,
0001
0100
1000
0010
,
0001
0100
0001
0000
,
0010
1000
0010
0000
,
0100
0000
0001
0000
,
0100
1000
0001
1001
,
0010
0000
0100
0000
,
1000
1000
0001
0001
,
0100
0000
0010
0000
,
0001
0001
1000
1000
;

//---------------dance-single - ----------------
#NOTES:
     dance-single:
     :
     Medium:
     6:
     0.290256,0.365771,0.252758,0.038886,0.000000,209.000000,183.000000,26.000000,4.000000,0.000000,0.000000,0.290256,0.365771,0.252758,0.038886,0.000000,209.000000,183.000000,26.000000,4.000000,0.000000,0.000000:
0000
0000
0000
0000
,
0000
0000
0000
0000
,
0000
0000
0000
0000
,
0000
0000
0000
0000
,
0000
0000
0000
0000
,
0100
0001
1000
0100
,
0010
0001
0100
0010
,
1001
0000
0010
0000
,
0100
1000
0010
0100
,
0011
0100
1000
0000
,
0010
0001
0100
0000
,
0001
1000
0100
0000
,
0010
0100
1000
0000
,
0010
0010
1000
1000
,
0100
0100
0001
0001
,
1000
0000
0001
0000
,
0100
0010
1000
0000
0100
0000
0010
0000
,
1001
0000
1000
0010
,
1000
0000
0100
0001
0010
0000
0000
0000
,
1100
0000
1000
0010
,
0001
0000
0010
0000
,
0101
0000
0010
0100
,
0010
0000
1000
0001
0100
0000
0000
0000
,
0110
0000
1000
0100
,
1000
0000
0010
1000
0100
0000
0000
0000
,
1001
0001
0100
0010
,
0100
0001
1000
0000
,
0110
0010
0001
0100
,
0001
0000
0010
0000
,
0001
0100
0101
0000
,
1000
0100
1100
0000
,
1001
0100
0010
0100
,
1001
0100
0010
0100
,
2002
0000
0000
3003
,
0100
1000
0010
0000
1000
0000
0001
0000
,
0010
1100
0010
0101
,
1000
0001
0010
0000
0100
0000
0010
0000
,
0001
0110
1000
0110
,
0001
1000
0100
0000
0001
0000
0010
0000
,
0100
0011
0100
1010
,
0100
0100
0010
0010
,
2002
0000
0000
3003
,
0010
0100
0001
0000
1000
0000
0100
0000
,
0010
0000
1001
0000
0100
0001
0100
0000
,
0010
1000
0001
0000
0010
0000
1000
0000
,
0001
0100
0001
0000
1000
0100
0001
0000
,
0100
1000
0010
0000
1000
0000
0101
0000
,
0010
0000
1100
0000
0010
0001
0100
0000
,
1010
0001
0010
1000
,
0100
1000
0010
0000
0001
0000
0110
0000
,
0001
0001
1000
1000
,
0010
0100
0001
0010
,
0100
0100
0010
0010
,
0100
1000
0010
1001
;

//---------------dance-single - ----------------
#NOTES:
     dance-single:
     :
     Hard:
     7:
     0.333308,0.418996,0.106936,0.038886,0.126379,240.000000,229.000000,11.000000,4.000000,0.000000,0.000000,0.333308,0.418996,0.106936,0.038886,0.126379,240.000000,229.000000,11.000000,4.000000,0.000000,0.000000:
0000
0000
0000
0000
,
0000
0000
0000
0000
,
0000
0000
0000
0000
,
0000
0000
0000
0000
,
0000
0000
0000
0000
,
0010
0000
0000
0000
1000
0000
0000
0000
0001
0000
0000
0001
0000
0000
0010
0000
,
0100
0000
0000
0000
1000
0000
0000
0000
0001
0000
0000
0001
0000
0000
0100
0000
,
0020
0000
0200
0330
,
0010
1000
0100
1000
0010
0000
0100
0000
,
1001
0001
0100
0100
,
1000
1000
0010
0010
,
0001
0010
0100
1000
,
0010
0100
0001
1000
,
0100
0100
1000
0000
,
0010
0010
0001
0000
,
0010
1000
0001
0100
,
0010
0100
0001
1000
0100
0000
0010
0000
,
1001
0000
0000
0000
0010
0000
0000
0000
0100
0000
0000
0001
0000
0000
0010
0000
,
0001
0000
1000
0001
0100
0000
0000
0000
,
0010
0000
0000
0000
0100
0000
0000
0000
0001
0000
0000
1000
0000
0000
0100
0000
,
0010
0100
1000
0000
,
0010
0000
0000
0000
1000
0000
0000
0000
0010
0000
0000
0100
0000
0000
0001
0000
,
0010
0001
1000
0000
,
0010
0000
0000
0000
0100
0000
0000
0000
1000
0000
0000
0100
0000
0000
0001
0000
,
0010
0001
0100
0000
,
1100
0000
0100
0000
0010
0100
1000
0000
,
0010
0000
0001
1000
0010
0000
0000
0000
,
0101
0000
0100
0000
1000
0100
0001
0000
,
1000
0000
0100
0000
,
0011
0100
1000
0000
,
1010
0100
0001
0000
,
1100
0000
0010
1000
0100
1000
0010
0000
,
0101
0000
0010
0001
0100
0001
0010
0000
,
2200
0000
0000
3300
,
0010
0000
0001
0000
0100
0000
0000
0000
0001
0000
0000
1000
0000
0000
0001
0000
,
0100
0000
0010
0000
1000
0000
0000
0000
0100
0000
0000
0010
0000
0000
0001
0000
,
0010
0000
0100
0000
1000
0000
0000
0000
0010
0000
0000
0001
0000
0000
0010
0000
,
1000
0000
0001
0000
0100
0000
0000
0000
0001
0000
0000
0010
0000
0000
0001
0000
,
1000
0000
0010
0000
0100
0000
0000
0000
0001
0000
0000
0100
0000
0000
0001
0000
,
0010
0000
0001
0000
1000
0000
0000
0000
0010
0000
0000
0100
0000
0000
0010
0000
,
1000
1000
0001
0001
,
0110
0000
0100
0100
,
1000
0000
0001
0000
0010
0000
0000
0000
0001
0000
0000
1000
0000
0000
0001
0000
,
0010
0000
0100
0000
1000
0000
0000
0000
0010
0000
0000
0100
0000
0000
0001
0000
,
0100
0000
0010
0000
1000
0000
0000
0000
0100
0000
0000
0001
0000
0000
0100
0000
,
1000
0000
0001
0000
0010
0000
0000
0000
0001
0000
0000
0100
0000
0000
0001
0000
,
1000
0000
0100
0000
0010
0000
0000
0000
0001
0000
0000
0100
0000
0000
0001
0000
,
0010
0000
0001
0000
1000
0000
0000
0000
0100
0000
0000
0010
0000
0000
0100
0000
,
1000
1000
0001
0001
,
0010
0100
0010
1001
,
1000
0000
0000
1000
0000
0000
0100
0000
0001
0000
0000
0001
0000
0000
0100
0000
,
0010
0000
0000
0010
0000
0000
1000
0000
0001
0000
0000
0001
0000
0000
0010
0000
,
0100
0000
0000
0100
0000
0000
1000
0000
0010
0000
0000
0010
0000
0000
0001
0000
,
1000
0000
0000
1000
0000
0000
0100
0000
0001
0000
0000
0001
0000
0000
0100
0000
;

//---------------dance-single - ----------------
#NOTES:
     dance-single:
     :
     Challenge:
     9:
     0.545792,0.549932,0.077772,0.184708,0.665921,393.000000,385.000000,8.000000,19.000000,0.000000,0.000000,0.545792,0.549932,0.077772,0.184708,0.665921,393.000000,385.000000,8.000000,19.000000,0.000000,0.000000:
0000
0000
0000
0000
,
0000
0000
0000
0000
,
0000
0000
0000
0000
,
0000
0000
0000
0000
,
0000
0000
0000
0000
,
1000
0001
0000
1000
0000
0000
0100
0000
0010
0001
0000
1000
0000
0000
0100
0000
,
1000
0001
0000
1000
0000
0000
0010
0000
0100
0001
0000
1000
0000
0000
0100
0000
,
0210
1000
0010
0001
,
0010
0000
0300
0000
0000
0000
0000
0000
0010
1000
0001
1000
0100
0000
1000
0000
,
0001
1000
0100
1000
0000
0000
0000
0000
1000
0001
0100
0001
0000
0000
0000
0000
,
0001
1000
0010
1000
0000
0000
0000
0000
1000
0001
0010
0001
0000
0000
0000
0000
,
0001
1000
0010
1000
0000
0000
0000
0000
1000
0001
0010
0001
0000
0000
0000
0000
,
0001
1000
0100
1000
0000
0000
0000
0000
1000
0001
0010
0001
0000
0000
0000
0000
,
0010
1000
0010
0000
1000
0000
0010
0000
0100
0001
0100
0000
0001
0000
0100
0000
,
0010
1000
0001
0000
0100
0000
0010
0000
0100
0001
0100
0000
0001
0000
0100
0000
,
0010
1000
0010
0000
1000
0000
0010
0000
0100
0001
0100
0000
0001
0000
0100
0000
,
0001
1000
0001
0000
0100
0000
0010
0000
0100
0000
0001
0000
1000
0000
0001
0000
,
1001
0000
0001
0000
0000
0100
0000
0000
0010
0000
0000
1000
0000
0000
0010
0000
,
0000
0000
1000
0001
1000
0100
1000
0000
0100
0000
0000
0100
0000
0000
1000
0000
,
0001
0000
1000
0000
0000
0100
0000
0000
0010
0000
0000
0001
0000
0000
0010
0000
,
0000
0000
0001
1000
0001
0100
0001
0000
0100
0000
0000
0100
0000
0000
0001
0000
,
1000
0000
0001
0000
0000
0010
0000
0000
0100
0000
0000
1000
0000
0000
0100
0000
,
0000
0000
1000
0001
1000
0010
1000
0000
0010
0000
0000
0010
0000
0000
1000
0000
,
0001
0000
1000
0000
0000
0100
0000
0000
0010
0000
0000
0001
0000
0000
0010
0000
,
0001
0000
1000
0000
0001
0000
1000
0000
0100
0000
0000
0100
0000
0000
0001
0000
,
1000
0000
0001
0000
1000
0100
0000
0000
0010
0000
0000
0001
0000
0000
0010
0000
,
0000
0000
0010
0000
0000
0100
0000
0000
0010
0000
0000
1000
0000
0000
0100
0010
,
0001
0000
1000
0000
0001
0100
0000
0000
0010
0000
0000
1000
0000
0000
0010
0000
,
1000
0000
0010
0000
0000
0100
0000
0000
0010
0000
0000
1000
0000
0000
0100
0010
,
0001
0000
1000
0000
0000
0100
0000
0000
0010
0000
0000
1000
0000
0000
0010
1000
,
0001
0000
0010
0000
0000
1000
0000
0000
0100
0000
0000
0001
0000
0000
0100
0010
,
0001
0000
1000
0000
0000
0001
0000
0000
0010
0000
0000
1000
0000
0000
0001
0000
,
1100
0110
1001
0101
,
2200
0000
0000
3300
,
0100
0000
0001
0000
1000
0001
0000
0010
0001
0000
1000
0100
0000
1000
0001
0000
,
0100
0000
0010
0000
1000
0100
1000
0010
0100
0000
0000
0010
0000
0000
1000
0000
,
0100
0000
1000
0000
0001
1000
0000
0010
1000
0000
0001
0100
0000
0001
1000
0000
,
0100
0000
0010
0000
0001
0100
0001
0010
0100
0000
0000
0010
0000
0000
0001
0000
,
0010
0000
0001
0000
0100
0001
0000
0010
0001
0000
1000
0100
0000
1000
0001
0000
,
0100
0000
0010
0000
1000
0100
1000
0010
0100
0000
0000
0010
0000
0000
1000
0000
,
0100
0000
1000
0000
0001
1000
0000
0010
1000
0000
0001
0100
0000
0001
1000
0000
,
0100
0000
0010
0000
0001
0100
0001
0010
0100
0000
0000
0010
0000
0000
0001
0000
,
1001
0000
0002
0000
0000
0203
0000
0000
0320
0000
0000
2030
0000
0000
3010
0000
,
1000
0100
1000
0001
1000
0100
1000
0000
0100
0000
0000
0100
0000
0000
1000
0000
,
0001
0000
2000
0000
0000
3200
0000
0000
0320
0000
0000
0032
0000
0000
0013
0000
,
0001
0100
0001
1000
0001
0100
0001
0000
0100
0000
0000
0100
0000
0000
0001
0000
,
1000
0000
0002
0000
0000
0023
0000
0000
0230
0000
0000
2300
0000
0000
3100
0000
,
1000
0010
1000
0001
1000
0010
1000
0000
0010
0000
0000
0010
0000
0000
1000
0000
,
0001
0000
2000
0000
0000
3200
0000
0000
0320
0000
0000
0032
0000
0000
0013
0000
,
0001
0100
0001
1000
0001
0100
0001
0000
0100
0000
0000
0100
0000
0000
0001
0000
,
1000
0010
0000
1000
0001
0000
0100
0000
0001
0100
0000
0001
1000
0000
0100
0000
,
1000
0100
0000
1000
0001
0000
0100
0000
0001
0010
0000
0001
0100
0000
0010
0000
,
1000
0100
0000
1000
0001
0000
0100
0000
0001
0100
0000
0001
1000
0000
0100
0000
,
1000
0100
0000
1000
0001
0000
0100
0000
0001
0010
0000
0001
1000
0000
0100
0000
;

//---------------dance-double - ----------------
#NOTES:
     dance-double:
     :
     Easy:
     4:
     0.215261,0.261265,0.048607,0.038886,0.000000,155.000000,150.000000,5.000000,4.000000,0.000000,0.000000,0.215261,0.261265,0.048607,0.038886,0.000000,155.000000,150.000000,5.000000,4.000000,0.000000,0.000000:
// measure 0
00000000
00000000
00000000
00000000
,  // measure 1
00000000
00000000
00000000
00000000
,  // measure 2
00000000
00000000
00000000
00000000
,  // measure 3
00000000
00000000
00000000
00000000
,  // measure 4
00000000
00000000
00000000
00000000
,  // measure 5
00100000
01000000
00010000
00000000
,  // measure 6
10000000
01000000
00010000
00000000
,  // measure 7
00001000
00000000
00000010
00000000
,  // measure 8
00000001
00000000
00001000
00000000
,  // measure 9
00000001
00000100
00000001
00000000
,  // measure 10
00001000
00010000
00001000
00000000
,  // measure 11
00100000
10000000
00100000
00000000
,  // measure 12
01000000
00100000
01000000
00000000
,  // measure 13
00010000
00001000
00000100
00000000
,  // measure 14
00000001
00001000
00000001
00000000
,  // measure 15
00000010
00001000
00010000
00000000
,  // measure 16
00100000
10000000
01000000
00000000
,  // measure 17
10010000
00000000
00100000
00000000
,  // measure 18
01000000
10000000
01000000
00000000
,  // measure 19
00100000
00000000
00010000
00000000
,  // measure 20
00001000
00010000
00001000
00000000
,  // measure 21
00000100
00000000
00000001
00000000
,  // measure 22
00000010
00000100
00001000
00000000
,  // measure 23
00000010
00000000
00000100
00000000
,  // measure 24
00001000
00010000
00001000
00000000
,  // measure 25
00011000
00000000
00100000
10000000
,  // measure 26
01000000
00010000
00001000
00000000
,  // measure 27
00011000
00000000
00000010
00000001
,  // measure 28
00000100
00001000
00010000
00000000
,  // measure 29
00010000
01000000
00010000
00000000
,  // measure 30
00001000
00000100
00001000
00000000
,  // measure 31
00000010
00000100
00001000
00010000
,  // measure 32
00100000
10000000
01000000
00010000
,  // measure 33
00022000
00000000
00000000
00033000
,  // measure 34
00001000
00000100
00000001
00000000
,  // measure 35
00000010
00000100
00000001
00000010
,  // measure 36
00001000
00010000
01000000
00000000
,  // measure 37
00100000
00010000
01000000
00010000
,  // measure 38
10000000
01000000
00010000
00000000
,  // measure 39
00001000
00000010
00001000
00010000
,  // measure 40
00001000
00000100
00000001
00000000
,  // measure 41
00002002
00000000
00000000
00003003
,  // measure 42
00000010
00001000
00010000
00100000
,  // measure 43
10000000
00010000
01000000
00000000
,  // measure 44
00100000
10000000
01000000
00100000
,  // measure 45
10000000
00100000
00010000
00000000
,  // measure 46
00001000
00000100
00000001
00000100
,  // measure 47
00000010
00000001
00000100
00001000
,  // measure 48
00010000
00000000
00001000
00000000
,  // measure 49
00010000
01000000
10000000
00100000
,  // measure 50
10000000
10000000
00010000
00010000
,  // measure 51
10000000
01000000
00010000
00001000
,  // measure 52
00000010
00000010
00000100
00000100
,  // measure 53
00001000
00000010
00000100
00000001
;

//---------------dance-double - ----------------
#NOTES:
     dance-double:
     :
     Medium:
     6:
     0.277757,0.313518,0.136101,0.038886,0.000000,200.000000,186.000000,14.000000,4.000000,0.000000,0.000000,0.277757,0.313518,0.136101,0.038886,0.000000,200.000000,186.000000,14.000000,4.000000,0.000000,0.000000:
// measure 0
00000000
00000000
00000000
00000000
,  // measure 1
00000000
00000000
00000000
00000000
,  // measure 2
00000000
00000000
00000000
00000000
,  // measure 3
00000000
00000000
00000000
00000000
,  // measure 4
00000000
00000000
00000000
00000000
,  // measure 5
00000010
00000001
00001000
00000010
,  // measure 6
00000100
00001000
00010000
01000000
,  // measure 7
20000000
00000000
00020000
30030000
,  // measure 8
00100000
00010000
00001000
00001010
,  // measure 9
00000100
00000100
00000010
00000010
,  // measure 10
00000001
00000001
00000100
00000100
,  // measure 11
00001000
00001000
00010000
00010000
,  // measure 12
00100000
00100000
10000000
10000000
,  // measure 13
01000000
00010000
01000000
00010000
,  // measure 14
00001000
00000100
00001000
00000100
,  // measure 15
00000001
00000010
00000001
00000100
,  // measure 16
00001000
00010000
00001000
00010000
,  // measure 17
01010000
00000000
00000000
00000000
00100000
00000000
10000000
00010000
,  // measure 18
00100000
01000000
10000000
00000000
,  // measure 19
00100000
00000000
00000000
00000000
01000000
00000000
00100000
00010000
,  // measure 20
00001000
00000010
00000001
00000000
,  // measure 21
00001000
00000000
00000000
00000000
00000001
00000000
00000100
00001000
,  // measure 22
00010000
00100000
01000000
00000000
,  // measure 23
00010000
00000000
10000000
00000000
,  // measure 24
01000000
00010000
00001000
00000000
,  // measure 25
00001010
00000100
00000010
00010000
,  // measure 26
00000100
00000010
00001000
00000000
,  // measure 27
00011000
01000000
10000000
00100000
,  // measure 28
00010000
00001000
00000010
00000000
,  // measure 29
00001001
00000100
00001000
00000000
,  // measure 30
00110000
01000000
10000000
00000000
,  // measure 31
00011000
00001000
00000100
00000001
,  // measure 32
00000011
00001000
00010000
00100000
,  // measure 33
10010000
00000000
00000000
00000000
,  // measure 34
00100000
00000000
01000000
00000000
00010000
10000000
01000000
00000000
,  // measure 35
00010000
00001000
00000100
00000001
,  // measure 36
00000010
00000000
00000001
00000000
00001000
00000010
00000100
00000000
,  // measure 37
00001000
00010000
00100000
10000000
,  // measure 38
00010000
00000000
00100000
00000000
01000000
10000000
00100000
00000000
,  // measure 39
00010000
00001000
00000100
00000010
,  // measure 40
00001000
00000000
00000001
00000000
00000100
00001000
00010000
00000000
,  // measure 41
00220000
00000000
00000000
00330000
,  // measure 42
10000000
00000000
01000000
00000000
00100000
00010000
10000000
00000000
,  // measure 43
00010000
01000000
00100000
00110000
,  // measure 44
00001000
00000000
00000010
00000000
00000001
00001000
00000100
00000000
,  // measure 45
00000010
00000001
00000100
00001100
,  // measure 46
00010000
00000000
00100000
00000000
00010000
00001000
00000010
00000000
,  // measure 47
00000100
00001000
00010000
01010000
,  // measure 48
00100000
00000000
00010000
00000000
01000000
00100000
10000000
00000000
,  // measure 49
01000000
00010000
00001000
00011000
,  // measure 50
00000010
00000010
00000001
00000001
,  // measure 51
00000100
00001000
00010000
01000000
,  // measure 52
10000000
10000000
00100000
00100000
,  // measure 53
00010000
00001000
00000010
00000001
;

//---------------dance-double - ----------------
#NOTES:
     dance-double:
     :
     Hard:
     7:
     0.323586,0.418996,0.136101,0.019443,0.131240,233.000000,219.000000,14.000000,2.000000,0.000000,0.000000,0.323586,0.418996,0.136101,0.019443,0.131240,233.000000,219.000000,14.000000,2.000000,0.000000,0.000000:
// measure 0
00000000
00000000
00000000
00000000
,  // measure 1
00000000
00000000
00000000
00000000
,  // measure 2
00000000
00000000
00000000
00000000
,  // measure 3
00000000
00000000
00000000
00000000
,  // measure 4
00000000
00000000
00000000
00000000
,  // measure 5
00100000
10000000
00010000
00000000
10000000
00000000
01000000
00000000
,  // measure 6
00010000
00001000
00010000
00000000
00001000
00000000
00000010
00000000
,  // measure 7
00001001
00000000
00000010
00000000
,  // measure 8
00000100
00000010
00001000
00010000
00100000
00000000
10010000
00000000
,  // measure 9
01100000
10000000
01000000
00010000
,  // measure 10
00001000
00001000
00000100
00000100
,  // measure 11
00000010
00000100
00000001
00000010
,  // measure 12
00001000
00001000
00010000
00010000
,  // measure 13
00100000
10000000
01000000
00100000
,  // measure 14
01000000
10000000
00100000
00010000
,  // measure 15
00001000
00000000
00000100
00000000
,  // measure 16
00000001
00000010
00001000
00010000
,  // measure 17
01100000
00000000
00000000
00000000
01000000
00000000
00000000
00000000
10000000
00000000
00000000
00100000
00000000
00000000
10000000
00000000
,  // measure 18
01000000
00010000
00001000
00000000
,  // measure 19
00000100
00000000
00000001
00000000
00000010
00000000
00000000
00000000
00001000
00000000
00000000
00010000
00000000
00000000
00100000
00000000
,  // measure 20
10000000
00100000
01000000
00000000
,  // measure 21
00010000
00000000
10000000
00000000
01000000
00000000
00000000
00000000
00100000
00000000
00000000
01000000
00000000
00000000
00010000
00000000
,  // measure 22
00001000
00000010
00000001
00000000
,  // measure 23
00001000
00000000
00000100
00000000
00010000
00000000
00000000
00000000
00000010
00000000
00000000
00001000
00000000
00000000
00000001
00000000
,  // measure 24
00000100
00000010
00001000
00000000
,  // measure 25
00011000
00000000
00000000
00000000
00100000
00000000
00000000
00000000
00010000
00000000
00000000
00100000
00000000
00000000
10000000
00000000
,  // measure 26
00010000
01000000
00100000
00000000
,  // measure 27
10010000
00000000
00000000
00000000
01000000
00000000
00000000
00000000
00010000
00000000
00000000
00001000
00000000
00000000
00000100
00000000
,  // measure 28
00000001
00000010
00000100
00000000
,  // measure 29
00011000
00000000
00100000
00000000
10000000
00010000
00100000
00000000
,  // measure 30
11000000
00000000
00010000
00000000
00100000
00010000
01000000
00000000
,  // measure 31
00100000
10000000
00100000
00000000
01000000
00010000
01000000
00000000
,  // measure 32
00011000
00001100
00000101
00000011
,  // measure 33
00002002
00000000
00000000
00003003
,  // measure 34
00000000
00000000
00001000
00000000
00000100
00000000
00000000
00000000
00001000
00000000
00000000
00000010
00000000
00000000
00001000
00000000
,  // measure 35
00000000
00000000
00000001
00000000
00000100
00000000
00000000
00000000
00001000
00000000
00000000
00010000
00000000
00000000
00100000
00000000
,  // measure 36
00000000
00000000
01000000
00000000
00010000
00000000
00000000
00000000
00100000
00000000
00000000
00010000
00000000
00000000
01000000
00000000
,  // measure 37
00000000
00000000
10000000
00000000
01000000
00000000
00000000
00000000
00100000
00000000
00000000
10000000
00000000
00000000
01000000
00000000
,  // measure 38
00000000
00000000
00010000
00000000
00001000
00000000
00000000
00000000
00000010
00000000
00000000
00000100
00000000
00000000
00001000
00000000
,  // measure 39
00000000
00000000
00000010
00000000
00000100
00000000
00000000
00000000
00001000
00000000
00000000
00010000
00000000
00000000
01000000
00000000
,  // measure 40
00000000
00000000
00100000
00000000
01000000
00000000
00000000
00000000
10000000
00000000
00000000
00100000
00000000
00000000
01000000
00000000
,  // measure 41
00100000
00000000
00001000
00000010
,  // measure 42
00000001
00000000
00001000
00000000
00000010
00000000
00000000
00000000
00000100
00000000
00000000
00000001
00000000
00000000
00000010
00000000
,  // measure 43
00000000
00000000
00000100
00000000
00001000
00000000
00000000
00000000
00000010
00000000
00000000
00000100
00000000
00000000
00001000
00000000
,  // measure 44
00000000
00000000
00010000
00000000
01000000
00000000
00000000
00000000
00100000
00000000
00000000
01000000
00000000
00000000
10000000
00000000
,  // measure 45
00000000
00000000
00100000
00000000
10000000
00000000
00000000
00000000
00010000
00000000
00000000
01000000
00000000
00000000
00100000
00000000
,  // measure 46
00000000
00000000
00010000
00000000
00001000
00000000
00000000
00000000
00000010
00000000
00000000
00000001
00000000
00000000
00000100
00000000
,  // measure 47
00000000
00000000
00001000
00000000
00010000
00000000
00000000
00000000
01000000
00000000
00000000
10000000
00000000
00000000
00100000
00000000
,  // measure 48
01000000
00000000
00100000
00000000
,  // measure 49
00010000
00001000
00000010
00001001
,  // measure 50
00000010
00000000
00000000
00000010
00000000
00000000
00000001
00000000
00000100
00000000
00000000
00000100
00000000
00000000
00001000
00000000
,  // measure 51
00010000
00000000
00000000
00010000
00000000
00000000
01000000
00000000
10000000
00000000
00000000
10000000
00000000
00000000
00010000
00000000
,  // measure 52
01000000
00000000
00000000
01000000
00000000
00000000
00100000
00000000
10000000
00000000
00000000
10000000
00000000
00000000
01000000
00000000
,  // measure 53
00010000
00000000
00000000
00010000
00000000
00000000
00001000
00000000
00000010
00000000
00000000
00000010
00000000
00000000
00000001
00000000
;

//---------------dance-double - ----------------
#NOTES:
     dance-double:
     :
     Challenge:
     9:
     0.551347,0.576119,0.077772,0.009721,0.690225,397.000000,389.000000,8.000000,1.000000,0.000000,0.000000,0.551347,0.576119,0.077772,0.009721,0.690225,397.000000,389.000000,8.000000,1.000000,0.000000,0.000000:
// measure 0
00000000
00000000
00000000
00000000
,  // measure 1
00000000
00000000
00000000
00000000
,  // measure 2
00000000
00000000
00000000
00000000
,  // measure 3
00000000
00000000
00000000
00000000
,  // measure 4
00000000
00000000
00000000
00000000
,  // measure 5
00001000
00000100
00000000
00001000
00000000
00000000
00000100
00000000
00000010
00000001
00000000
00000100
00000000
00000000
00001000
00000000
,  // measure 6
00010000
01000000
00000000
10000000
00000000
00000000
00100000
00000000
01000000
00010000
00000000
10000000
00000000
00000000
01000000
00000000
,  // measure 7
00010000
00001000
00000010
00000001
,  // measure 8
00000010
00001000
00000100
00000001
00000010
00000001
00000100
00001000
,  // measure 9
00010000
00001000
00010000
01000000
00000000
00000000
00000000
00000000
00100000
00010000
01000000
00001000
00000000
00000000
00000000
00000000
,  // measure 10
00010000
00001000
00100000
00001000
00000000
00000000
00000000
00000000
00010000
00001000
00010000
00001000
00000000
00000000
00000000
00000000
,  // measure 11
00000010
00000100
00000010
00000001
00000000
00000000
00000000
00000000
00000001
00001000
00000010
00001000
00000000
00000000
00000000
00000000
,  // measure 12
00001000
00000001
00000100
00000001
00000000
00000000
00000000
00000000
00001000
00000100
00010000
00001000
00000000
00000000
00000000
00000000
,  // measure 13
00100000
01000000
00100000
00010000
00000000
00000000
00100000
00000000
01000000
10000000
01000000
00100000
00000000
00000000
01000000
00000000
,  // measure 14
10000000
00010000
01000000
00010000
00000000
00000000
01000000
00000000
00001000
00010000
00001000
00010000
00000000
00000000
00000100
00000000
,  // measure 15
00010000
00000010
00001000
00000010
00000000
00000000
00000100
00000000
00000001
00001000
00000001
00000010
00000000
00000000
00000100
00000000
,  // measure 16
00001000
00000001
00001000
00000100
00000000
00000000
00000010
00000000
00000001
00000100
00000010
00000100
00000000
00000000
00001000
00000000
,  // measure 17
00011000
00000000
00010000
00000000
00000000
01000000
00000000
00000000
00100000
00000000
00000000
10000000
00000000
00000000
00100000
00000000
,  // measure 18
00000000
00000000
10000000
00010000
10000000
01000000
00000000
00000000
01000000
00000000
00000000
00010000
00000000
00000000
00001000
00000000
,  // measure 19
00000100
00000000
00000001
00000000
00000000
00000100
00000000
00000000
00000010
00000000
00000000
00001000
00000000
00000000
00000010
00000000
,  // measure 20
00000000
00000000
00010000
00001000
00010000
00001000
00000000
00000000
00010000
00000000
00000000
01000000
00000000
00000000
10000000
00000000
,  // measure 21
10000000
00000000
01000000
00000000
00000000
00010000
00000000
00000000
00001000
00000000
00000000
00000100
00000000
00000000
00000001
00000000
,  // measure 22
00000000
00000000
00001000
00000001
00001000
00000010
00000000
00000000
00000001
00000000
00000000
00000010
00000000
00000000
00001000
00000000
,  // measure 23
00010000
00000000
01000000
00000000
00000000
10000000
00000000
00000000
00100000
00000000
00000000
00010000
00000000
00000000
00100000
00000000
,  // measure 24
10100000
00000000
00000000
00000000
01010000
00000000
00000000
00000000
00011000
00000000
00000000
00000100
00000000
00000000
00000001
00000000
,  // measure 25
00001000
00000000
00000001
00000000
00001000
00000100
00000000
00000000
00000010
00000000
00000000
00000001
00000000
00000000
00000010
00000000
,  // measure 26
00000000
00000000
00001000
00000000
00000000
00010000
00000000
00000000
00100000
00000000
00000000
10000000
00000000
00000000
01000000
00100000
,  // measure 27
00010000
00000000
10000000
00000000
00010000
01000000
00000000
00000000
00100000
00000000
00000000
10000000
00000000
00000000
00100000
00000000
,  // measure 28
10000000
00000000
00100000
00000000
00000000
00010000
00000000
00000000
00001000
00000000
00000000
00000010
00000000
00000000
00000100
00000010
,  // measure 29
00000001
00000000
00000001
00000000
00000000
00000100
00000000
00000000
00000010
00000000
00000000
00001000
00000000
00000000
00000010
00001000
,  // measure 30
00000001
00000000
00000010
00000000
00000000
00001000
00000000
00000000
00010000
00000000
00000000
01000000
00000000
00000000
10000000
00100000
,  // measure 31
10000000
00000000
00010000
00000000
00000000
01000000
00000000
00000000
00100000
00000000
00000000
10000000
00000000
00000000
01000000
00000000
,  // measure 32
11000000
01010000
00011000
00001100
,  // measure 33
00000002
00000000
00000000
00000003
,  // measure 34
00000100
00000000
00000001
00000000
00001000
00000001
00000000
00000010
00000001
00000000
00001000
00000100
00000000
00001000
00000001
00000000
,  // measure 35
00000100
00000000
00000010
00000000
00001000
00000100
00001000
00000010
00000100
00000000
00000000
00001000
00000000
00000000
00010000
00000000
,  // measure 36
01000000
00000000
10000000
00000000
00010000
10000000
00000000
00100000
10000000
00000000
00010000
01000000
00000000
00010000
10000000
00000000
,  // measure 37
01000000
00000000
00100000
00000000
00010000
01000000
00010000
00100000
01000000
00000000
00000000
00100000
00000000
00000000
00001000
00000000
,  // measure 38
00010000
00000000
00001000
00000000
00000100
00000001
00000000
00000010
00000001
00000000
00001000
00000100
00000000
00010000
00001000
00000000
,  // measure 39
00000100
00000000
00000010
00000000
00001000
00000100
00001000
00000010
00000100
00000000
00000000
00001000
00000000
00000000
00010000
00000000
,  // measure 40
01000000
00000000
10000000
00000000
00010000
10000000
00000000
00100000
10000000
00000000
00010000
01000000
00000000
00010000
10000000
00000000
,  // measure 41
01000000
00000000
00100000
00000000
00010000
01000000
00010000
00100000
00001000
00000000
00000000
00010000
00000000
00000000
00001000
00000000
,  // measure 42
00000100
00000000
00000001
00000000
00001000
00000001
00000000
00000010
00000001
00000000
00001000
00000100
00000000
00001000
00000001
00000000
,  // measure 43
00000100
00000000
00000010
00000000
00001000
00000100
00001000
00000010
00000100
00000000
00000000
00001000
00000000
00000000
00010000
00000000
,  // measure 44
01000000
00000000
10000000
00000000
00010000
10000000
00000000
00100000
10000000
00000000
00010000
01000000
00000000
00010000
10000000
00000000
,  // measure 45
01000000
00000000
00100000
00000000
00010000
01000000
00010000
00100000
01000000
00000000
00000000
00100000
00000000
00000000
00001000
00000000
,  // measure 46
00010000
00000000
00001000
00000000
00000100
00000001
00000000
00000010
00000001
00000000
00001000
00000100
00000000
00010000
00001000
00000000
,  // measure 47
00000100
00000000
00000010
00000000
00001000
00000100
00001000
00000010
00000100
00000000
00000000
00001000
00000000
00000000
00010000
00000000
,  // measure 48
01000000
00000000
10000000
00000000
00010000
10000000
00000000
00100000
10000000
00000000
00010000
01000000
00000000
00010000
10000000
00000000
,  // measure 49
01000000
00010000
00001000
00000100
00000001
00000100
00000001
00001000
,  // measure 50
00000001
00000010
00000000
00000001
00001000
00000000
00000100
00000000
00010000
00000100
00000000
00001000
00000001
00000000
00000100
00000000
,  // measure 51
00000001
00000100
00000000
00000001
00001000
00000000
00000100
00000000
00001000
00000010
00000000
00000100
00001000
00000000
00010000
00000000
,  // measure 52
01000000
10000000
00000000
00010000
10000000
00000000
01000000
00000000
10000000
01000000
00000000
10000000
00010000
00000000
01000000
00000000
,  // measure 53
00001000
00010000
01000000
00000000
00000000
00000000
00010000
00000000
00000000
00000000
00001000
00000000
00000000
00000000
00000010
00000000
;
