#TITLE:Latch;
#SUBTITLE:;
#ARTIST:Disclosure feat. Sam Smith;
#TITLETRANSLIT:;
#SUBTITLETRANSLIT:;
#ARTISTTRANSLIT:;
#GENRE:Settle;
#CREDIT:;
#BANNER:Latch-bn.jpg;
#BACKGROUND:Latch-bg.jpg;
#LYRICSPATH:;
#CDTITLE:;
#MUSIC:Latch.mp3;
#OFFSET:0.612000;
#SAMPLESTART:87.884544;
#SAMPLELENGTH:17.704918;
#LASTBEATHINT:276.999207;
#SELECTABLE:YES;
#DISPLAYBPM:122.000000;
#BPMS:0.000000=122.000000
;
#STOPS:177.000000=0.984000
;
#BGCHANGES:;
#KEYSOUNDS:;
#ATTACKS:;

//---------------dance-single - ----------------
#NOTES:
     dance-single:
     :
     Hard:
     9:
     0.493832,0.523902,0.269837,0.233372,0.776692,474.000000,437.000000,37.000000,32.000000,0.000000,0.000000,0.493832,0.523902,0.269837,0.233372,0.776692,474.000000,437.000000,37.000000,32.000000,0.000000,0.000000:
0000
0000
0000
0000
,
0002
0000
0000
1003
0000
0000
0020
0000
0000
1030
0000
1000
,
0200
0000
0000
0310
0000
0000
0002
0000
0000
0013
0000
0001
,
0200
0000
0000
0310
0000
0000
2000
0000
0000
3010
0000
0010
,
0200
0000
0000
0301
0000
0000
1000
0000
0000
0002
1000
0003
,
0100
0000
0000
0101
0000
0000
0100
0000
0000
0101
0000
0010
,
1000
0000
1000
0020
0000
0000
1030
0000
0000
1001
0000
0000
,
1000
0000
1000
0100
0000
0100
0010
0000
0010
0001
0000
0001
,
0100
0000
0000
0110
0000
0000
0001
0000
0000
2000
0001
3000
,
0010
0000
0000
0011
0000
0000
0010
0000
0000
0011
0000
1000
,
0100
0000
0100
0020
0000
0000
0031
0000
0000
1001
0000
0000
,
0001
0000
0001
0100
0000
0100
0010
0000
0010
1000
0000
1000
,
0001
0000
0000
1001
0000
0000
0010
0000
0000
0002
1000
0003
,
0100
0000
0000
1010
0000
0000
0001
0000
0000
1010
0000
1000
,
0010
0000
0001
0200
0000
0000
0310
0000
0000
0110
0000
0000
,
1000
0000
1000
0001
0000
0001
0100
0000
0100
0010
0000
0010
,
1000
0000
0000
1100
0000
0000
0011
0000
0000
0002
1000
0003
,
0010
0000
0000
1010
0000
0000
0100
0000
0000
0101
0000
0001
,
1000
0000
0010
0200
0000
0000
0310
0000
0000
1001
0000
0000
,
1000
0000
1000
0010
0000
0010
0001
0000
0001
0100
0000
0100
,
0010
0000
0000
0110
0000
0000
1001
0000
0000
2000
0001
3000
,
0020
0000
0000
0000
,
0230
0000
0000
0000
,
0302
0000
0000
0000
,
2003
0000
0000
0000
0000
0000
0000
0000
0000
0000
0000
0000
0001
0000
0000
3000
0000
0000
0002
0000
1000
0000
0000
0000
,
0000
0010
0000
0010
0000
0010
0000
1000
0000
1000
0000
2000
,
0003
0010
0000
0010
0000
0010
0000
0001
0000
0001
0000
0001
,
0000
0100
0000
0100
0000
0100
0000
0001
0000
0001
0000
3001
,
0000
0010
0000
0001
0000
1000
0000
0010
0000
1000
0000
0001
,
0000
1000
0100
1000
0100
1000
0000
0001
0100
0001
0100
0001
,
0000
1000
0100
1000
0100
1000
0000
0001
0100
0001
0100
0001
,
0000
1000
0010
1000
0010
1000
0000
0001
0010
0001
0010
0001
,
0000
1000
0010
1000
0010
1000
0000
0001
0010
0001
0010
0001
,
2000
3000
2002
3003
,
0020
0030
0220
0330
,
0000
0001
0100
0010
0100
0001
0000
1000
0100
0010
0100
1000
,
0000
0001
1000
0100
1000
0001
0000
1000
0001
0100
0001
1000
,
0001
0000
0001
0010
0000
0010
1000
0000
1000
0010
0000
0010
,
0001
0000
0001
1000
0010
0100
0001
0000
0000
1001
0000
1000
,
0010
0000
0010
1000
0000
1000
0001
0000
0100
0010
0000
0000
,
1000
0000
0000
1100
0000
0000
0011
0000
0000
0002
0100
0003
,
0010
0000
0010
1000
0000
1000
0001
0000
0010
0100
0000
0100
,
0010
0000
0010
0001
0100
0010
1000
0000
0000
1001
0000
0001
,
0010
0000
0010
1000
0000
1000
0001
0000
1000
0001
0000
0000
,
0100
0000
0000
0000
0000
0000
0101
0000
1000
0100
0000
1000
,
0100
0000
0001
0100
0000
0001
0100
0000
1000
0001
0000
1000
,
0100
0000
1000
0001
0000
1000
0010
0000
0100
0001
0000
0001
,
0010
0100
1000
0010
0000
0000
0010
0000
0000
0101
0000
0000
,
1010
0000
0000
0002
1000
0003
0010
0000
1000
0001
0000
1000
,
0100
0000
1000
0001
0000
1000
0010
0000
0001
0100
0000
0001
,
1000
0000
0001
0100
0000
0001
0010
0000
1000
0100
0000
0001
,
0010
0001
0100
1000
0000
0000
0001
0000
0000
0011
0000
0000
,
1100
0000
0000
0020
0100
0030
0001
0000
0001
1000
0000
1000
,
0100
0000
0010
0100
0000
0010
0001
0000
1000
0010
0000
1000
,
0010
0000
0001
0010
0000
0001
0010
0000
1000
0010
0000
0100
,
0010
0000
0001
0010
0000
0100
0010
0000
1000
0001
0000
1000
,
0100
0000
1000
0001
0000
1000
0010
0000
0100
0001
0000
0001
,
0010
0000
0100
1000
0000
1000
0010
0000
0100
0001
0000
1000
,
0010
0000
0100
0001
0000
0001
0010
0000
1000
0100
0000
0001
,
0010
0000
0100
1000
0000
0001
0020
0000
0000
0000
0000
0000
,
0000
0000
0000
0130
0000
0000
0000
0000
0000
1001
0000
1000
,
0010
0000
0000
1100
0000
1000
0010
0000
0000
1001
0000
0001
,
0010
0000
0000
0101
0000
0001
0010
0000
0000
0011
0000
1000
,
0010
0000
0000
0011
0000
1000
0100
0000
0000
1010
0000
0001
,
1000
0000
0000
1010
0000
0000
0000
1000
0100
1000
0001
0010
,
0000
0001
0100
0001
1000
0010
0000
0100
0001
1000
0010
0100
,
0000
0001
0010
0100
1000
0001
0000
0100
0001
1000
0001
0100
,
0000
0010
1000
0001
1000
0010
0000
0100
0001
0010
0100
1000
,
0000
0010
0100
0001
1000
0010
0000
0000
0000
0000
0000
0000
;

//---------------dance-single - ----------------
#NOTES:
     dance-single:
     :
     Medium:
     7:
     0.360477,0.423078,0.153151,0.204201,0.299008,346.000000,325.000000,21.000000,28.000000,0.000000,0.000000,0.360477,0.423078,0.153151,0.204201,0.299008,346.000000,325.000000,21.000000,28.000000,0.000000,0.000000:
0000
0000
0000
0000
,
1000
0000
0000
0001
0000
0000
1000
0000
0000
0001
0000
1000
,
0100
0000
0000
1000
0000
0000
0100
0000
0000
1000
0000
0001
,
0100
0000
0000
0001
0000
0000
0100
0000
0000
0001
0000
1000
,
0010
1000
0010
1000
,
0002
0000
0010
0100
,
1003
0001
0100
0010
,
1000
0000
1000
0100
0000
0100
1000
0000
1000
0100
0000
0000
,
2200
3300
1001
1001
,
2000
0000
0010
0100
,
3001
1000
0010
0100
,
0001
0000
0001
0010
0000
0010
0001
0000
0001
0010
0000
0000
,
0022
0033
1001
1001
,
0020
0100
1000
0100
,
1030
0001
1000
0001
,
1002
0013
2001
3010
,
0210
0001
0010
0310
,
0200
0010
0001
0010
,
0301
0100
1000
0010
,
2010
3001
0012
1003
,
2001
0100
0010
3100
,
0002
0000
0000
0000
,
2003
0000
0000
0000
,
3020
0000
0000
0000
,
0230
0000
0000
0000
,
0301
0001
1000
1000
,
0001
0001
1000
1000
,
0010
0010
0100
0100
,
0001
0001
1000
1000
,
0100
0000
0000
0001
0000
0000
0010
0000
0100
1000
0000
0000
,
0001
0000
0000
0100
0000
0000
0010
0000
1000
0001
0000
0000
,
1000
0000
0000
0100
0000
0000
0010
0000
0001
0100
0000
0000
,
0010
0000
0000
1000
0000
0000
0001
0000
1000
0010
0000
0000
,
0200
0300
0202
0303
,
2002
3003
0202
0303
,
0020
0100
0100
0100
,
0200
0000
0000
0330
,
1001
0000
0000
0010
0000
0001
1000
0000
0000
0100
0000
0000
,
1000
0000
0010
0100
0000
0001
0010
0000
0000
0100
0000
0000
,
1000
0000
0001
0100
0000
0001
1000
0000
0010
0100
0000
0000
,
0001
0010
1100
0101
,
0100
0000
0010
1000
0000
0010
0100
0000
0000
0001
0000
0000
,
0010
0000
0100
1000
0000
0100
0010
0000
0000
0001
0000
0000
,
1000
0000
0010
0100
0000
0001
1000
0000
0000
0010
0000
0000
,
0110
0000
0000
0000
0000
0000
1001
0000
0000
0010
0000
1000
,
0010
0000
1000
0010
0000
1000
0100
0000
1000
0100
0000
1000
,
0001
0000
0000
0010
0000
0000
0001
0000
0100
0001
0000
0100
,
0001
0000
1000
0001
0000
0000
0010
0000
0000
0100
0000
0000
,
1000
0000
0000
0001
0000
0000
0100
0000
0010
0100
0000
0010
,
0100
0000
0010
0100
0000
0010
1000
0000
0001
1000
0000
0001
,
1000
0000
0001
1000
0000
0001
0010
0000
0100
0010
0000
0100
,
0010
0000
0100
0010
0000
0000
0001
0000
0000
0100
0000
0000
,
0010
0000
0000
1000
0000
0000
0001
0000
1000
0100
0000
1000
,
0001
0000
1000
0100
0000
1000
0001
0000
0010
0001
0000
1000
,
0001
0000
0010
0001
0000
1000
0001
0000
0100
0001
0000
1000
,
0001
0000
0100
0001
0000
1000
0010
0000
1000
0001
0000
1000
,
0010
0000
1000
0001
0000
1000
0100
0000
0010
0001
0000
1000
,
0100
0000
0010
0001
0000
1000
0010
0000
0100
0001
0000
1000
,
0010
0000
0100
0001
0000
0010
0100
0000
1000
0001
0000
0010
,
0100
0000
1000
0001
0000
0010
0200
0000
0000
0000
0000
0000
,
0000
1300
0000
1100
,
0001
0000
0000
1000
0000
0010
0100
0000
0000
0001
0000
0000
,
0010
0000
0000
0100
0000
1000
0001
0000
0000
0100
0000
0000
,
0010
0000
0000
0100
0000
0001
0010
0000
0000
0100
0000
0000
,
0010
0000
0000
0001
0000
0000
1000
0000
0000
0010
0000
1000
,
0100
0000
0000
0010
0000
0001
0100
0000
0000
0001
0000
1000
,
0100
0000
0000
0010
0000
0001
0100
0000
0000
0010
0000
1000
,
0100
0000
0000
0010
0000
0001
1000
0000
0000
0010
0000
0100
,
0001
1000
0000
0000
;

//---------------dance-single - ----------------
#NOTES:
     dance-single:
     :
     Easy:
     4:
     0.229205,0.298644,0.123979,0.277130,0.000000,220.000000,203.000000,17.000000,38.000000,0.000000,0.000000,0.229205,0.298644,0.123979,0.277130,0.000000,220.000000,203.000000,17.000000,38.000000,0.000000,0.000000:
0000
0000
0000
0000
,
1000
0000
0001
0100
,
0010
0000
0100
0001
,
1000
0000
0100
0010
,
0100
0000
1000
1000
,
0002
0000
0000
1003
,
0010
0200
0000
0310
,
1000
0100
0010
0001
,
2000
0000
0001
3001
,
0200
0000
0000
0310
,
1000
0002
0000
0013
,
0100
0010
0001
1000
,
0200
0000
0010
0310
,
0002
0000
0000
1003
,
0010
0200
0000
0310
,
1000
0100
0001
0100
,
2000
0000
0001
3001
,
0200
0000
0000
0310
,
0100
0002
0000
1003
,
0010
0100
0001
0010
,
0200
0000
0010
0310
,
0002
0000
0003
0000
,
2000
0000
3000
0000
,
0020
0000
0030
0000
,
0200
0000
0300
0000
,
0002
0003
0002
0003
,
2000
3000
2000
3000
,
0200
0300
0200
0300
,
0020
0030
0020
0030
,
0002
0003
0020
0030
,
2000
3000
0200
0300
,
0020
0030
0002
0003
,
2000
3000
0020
0030
,
0200
0300
0200
0300
,
0200
0300
0200
0300
,
0200
0000
0000
0000
,
0300
0000
0000
0000
,
0010
1001
0100
0100
,
0010
1001
0100
0000
,
0001
1000
0001
1000
,
0100
0000
0010
0010
,
0100
1001
0010
0100
,
0010
1001
0100
0000
,
0001
0010
0100
1000
,
0001
0000
0100
1001
,
0100
0010
1000
1001
,
0010
0100
0001
0010
,
0100
1000
0001
0000
,
1000
0001
1000
1001
,
0010
0001
0010
1001
,
0010
1000
0010
1001
,
0100
0010
0100
0100
,
0001
1000
0100
1001
,
0100
1000
0100
1001
,
0100
0001
0100
1001
,
0100
1000
0100
1001
,
0010
0001
0100
1001
,
0010
1000
0100
1001
,
0010
0001
1000
1001
,
0010
0100
0020
0000
,
0000
0130
0000
1001
,
1000
0010
0001
0010
,
1000
0010
0001
0100
,
0010
1000
0100
0010
,
0001
1000
0001
0010
,
0100
1000
0001
0010
,
0100
1000
0001
1000
,
0001
1000
0010
0100
,
0001
1000
0000
0000
;

//---------------dance-single - ----------------
#NOTES:
     dance-single:
     :
     Beginner:
     2:
     0.144816,0.199096,0.072929,0.000000,0.000000,139.000000,129.000000,10.000000,0.000000,0.000000,0.000000,0.144816,0.199096,0.072929,0.000000,0.000000,139.000000,129.000000,10.000000,0.000000,0.000000,0.000000:
// measure 0
0000
0000
0000
0000
,  // measure 1
1000
0000
1000
0000
,  // measure 2
0001
0000
0001
0000
,  // measure 3
0010
0000
0010
0000
,  // measure 4
0100
0000
0100
0000
,  // measure 5
1000
0000
1000
0000
,  // measure 6
0001
0000
0001
0000
,  // measure 7
0100
0000
0100
0000
,  // measure 8
0010
0000
0000
0000
,  // measure 9
1000
0000
1000
0000
,  // measure 10
0001
0000
0001
0000
,  // measure 11
0010
0000
0100
0000
,  // measure 12
0010
0000
0010
0000
,  // measure 13
0100
0000
0000
0000
,  // measure 14
1000
0000
1000
0000
,  // measure 15
0001
0000
0001
0000
,  // measure 16
0100
0000
0100
0000
,  // measure 17
0010
0000
0000
0000
,  // measure 18
1000
0000
1000
0000
,  // measure 19
0100
0000
0100
0000
,  // measure 20
0010
0000
0001
0000
,  // measure 21
0010
0000
0000
0000
,  // measure 22
0100
0000
0000
0000
,  // measure 23
1000
0000
0000
0000
,  // measure 24
0000
0000
0000
0000
,  // measure 25
0001
0000
0000
0000
,  // measure 26
0100
0000
0000
0000
,  // measure 27
1000
0000
0000
0000
,  // measure 28
0100
0000
0000
0000
,  // measure 29
0001
0000
0001
0000
,  // measure 30
1000
0000
1000
0000
,  // measure 31
0001
0000
0001
0000
,  // measure 32
0010
0000
0100
0000
,  // measure 33
0010
0000
0010
0000
,  // measure 34
0010
0000
0010
0000
,  // measure 35
0000
0000
0000
0000
,  // measure 36
0000
0000
0000
0000
,  // measure 37
1001
1001
0000
0000
,  // measure 38
0010
0000
1000
0000
,  // measure 39
0010
0000
0010
0000
,  // measure 40
0001
0000
0000
0000
,  // measure 41
0010
0010
0000
0000
,  // measure 42
0100
0100
0000
0000
,  // measure 43
0001
0000
1000
0000
,  // measure 44
0100
0000
0001
0000
,  // measure 45
1000
0000
0001
0000
,  // measure 46
1000
0000
0010
0000
,  // measure 47
0001
0000
0010
0000
,  // measure 48
1000
0000
0100
0100
,  // measure 49
0100
0000
0010
0010
,  // measure 50
0010
0000
0001
0001
,  // measure 51
0001
0000
1000
1000
,  // measure 52
1000
0000
0010
0010
,  // measure 53
0010
0010
0010
0000
,  // measure 54
0100
0000
0001
0001
,  // measure 55
0001
0001
0001
0000
,  // measure 56
1000
0000
0100
0100
,  // measure 57
0100
0100
0100
0000
,  // measure 58
0010
0000
0001
0001
,  // measure 59
0001
0001
0001
0000
,  // measure 60
0000
0000
0000
1000
,  // measure 61
0000
1001
0000
0010
,  // measure 62
0000
1001
0000
0001
,  // measure 63
0000
1001
0000
0100
,  // measure 64
0000
1001
0000
1000
,  // measure 65
0000
1001
0000
0010
,  // measure 66
0000
1001
0000
0001
,  // measure 67
0000
1001
0000
0100
,  // measure 68
0000
1001
0000
0000
;
