#TITLE:KAKUMEI (革命);
#SUBTITLE:;
#ARTIST:dj TAKA with NAOKI;
#TITLETRANSLIT:;
#SUBTITLETRANSLIT: ;
#ARTISTTRANSLIT:;
#GENRE:DDRMAX 2;
#CREDIT:;
#BANNER:KAKUMEI-bn.jpg;
#BACKGROUND:KAKUMEI-bg.jpg;
#LYRICSPATH:;
#CDTITLE:;
#MUSIC:KAKUMEI.mp3;
#OFFSET:-0.054000;
#SAMPLESTART:16.840000;
#SAMPLELENGTH:15.000000;
#LASTBEATHINT:259.996796;
#SELECTABLE:YES;
#DISPLAYBPM:83.000000:148.000000;
#BPMS:0.000000=148.000000
,22.000000=142.000000
,29.000000=116.000000
,30.000000=108.000000
,31.000000=83.000000
,32.000000=101.000000
,34.000000=142.000000
,36.000000=148.000000
;
#STOPS:
;
#BGCHANGES:;
#KEYSOUNDS:;
#ATTACKS:;

//---------------dance-single - ----------------
#NOTES:
     dance-single:
     :
     Beginner:
     1:
     0.114551,0.202515,0.045560,0.000000,0.000000,88.000000,83.000000,5.000000,0.000000,0.000000,0.000000,0.114551,0.202515,0.045560,0.000000,0.000000,88.000000,83.000000,5.000000,0.000000,0.000000,0.000000:
0000
0000
0000
0000
,
0000
0000
0000
0000
,
0000
0000
0000
0000
,
0000
0000
0000
0000
,
1001
0000
0000
0000
,
0000
0000
0000
0000
,
0000
0000
0000
0000
,
0000
0000
0000
0000
,
0100
0000
0000
0000
,
0000
0000
0000
0010
,
0000
0000
0000
0100
,
0000
0000
0100
0000
,
0010
0000
0000
1000
,
0000
0000
0000
0000
,
0010
0000
1000
0000
,
0100
0000
0001
0000
,
0100
0000
0000
0000
,
0001
0000
0000
0100
,
0000
0000
0000
1000
,
0000
0000
0100
0000
,
0010
0000
0000
0100
,
0000
0000
0000
0000
,
1000
0000
0010
0000
,
0100
0000
0001
0000
,
1001
0000
0100
0000
,
0110
0000
0000
0000
,
0010
0000
0000
0100
,
0000
0000
0000
0100
,
0000
0000
0000
0100
,
0000
0000
0000
0100
,
0000
0000
0000
0100
,
0000
1000
0000
0100
,
0000
0001
0000
0000
,
1001
0000
0000
0000
,
0010
0000
0001
0000
,
0001
0000
0100
0000
,
0010
0000
1000
0000
,
1000
0000
0000
0100
,
0000
0000
0001
0000
,
0001
0000
0001
0000
,
1000
0000
1000
0000
,
1000
0000
1000
0000
,
0010
0000
0010
0000
,
0010
0000
0010
0000
,
0001
0000
0010
0000
,
0000
0000
0000
0100
,
0000
0000
0000
1000
,
0000
0000
1000
0000
,
0010
0000
0000
0001
,
0000
0000
0000
0000
,
0010
0000
0000
1000
,
0000
0001
0000
0010
,
0000
0000
1000
0000
,
0001
0000
0000
0100
,
0000
0000
0000
1000
,
0000
0000
1000
0000
,
0010
0000
0000
0001
,
0000
0000
0010
0000
,
0100
0000
0100
0000
,
0000
0000
0000
0000
,
0010
0000
1000
0000
,
0100
0000
0001
0000
,
0100
0000
0010
0000
,
0100
0000
1001
0000
;

//---------------dance-single - ----------------
#NOTES:
     dance-single:
     :
     Easy:
     4:
     0.173129,0.263452,0.045560,0.309809,0.000000,133.000000,128.000000,5.000000,34.000000,0.000000,0.000000,0.173129,0.263452,0.045560,0.309809,0.000000,133.000000,128.000000,5.000000,34.000000,0.000000,0.000000:
0000
0000
0000
0000
,
0000
0000
0000
0000
,
0000
0000
0000
0000
,
0000
0000
0000
0000
,
1001
0000
0000
0000
,
0000
0000
0000
0000
,
0000
0000
0000
0000
,
0000
0000
0000
0000
,
0100
0000
0000
0000
,
0000
0000
0000
0010
,
0002
0000
0003
0100
,
2000
3000
0100
0001
,
0020
0000
0030
1000
,
0002
0000
0000
0003
,
0010
0000
1000
0000
,
0100
0000
0001
0000
,
0200
0000
0000
0300
,
0001
1000
0000
0100
,
0020
0000
0030
1000
,
0002
0003
0100
1000
,
0020
0000
0030
0100
,
0002
0000
0000
0003
,
1000
0000
0010
0000
,
0100
0000
0001
0000
,
1001
0000
0100
0010
,
0220
0000
0000
0330
,
0020
0000
0030
0100
,
0002
0000
0003
0100
,
0020
0000
0030
0100
,
2000
0000
3000
0100
,
0002
0000
0003
0100
,
0010
1000
0000
0100
,
0010
0002
0000
0003
,
1001
0000
0000
0000
,
0020
0030
0001
1000
,
0002
0003
0200
0300
,
0020
0030
1000
0001
,
2000
0000
3000
0100
,
0001
0000
0001
0000
,
0001
0000
0001
0100
,
1000
0000
1000
0000
,
1000
0000
1000
0100
,
0010
0000
0010
0000
,
0010
0000
0010
0100
,
0001
0100
0010
1000
,
0000
0000
0000
0100
,
0020
0000
0030
1000
,
0002
0003
1000
0100
,
0020
0000
0030
0001
,
2000
0000
0000
3000
,
0010
0100
0000
1000
,
0100
0001
0000
0010
,
1000
0000
1000
0000
,
0001
0100
0000
0100
,
0020
0000
0030
1000
,
0002
0003
1000
0100
,
0020
0000
0030
0001
,
1000
0000
0010
0000
,
0100
0000
0100
0001
,
0000
1000
0000
0001
0000
1000
0000
0001
,
0020
0030
1000
1000
,
0200
0300
0001
0001
,
0200
0300
0010
0010
,
0100
0000
0000
1000
2002
0000
0000
0000
,
0000
3003
0000
0000
;

//---------------dance-single - ----------------
#NOTES:
     dance-single:
     :
     Medium:
     6:
     0.313714,0.380541,0.036448,0.145793,0.000000,241.000000,237.000000,4.000000,16.000000,0.000000,0.000000,0.313714,0.380541,0.036448,0.145793,0.000000,241.000000,237.000000,4.000000,16.000000,0.000000,0.000000:
0000
0000
0000
0000
,
0000
0000
0000
0000
,
0000
0000
0000
0000
,
0000
0000
0000
0000
,
1001
0000
0000
0000
,
0000
0000
0000
0000
,
0000
0000
0000
0000
,
0000
0000
0000
0000
,
0100
0000
0000
0000
,
0000
0000
0000
1000
,
0001
0000
1000
0000
0010
0000
0100
0001
,
0100
0000
0001
0000
0100
0000
1000
0010
,
1000
0000
0001
0000
0100
0000
0001
0100
,
0001
0000
1000
0000
0000
0100
0000
0010
,
0001
0000
1000
0000
0100
0000
0100
0010
,
0100
0000
0001
0000
1000
0000
0100
1000
,
0100
0010
0000
1000
0000
0001
0000
0100
,
0010
1000
0000
0100
,
0010
0000
1000
0000
0100
0000
0001
1000
,
0001
0000
0010
0000
0100
0000
1000
0001
,
1000
0000
0001
0000
0010
0000
0100
0010
,
1000
0000
0001
0000
0000
0100
0000
1000
,
0010
0000
0000
1000
0001
0000
1000
0000
,
0000
0100
0000
0001
0000
0010
0001
0100
,
1000
0000
0010
0000
0010
0000
0001
1000
,
0100
0100
1000
1001
,
0020
0000
0000
0000
0030
0000
0100
1000
,
0020
0000
0000
0000
0030
0000
0001
1000
,
0020
0000
0000
0000
0030
0000
0100
0001
,
0020
0000
0000
0000
0030
0000
1000
0001
,
0020
0000
0000
0000
0030
0000
0001
0100
,
0010
0000
2000
0000
3000
0000
1000
0100
,
0010
0000
0002
0000
0000
0000
0003
0100
,
1000
0001
0000
0010
0000
1000
0000
0100
,
0020
0030
1000
0001
,
2000
0000
3000
0000
0100
0000
0100
0001
,
0020
0030
0001
1000
,
0002
0003
0100
0100
,
0020
0100
0000
1000
0000
0100
0000
1000
,
0000
0100
0000
1000
0030
0000
0100
0001
,
0020
0100
0000
0001
0000
0100
0000
0001
,
0000
0100
0000
0001
0030
0000
1000
0001
,
0020
0001
0000
1000
0000
0001
0000
1000
,
0000
0001
0000
1000
0030
0001
0000
0000
,
0010
0000
0001
0000
1000
0100
0010
0001
,
0000
0000
0000
1000
,
0001
0010
0001
0000
0100
0000
0100
0000
,
0001
0001
1000
1000
,
1000
0010
1000
0000
0100
0000
0100
0000
,
1000
0000
1000
0000
0001
0100
0000
0001
,
0010
0100
0010
0000
1000
0000
0001
0100
,
0010
0100
0010
0000
0001
0000
1000
0000
,
0100
0001
0000
0010
0000
0100
0000
1000
,
0010
0000
1000
0000
0001
0000
0100
0010
,
0001
0010
0001
0000
0100
0000
0100
0000
,
0001
0001
1000
1000
,
1000
0010
1000
0000
0100
0000
0100
0000
,
0001
0010
0000
1000
0000
0010
0000
0100
,
0010
1000
0000
0100
0001
0000
0010
0000
,
0000
1000
0000
0001
0000
0010
0001
0100
,
0010
0000
1000
0100
1000
0000
0001
0000
,
0010
0000
0001
0100
0001
0000
1000
0000
,
0010
0000
1000
0001
1000
0000
0100
0000
,
1001
0000
0000
0100
0220
0000
0000
0000
,
0000
0330
0000
0000
;

//---------------dance-single - ----------------
#NOTES:
     dance-single:
     :
     Hard:
     9:
     0.490748,0.526903,0.054672,0.063784,0.341701,377.000000,371.000000,6.000000,7.000000,0.000000,0.000000,0.490748,0.526903,0.054672,0.063784,0.341701,377.000000,371.000000,6.000000,7.000000,0.000000,0.000000:
// measure 0
0000
0000
0000
0000
,  // measure 1
0000
0000
0000
0000
,  // measure 2
0000
0000
0000
0000
,  // measure 3
0000
0000
0000
0000
,  // measure 4
1001
0000
0100
0000
,  // measure 5
0010
0000
1000
0000
,  // measure 6
0001
0000
0100
0000
,  // measure 7
0010
1000
0100
0010
,  // measure 8
0001
0000
1000
0000
,  // measure 9
0100
0000
0000
0000
0001
0000
0000
0000
0010
0000
0000
0100
1000
0000
0000
1000
,  // measure 10
0010
0000
0000
0000
0001
0000
0000
0000
1001
0000
0000
0010
1000
0000
0000
0100
,  // measure 11
1000
0000
0000
0000
0001
0000
0000
0000
0100
0000
0000
0001
0010
0000
0000
0010
,  // measure 12
0001
0000
0000
0000
1000
0000
0000
0000
1001
0000
0000
0100
0001
0000
0000
0010
,  // measure 13
0001
0000
0000
0000
1000
0000
0000
0000
0100
0000
0000
0001
1000
0000
0100
0000
,  // measure 14
0010
0000
0000
1000
0001
0000
0000
0000
0110
0000
0000
0100
0001
0000
0000
0010
,  // measure 15
0100
0000
1000
0000
0001
0000
0000
0000
0110
0000
0000
0001
0010
0000
0000
1000
,  // measure 16
0100
0000
0010
0000
0000
0000
1000
0000
0000
0000
0001
0000
0000
0000
1000
0100
,  // measure 17
1000
0000
0000
0000
0001
0000
0000
0000
0100
0000
0000
0001
1000
0000
0000
0100
,  // measure 18
0010
0000
0000
0000
0001
0000
0000
0000
0101
0000
0000
1000
0010
0000
0000
0001
,  // measure 19
0100
0000
0000
0000
0010
0000
0000
0000
0001
0000
0000
0100
0010
0000
0000
1000
,  // measure 20
0001
0000
0000
0000
0100
0000
0000
0001
1000
0000
0000
1000
0100
0000
0000
0001
,  // measure 21
1000
0000
0000
0000
0100
0000
0000
0010
0001
0000
0000
0100
0010
0000
1000
0000
,  // measure 22
0001
0000
0000
0000
0000
0000
1000
0100
1000
0000
0000
0000
0001
0000
0000
0000
,  // measure 23
0000
1000
0000
0001
0000
0010
0100
0010
,  // measure 24
0001
0000
0000
0000
0100
0000
0000
0001
0010
0000
0000
0000
0100
0000
0000
1000
,  // measure 25
0001
0100
1000
0100
0001
0010
1000
0010
,  // measure 26
0002
0000
0000
0000
0000
0000
0000
0000
1003
0000
0000
0000
0100
0000
0000
0001
,  // measure 27
0020
0000
0000
0000
0000
0000
0000
0000
0031
0000
0000
0000
0100
0000
0000
0001
,  // measure 28
0020
0000
0000
0000
0000
0000
0000
0000
1030
0000
0000
0000
0001
0000
0000
0100
,  // measure 29
2000
0000
0000
0000
0000
0000
0000
0000
3001
0000
0000
0000
0100
0000
0000
0001
,  // measure 30
0010
0000
0000
0000
1000
0000
0000
0000
0100
0000
0000
0000
0010
0000
0000
1000
,  // measure 31
0100
0000
0000
0000
0001
0000
0000
0000
0100
0000
0000
0000
0001
0000
0000
0100
,  // measure 32
0010
2000
0010
0001
,  // measure 33
0100
0000
3001
0000
0000
0100
0010
0100
,  // measure 34
0001
0000
0000
0000
0100
0000
0010
1000
0010
0000
0000
0000
1000
0000
0000
0000
,  // measure 35
0100
0000
0001
0100
0001
0000
1000
0000
,  // measure 36
1000
0000
0000
0000
0100
0000
0010
0001
0010
0000
0000
0000
0001
0000
0000
0000
,  // measure 37
0100
0000
0000
0000
1000
0000
0100
0000
1000
0000
0000
0000
0001
0000
0000
0100
,  // measure 38
0010
1000
0100
0010
0001
0100
0010
1000
,  // measure 39
0100
0000
0010
0000
0001
0000
1000
0000
0010
0000
0100
0000
0001
0000
0000
0100
,  // measure 40
0010
1000
0001
0010
0100
1000
0010
0100
,  // measure 41
0001
0000
1000
0000
0100
0000
0010
0000
0001
0000
1000
0000
0100
0000
0000
0010
,  // measure 42
0100
1000
0010
0100
0001
1000
0100
0010
,  // measure 43
0001
0100
0010
1000
0001
0010
0100
1000
,  // measure 44
0010
0000
0100
0000
0001
0000
1000
0000
0100
0000
0010
0000
0001
0100
0001
0000
,  // measure 45
0000
0000
0000
0000
0000
0000
0000
0000
0000
0000
0000
0100
0010
0000
0000
1000
,  // measure 46
0001
0000
0100
0000
0010
0000
1000
0000
0100
0000
0000
0001
1000
0000
0000
0100
,  // measure 47
0010
0000
1000
0000
0100
0000
0010
0000
0001
0000
0000
1000
0010
0000
0000
0100
,  // measure 48
0001
0000
1000
0000
0010
0000
0100
0000
0001
0000
0000
0010
0001
0000
0000
0100
,  // measure 49
1000
0000
0010
0000
0001
0000
0010
0000
1000
0100
0000
0100
0010
0000
0000
0001
,  // measure 50
0100
0000
0000
0010
1000
0000
0100
0000
0100
0000
0000
0010
0001
0000
0100
0000
,  // measure 51
0010
0000
1000
0000
0100
0000
0000
0000
0010
0000
0000
0001
1000
0000
0000
0100
,  // measure 52
0010
0000
0001
0000
0100
0000
0010
0000
1000
0000
0001
0000
0100
0000
0000
0010
,  // measure 53
0001
0000
0000
0000
0100
0000
0000
0000
0000
0000
0000
1000
0010
0000
0000
0001
,  // measure 54
0010
0000
0100
0000
0100
0000
0000
0000
0001
0000
0000
0100
1000
0000
0000
0100
,  // measure 55
0001
0000
0010
0000
0100
0000
0000
0100
0010
0000
0000
1000
0100
0000
0000
0001
,  // measure 56
0100
0000
0100
0000
0010
0000
0000
1000
0001
0000
0000
0010
1000
0000
0000
0100
,  // measure 57
0001
0000
1000
0000
0001
0000
0000
0100
0010
0000
1000
0000
0001
0000
0000
0000
,  // measure 58
0100
0000
0010
1000
0010
0001
0010
1000
,  // measure 59
0000
0100
0000
0010
0001
0100
0010
1000
,  // measure 60
0100
0000
0010
0001
0010
0000
0100
0000
1000
0000
0000
0000
1000
0000
0000
0001
,  // measure 61
0100
0000
0010
1000
0010
0000
0100
0000
0001
0000
0000
0000
0001
0000
0000
0100
,  // measure 62
0010
0000
1000
0001
1000
0000
0100
0000
0010
0000
0000
0000
0010
0000
0001
0100
,  // measure 63
0001
0000
1000
0000
1000
0010
0200
0000
0020
0000
0000
0000
0000
0000
0000
0000
,  // measure 64
0000
0330
0000
0000
;

//---------------dance-double - ----------------
#NOTES:
     dance-double:
     :
     Easy:
     3:
     0.145793,0.204907,0.027336,0.300697,0.000000,112.000000,109.000000,3.000000,33.000000,0.000000,0.000000,0.145793,0.204907,0.027336,0.300697,0.000000,112.000000,109.000000,3.000000,33.000000,0.000000,0.000000:
00000000
00000000
00000000
00000000
,
00000000
00000000
00000000
00000000
,
00000000
00000000
00000000
00000000
,
00000000
00000000
00000000
00000000
,
10100000
00000000
00000000
00000000
,
00000000
00000000
00000000
00000000
,
00000000
00000000
00000000
00000000
,
00000000
00000000
00000000
00000000
,
00000001
00000000
00000000
00000000
,
00000000
00000000
00000000
00100000
,
00020000
00030000
00001000
00010000
,
00002000
00003000
00000000
00000100
,
00000002
00000003
00000000
00000001
,
00000010
00000000
00000000
00000000
,
00001000
00000000
00000000
00010000
,
01000000
00000000
00000000
01000000
,
20000000
30000000
00000000
00000000
,
00100000
00010000
00000000
00001000
,
00000010
00000000
00000000
00000001
,
00000200
00000300
00001000
00000100
,
00002000
00003000
00000000
00010000
,
00200000
00300000
00000000
00000000
,
10000000
00000000
01000000
00000000
,
00010000
00000000
00001000
00000010
,
00000002
00000003
00000100
00000000
,
00022000
00033000
00000000
00000000
,
00100000
00000000
00000000
00000000
,
00001000
00000000
00000000
00000000
,
00000010
00000000
00000000
00000000
,
00010000
00000000
00000000
00000000
,
00001000
00000000
00000010
00000000
,
00000001
00000000
00000100
00000000
,
00010000
00000000
00100000
00000000
,
10000000
00000000
01000000
00000000
,
20000000
30000000
01000000
00010000
,
00002000
00003000
00020000
00030000
,
00002000
00003000
00000010
00000001
,
00000200
00000300
00000000
00000100
,
00002000
00000000
00003000
00000000
,
00001000
00000000
00000000
00001000
,
00020000
00000000
00030000
00000000
,
00010000
00000000
00000000
00010000
,
00200000
00000000
00300000
00000000
,
00100000
00000000
00000000
00000000
,
00100000
10000000
00010000
01000000
,
00000000
00000000
00000000
00010000
,
00002000
00003000
00000000
00001000
,
00000010
00000000
00000001
00000100
,
00002000
00003000
00000000
00001000
,
00020000
00030000
00000000
00000000
,
00100000
20000000
30000000
10000000
,
01000000
00020000
00030000
00001000
,
00000200
00000300
00000000
00000000
,
00000001
00000000
00000000
00001000
,
00000002
00000003
00000000
00000100
,
00002000
00003000
00010000
01000000
,
20000000
30000000
00000000
01000000
,
00020000
00030000
00000000
00000000
,
00001000
00000000
00000010
00000000
,
00000001
00000000
00000100
00001000
,
00020000
00030000
01000000
00000000
,
00020000
00030000
00001000
00000000
,
00000200
00000300
00001000
00010000
,
00100000
00000000
20020000
00000000
,
00000000
30030000
00000000
00000000
;

//---------------dance-double - ----------------
#NOTES:
     dance-double:
     :
     Medium:
     5:
     0.253835,0.351269,0.018224,0.227801,0.063784,195.000000,193.000000,2.000000,25.000000,0.000000,0.000000,0.253835,0.351269,0.018224,0.227801,0.063784,195.000000,193.000000,2.000000,25.000000,0.000000,0.000000:
00000000
00000000
00000000
00000000
,
00000000
00000000
00000000
00000000
,
00000000
00000000
00000000
00000000
,
00000000
00000000
00000000
00000000
,
10010000
00000000
00000000
00000000
,
00000000
00000000
00000000
00000000
,
00000000
00000000
00000000
00000000
,
00000000
00000000
00000000
00000000
,
00000000
00000000
00000000
00000000
,
00000000
00000000
00000000
00000000
00000000
00000000
00000000
00000000
00000000
00000000
00000000
00001000
00000001
00000000
00000000
00000000
,
00000002
00000000
00000003
00000100
,
00002000
00003000
00010000
00100000
,
20000000
30000000
01000000
00010000
,
00001000
00000000
00010000
00000000
01000000
00000000
00010000
00001000
,
00010000
00002000
00003000
00000010
,
00000001
00000100
00001000
00010000
,
00100000
10000000
01000000
00010000
,
01000000
00000000
00000000
00000000
10000000
00000000
00000000
00000000
00000000
00000000
00000000
00010000
10000000
00000000
00000000
00000000
,
20000000
00000000
30000000
01000000
,
00020000
00030000
00001000
00010000
,
00002000
00000000
00003000
00000010
,
00000002
00000000
00000003
00000000
00000100
00000000
00001000
00010000
,
00001000
00000000
00000000
00010000
00100000
00000000
10000000
00000000
,
00000000
01000000
00000000
00010000
00000000
00001000
00010000
00001000
,
00000010
00000000
00000000
00000000
00000000
00000000
00000000
00000001
00000100
00000000
00000000
00000000
00000001
00000000
00000000
00000000
,
00002002
00000000
00000000
00003003
,
00000002
00000000
00000000
00000000
00000000
00000000
00000000
00000000
00000003
00000000
00000000
00000000
00000100
00000000
00000000
00000100
,
00002000
00000000
00000000
00003000
,
00020000
00000000
00000000
00000000
00000000
00000000
00000000
00000000
00030000
00000000
00000000
00000000
00100000
00000000
00000000
00100000
,
20000000
00000000
00000000
30000000
,
02000000
00000000
00000000
03000000
,
00010000
00000000
00000000
00010000
00001000
00000000
00000000
00000000
00000100
00000000
00000000
00000000
00000000
00000000
00000000
00000000
,
00000001
00000000
00000000
00000001
00000010
00000000
00000000
00000000
00001000
00000000
00000000
00000000
00000000
00000000
00000000
00000000
,
00010000
00000000
00000000
00000000
00100000
10000000
01000000
10000000
,
02000000
03000000
00010000
00001000
,
00000010
00000000
00000002
00000003
,
00000200
00000300
00001000
00010000
,
00200000
00000000
00000000
00000000
00000000
00000000
00000000
00000000
00300000
00000000
00000000
00000000
10000000
00000000
00000000
10000000
,
02000000
00000000
10000000
03000000
,
00020000
00000000
00000000
00000000
00000000
00000000
00000000
00000000
00030000
00000000
00000000
00000000
00010000
00000000
00000000
00010000
,
00002000
00000000
00010000
00003000
,
00000010
00000000
00000000
00000000
00000000
00000000
00000000
00000000
00000000
00000000
00000000
00000000
00000001
00000000
00000000
00000001
,
00000200
00000000
00000001
00000300
,
00001000
00000000
00010000
01000000
,
00010000
00001000
00000100
00001000
,
00000000
00000000
00000000
00000000
00000000
00000000
00000000
00000000
00000000
00000000
00000000
00100000
10000000
00000000
00000000
00000000
,
01000000
00010000
00001000
00000010
,
00000001
00000000
00000000
00000000
00000100
00000000
00000000
00000000
00001000
00000000
00000000
00001000
00010000
00000000
00000000
00000000
,
00100000
10000000
01000000
00010000
,
00001000
00000000
00000100
00000000
00000001
00000000
00000010
00000100
,
00000001
00000000
00000100
00001000
00000100
00000000
00001000
00000000
,
00010000
00000000
00100000
10000000
00100000
00000000
10000000
00000000
,
01000000
00010000
00000000
00001000
00000100
00001000
00000000
00000100
,
00000001
00000000
00000000
00000000
00000100
00000000
00000000
00000000
00000000
00000000
00000000
00001000
00010000
00000000
00000000
00000000
,
00100000
10000000
01000000
00010000
,
00001000
00000000
00000000
00000000
00000100
00000000
00000000
00000000
00001000
00000000
00000000
00001000
00010000
00000000
00000000
00000000
,
01000000
10000000
01000000
00010000
,
00001000
00000000
00000100
00000000
00000010
00000000
00001000
00001000
,
00000001
00000000
00000000
00000100
00001000
00000000
00010000
00000000
,
00000000
00100000
00000000
10000000
00000000
00010000
10000000
01000000
,
00010000
00000000
00001000
00000100
00001000
00000000
00000001
00000000
,
00000010
00000000
00001000
00010000
00001000
00000000
00000100
00000000
,
00001000
00000000
00010000
00100000
00010000
00000000
10000000
00000000
,
01000000
00000000
00000000
00020000
00002000
00000000
00000000
00000000
,
00000000
00033000
00000000
00000000
;

//---------------dance-double - ----------------
#NOTES:
     dance-double:
     :
     Hard:
     9:
     0.475127,0.526903,0.000000,0.018224,0.364481,365.000000,365.000000,0.000000,2.000000,0.000000,0.000000,0.475127,0.526903,0.000000,0.018224,0.364481,365.000000,365.000000,0.000000,2.000000,0.000000,0.000000:
00000000
00000000
00000000
00000000
,
00000000
00000000
00000000
00000000
,
00000000
00000000
00000000
00000000
,
00000000
00000000
00000000
00000000
,
00001000
00000000
00010000
00000000
,
01000000
00000000
10000000
00000000
,
00100000
00000000
00010000
00000000
,
00001000
00000100
00000001
00000010
,
00001000
00000000
00010000
00000000
,
00100000
00000000
00000000
00000000
10000000
00000000
00000000
00000000
00010000
00000000
00000000
10000000
01000000
00000000
00000000
01000000
,
00010000
00000000
00000000
00000000
00001000
00000000
00000000
00000010
00000001
00000000
00000000
00000001
00000100
00000000
00000000
00000100
,
00001000
00000000
00000000
00000000
00010000
00000000
00000000
00100000
10000000
00000000
00000000
10000000
01000000
00000000
00000000
01000000
,
00010000
00000000
00000000
00000000
00001000
00000000
00000000
00000100
00000001
00000000
00000000
00000001
00000010
00000000
00000000
00000010
,
00001000
00000000
00010000
01000000
00000000
10000000
00100000
10000000
,
01000000
00000000
00000000
00010000
00001000
00000000
00000010
00000000
00000000
00000000
00000000
00000001
00000010
00000000
00001000
00000000
,
00010000
00000000
00100000
00000000
00010000
00000000
00000000
00001000
00000100
00000000
00000000
00000100
00000010
00000000
00000000
00000010
,
00001000
00000000
00000100
00000000
00000000
00000000
00000010
00000000
00000000
00000000
00000001
00000000
00000100
00000000
00000000
00001000
,
00010000
00000000
00000000
00000000
01000000
00000000
00000000
00000000
00100000
00000000
00000000
00010000
10000000
00000000
00000000
10000000
,
01000000
00000000
00100000
00000000
00010000
00000000
00000000
00000000
10000000
00000000
00000000
01000000
00010000
00000000
00000000
00010000
,
00001000
00000000
00000010
00000000
00000001
00000000
00000000
00000000
00000100
00000000
00000000
00000100
00000001
00000000
00000000
00000001
,
00000010
00000000
00000100
00000000
00010000
00000000
00000000
00000000
00001000
00000000
00000000
00010000
00100000
00000000
00000000
00100000
,
10000000
00000000
00000000
00000000
01000000
00000000
00000000
01000000
00010000
00000000
00001000
00000000
00000000
00000000
00010000
00000000
,
01000000
00000000
00010000
00001000
00000010
00000000
00000001
00000000
,
00000000
00000100
00000000
00001000
00000000
00010000
00100000
10000000
,
01000000
00000000
00000000
00000000
00100000
00000000
00000000
00010000
10000000
00000000
00000000
00000000
01000000
00000000
00000000
00010000
,
00001000
00000010
00000000
00000001
00000000
00000100
00001000
00010000
,
00100000
00000000
00000000
00000000
10000000
00000000
00000000
00000000
01000000
00000000
00000000
00000000
00010000
00000000
00000000
00010000
,
00001000
00000000
00000000
00000000
00000010
00000000
00000000
00000001
00000010
00000000
00000000
00000000
00001000
00000000
00000000
00001000
,
00010000
00000000
00000000
00000000
00100000
00000000
00000000
00000000
10000000
00000000
00000000
00000000
01000000
00000000
00000000
00010000
,
00001000
00000000
00000000
00000000
00000100
00000000
00000000
00000001
00000100
00000000
00000000
00000000
00000010
00000000
00000000
00001000
,
00000001
00000000
00000000
00000000
00000100
00000000
00000000
00001000
00010000
00000000
00001000
00000000
00000100
00000000
00000000
00001000
,
00010000
00000000
00000000
00000000
00100000
00000000
00000000
10000000
01000000
00000000
00010000
00000000
00001000
00000000
00000000
00010000
,
01000000
00000000
00000000
00000000
10000000
00000000
00000000
00100000
00010000
00000000
00001000
00000000
00000010
00000000
00000000
00000001
,
00000100
00000001
00000000
00000010
00000000
00001000
00010000
01000000
,
10000000
00000000
00100000
00000000
00000000
00000000
00000000
00010000
00001000
00000000
00000000
00000000
00000100
00000000
00000000
00000000
,
00000001
00000010
00000000
00000001
00001000
00000000
00000100
00000000
,
00000001
00000000
00000010
00000000
00000000
00000000
00000000
00001000
00010000
00000000
00000000
00000000
01000000
00000000
00000000
00000000
,
10000000
00000000
00100000
00000000
00000000
00000000
10000000
00000000
00010000
00000000
00000000
00000000
01000000
00000000
00000000
00100000
,
10000000
00000000
01000000
00010000
00001000
00000000
00010000
00001000
,
00000100
00000000
00000000
00000000
00001000
00000000
00000100
00000000
00000001
00000000
00000000
00000000
00000100
00000000
00000000
00000001
,
00000010
00000000
00000001
00000010
00001000
00000000
00000010
00001000
,
00010000
00000000
00000000
00000000
00010000
00000000
01000000
00000000
10000000
00000000
00000000
00000000
00100000
00000000
00000000
00010000
,
00001000
00000000
00000000
00001000
00000010
00000000
00000001
00000000
00000100
00000000
00000000
00000100
00001000
00000000
00010000
00000000
,
00100000
00000000
00000000
00100000
10000000
00000000
01000000
00000000
00010000
00000000
00001000
00000000
00000010
00000000
00001000
00000000
,
00010000
00000000
01000000
00000000
00010000
00000000
00001000
00000000
00000010
00000000
00000001
00000000
00000100
00000010
00000100
00000000
,
00000000
00000000
00000000
00000000
00000000
00000000
00000000
00000000
00000000
00000000
00000000
00100000
10000000
00000000
00000000
01000000
,
10000000
00000000
00000000
00000000
01000000
00000000
00010000
00000000
00001000
00000000
00000000
00000010
00000001
00000000
00000000
00000100
,
00000001
00000000
00000000
00000000
00000100
00000000
00001000
00000000
00010000
00000000
00000000
00100000
10000000
00000000
00000000
01000000
,
10000000
00000000
00000000
00000000
01000000
00000000
00010000
00000000
00001000
00000000
00000000
00000010
00000001
00000000
00000000
00000100
,
00000001
00000000
00000000
00000000
00000100
00000000
00001000
00000000
00010000
00000000
00001000
00000000
00000100
00000000
00001000
00010000
,
00001000
00000000
00000000
00001000
00010000
00000000
00100000
00000000
10000000
00000000
00000000
10000000
01000000
00000000
00000000
01000000
,
00010000
00000000
00001000
00000000
00010000
00000000
00000000
00001000
00000010
00000000
00000000
00000010
00000001
00000000
00000100
00000000
,
00000000
00000000
00000001
00000000
00000100
00000000
00001000
00000000
00010000
00000000
00000000
00001000
00010000
00000000
00000000
00010000
,
00100000
00000000
00000000
00000000
10000000
00000000
01000000
00000000
10000000
00000000
00000000
01000000
00010000
00000000
00000000
00010000
,
00001000
00000000
00000000
00000000
00000100
00000000
00000001
00000000
00000010
00000000
00000000
00000010
00000001
00000000
00000000
00000100
,
00000010
00000000
00000000
00000000
00000001
00000000
00000100
00000000
00001000
00000000
00000000
00000100
00001000
00000000
00000000
00001000
,
00010000
00000000
00000000
00000000
00100000
00000000
00000000
10000000
00100000
00000000
00000000
10000000
01000000
00000000
00000000
01000000
,
00010000
00000000
00000000
00000000
00001000
00000000
00000000
00000010
00000001
00000000
00000010
00000000
00001000
00000000
00010000
00000000
,
00001000
00000000
00010000
00100000
10000000
00000000
10000000
01000000
,
00000000
00010000
00000000
00001000
00000010
00000001
00000100
00000001
,
00000010
00000000
00000000
00001000
00010000
00000000
00001000
00000000
00010000
00000000
00000000
00000000
01000000
00000000
00000000
00000000
,
00100000
00000000
00000000
00001000
00010000
00000000
00001000
00000000
00010000
00000000
00000000
00000000
01000000
00000000
00000000
00000000
,
10000000
00000000
00000000
00100000
01000000
00000000
00100000
00000000
10000000
00000000
00000000
00000000
01000000
00000000
00000000
00010000
,
00001000
00000000
00000000
00000000
00000000
00000000
00000010
00000002
00000020
00000000
00000000
00000000
00000000
00000000
00000000
00000000
,
00000000
00000033
00000000
00000000
;

//---------------dance-double - ----------------
#NOTES:
     dance-double:
     :
     Challenge:
     8:
     0.399628,0.439086,0.018224,0.018224,0.282473,307.000000,305.000000,2.000000,2.000000,0.000000,0.000000,0.399628,0.439086,0.018224,0.018224,0.282473,307.000000,305.000000,2.000000,2.000000,0.000000,0.000000:
00000000
00000000
00000000
00000000
,
00000000
00000000
00000000
00000000
,
00000000
00000000
00000000
00000000
,
00000000
00000000
00000000
00000000
,
00000011
00000000
00000000
00000000
,
00000000
00000000
00000000
00000000
,
00000000
00000000
00000000
00000000
,
00000000
00000000
00000000
00000000
,
11000000
00000000
00000000
00000000
,
00000000
00000000
00000000
00000000
00000000
00000000
00000000
00000000
00000000
00000000
00000000
00010000
00001000
00000000
00000000
00000010
,
00000001
00000000
00000000
00000000
00000100
00000000
00000000
00000000
00001000
00000000
00000000
00010000
00100000
00000000
00000000
10000000
,
00100000
00000000
00000000
00000000
00010000
00000000
00000000
00000000
00001000
00000000
00000000
00000010
00000001
00000000
00000000
00000100
,
00000001
00000000
00000000
00000000
00000010
00000000
00000000
00000000
00001000
00000000
00000000
00010000
00001000
00000000
00000000
00010000
,
00100000
00000000
10000000
01000000
00000000
00010000
00000000
00001000
,
00000100
00000000
00000000
00000001
00000010
00000000
00000000
00000000
00000001
00000000
00000000
00000100
00001000
00000000
00010000
00000000
,
00001000
00000000
00000100
00000000
00001000
00000000
00000000
00000000
00010000
00000000
00000000
01000000
10000000
00000000
00000000
00100000
,
10000000
00000000
01000000
00000000
00000000
00000000
00010000
00000000
00000000
00000000
00001000
00000000
00010000
00000000
00000000
00001000
,
00000010
00000000
00000000
00000000
00000001
00000000
00000000
00000000
00000000
00000000
00000000
00000100
00000001
00000000
00000000
00000010
,
00000001
00000000
00000000
00000000
00000100
00000000
00000000
00000000
00001000
00000000
00000000
00010000
00001000
00000000
00000000
00010000
,
00100000
00000000
00000000
00000000
10000000
00000000
00000000
00000000
01000000
00000000
00000000
00010000
00001000
00000000
00000000
00001000
,
00000100
00000000
00000000
00000000
00000001
00000000
00000000
00000000
00000100
00000000
00000000
00001000
00010000
00000000
00000000
00010000
,
00001000
00000000
00000100
00001000
00000000
00010000
00000000
00100000
,
10000000
01000000
00000000
00010000
00000000
00001000
00000000
00000100
,
00000000
00000001
00000000
00000100
00000000
00001000
00010000
01000000
,
10000000
00000000
00000000
00000000
00100000
00000000
00000000
00010000
00001000
00000000
00000000
00000000
00000100
00000000
00000000
00000001
,
00000010
00000001
00000000
00000100
00000000
00001000
00010000
00100000
,
00010000
00000000
00000000
00000000
00001000
00000000
00000000
00000000
00000010
00000000
00000000
00000000
00000001
00000000
00000000
00000100
,
00001000
00000000
00000000
00000000
00010000
00000000
00000000
00000000
00100000
00000000
00000000
00000000
10000000
00000000
00000000
01000000
,
00010000
00000000
00000000
00000000
00001000
00000000
00000000
00000000
00000010
00000000
00000000
00000000
00000001
00000000
00000000
00000100
,
00001000
00000000
00000000
00000000
00010000
00000000
00000000
00000000
00100000
00000000
00000000
00000000
10000000
00000000
00000000
00100000
,
00010000
00000000
00000000
00000000
00001000
00000000
00000000
00000000
00000100
00000000
00000000
00000000
00000001
00000000
00000000
00000010
,
00001000
00000000
00000000
00000000
00010000
00000000
00000000
00000000
01000000
00000000
00000000
00000000
10000000
00000000
00000000
00100000
,
00010000
00000000
00000000
00000000
00001000
00000000
00000000
00000000
00000100
00000000
00000000
00000000
00000001
00000000
00000000
00000010
,
00001000
00010000
00000000
00001000
00000000
00010000
00100000
10000000
,
01000000
00010000
00000000
00001000
00000100
00000000
00000001
00000000
,
00000100
00001000
00000000
00010000
01000000
00000000
10000000
00000000
,
00100000
00010000
00000000
00001000
00000010
00000000
00000001
00000000
,
00000010
00000000
00001000
00000000
00000000
00000000
00010000
00000000
00100000
00000000
00000000
00000000
10000000
00000000
00000000
01000000
,
00010000
00000000
00001000
00000000
00000010
00000000
00001000
00010000
,
01000000
00000000
00000000
00000000
00010000
00000000
00000000
00000000
00001000
00000000
00000000
00000000
00000100
00000000
00000000
00000001
,
00000010
00000000
00000001
00000000
00000100
00000000
00001000
00010000
,
00001000
00000000
00000000
00000000
00000100
00000000
00000000
00000000
00001000
00000000
00000000
00000000
00010000
00000000
00000000
00100000
,
10000000
00000000
01000000
00000000
00010000
00000000
00001000
00010000
,
00001000
00000000
00000010
00000000
00000001
00000100
00000001
00000000
,
00000100
00001000
00000100
00000000
00010000
00001000
00010000
00100000
,
00000000
00000000
00000000
00000000
00000000
00000000
00000000
00000000
00000000
00000000
00000000
10000000
01000000
00000000
00000000
00100000
,
00010000
00000000
00000000
00000000
01000000
00000000
00000000
00000000
00100000
00000000
00000000
01000000
00010000
00000000
00000000
00010000
,
00001000
00000000
00000000
00000000
00000010
00000000
00000000
00000000
00000100
00000000
00000000
00000001
00000010
00000000
00000000
00000100
,
00001000
00000000
00000000
00000000
00010000
00000000
00000000
00000000
00100000
00000000
00000000
10000000
01000000
00000000
00000000
00010000
,
01000000
00000000
00000000
00000000
10000000
00000000
00000000
00000000
00100000
00000000
00000000
00000000
00010000
00000000
00000000
00001000
,
00000100
00000000
00000000
00000010
00001000
00000000
00000000
00000000
00000100
00000000
00000000
00000010
00000001
00000000
00000000
00000100
,
00000001
00000000
00000010
00000000
00001000
00000000
00000000
00000000
00010000
00000000
00000000
00100000
10000000
00000000
00000000
01000000
,
00100000
00000000
00001000
00000000
00000000
00000000
00010000
00000000
00000000
00000000
00100000
00000000
00000000
00000000
10000000
01000000
,
10000000
00000000
00000000
00000000
01000000
00000000
00000000
00000000
00010000
00000000
00000000
00001000
00000100
00000000
00000000
00000001
,
00000100
00000000
00000000
00000000
00001000
00000000
00000000
00000000
00010000
00000000
00000000
00100000
10000000
00000000
00000000
01000000
,
10000000
00000000
00000000
00000000
00100000
00000000
00000000
00000000
00010000
00000000
00000000
00001000
00000100
00000000
00000000
00000010
,
00000001
00000000
00000000
00000000
00000100
00000000
00000000
00001000
00010000
00000000
00000000
00010000
00100000
00000000
00000000
00100000
,
00010000
00000000
00000000
00000000
00001000
00000000
00000000
00001000
00000010
00000000
00000000
00000000
00000001
00000000
00000100
00000000
,
00001000
00000000
00000000
00010000
01000000
00000000
00100000
00000000
,
00000000
00010000
00000000
10000000
00000000
01000000
00010000
00001000
,
00000010
00000000
00000000
00000000
00000001
00000000
00001000
00000000
00000001
00000000
00000000
00000000
00000100
00000000
00000000
00001000
,
00010000
00000000
00000000
00000000
00100000
00000000
01000000
00000000
00100000
00000000
00000000
00000000
10000000
00000000
00000000
01000000
,
00010000
00000000
00000000
00000000
00001000
00000000
00010000
00000000
00001000
00000000
00000000
00000000
00000010
00000000
00000000
00000001
,
00000100
00000000
00000000
00000000
00000000
00000000
00001000
00020000
00002000
00000000
00000000
00000000
00000000
00000000
00000000
00000000
,
00000000
00033000
00000000
00000000
;

//---------------dance-double - ----------------
#NOTES:
     dance-double:
     :
     Beginner:
     1:
     0.104138,0.173584,0.027336,0.000000,0.000000,80.000000,77.000000,3.000000,0.000000,0.000000,0.000000,0.104138,0.173584,0.027336,0.000000,0.000000,80.000000,77.000000,3.000000,0.000000,0.000000,0.000000:
00000000
00000000
00000000
00000000
,
00000000
00000000
00000000
00000000
,
00000000
00000000
00000000
00000000
,
00000000
00000000
00000000
00000000
,
10010000
00000000
00000000
00000000
,
00000000
00000000
00000000
00000000
,
00000000
00000000
00000000
00000000
,
00000000
00000000
00000000
00000000
,
00000001
00000000
00000000
00000000
,
00000000
00000000
00000000
00100000
,
00000000
00000000
00001000
00000000
,
00001000
00000000
00000000
00000100
,
00000000
00000000
00000000
00000001
,
00000000
00000000
00000000
00000000
,
00001000
00000000
00000000
00010000
,
00000000
00000000
00000000
01000000
,
00000000
00000000
00000000
00000000
,
00100000
00000000
00000000
00001000
,
00000000
00000000
00000000
00000001
,
00000000
00000000
00001000
00000000
,
00001000
00000000
00000000
00010000
,
00000000
00000000
00000000
00000000
,
10000000
00000000
01000000
00000000
,
00010000
00000000
00001000
00000000
,
00000001
00000000
00000100
00000000
,
00011000
00000000
00000000
00000000
,
00100000
00000000
00000000
00000000
,
00001000
00000000
00000000
00000000
,
00000010
00000000
00000000
00000000
,
00010000
00000000
00000000
00000000
,
00001000
00000000
00000010
00000000
,
00000001
00000000
00000100
00000000
,
00010000
00000000
00100000
00000000
,
10000000
00000000
01000000
00000000
,
10000000
00000000
01000000
00000000
,
00001000
00000000
00010000
00000000
,
00001000
00000000
00000010
00000000
,
00000100
00000000
00000000
00000100
,
00000000
00000000
00000000
00000000
,
00001000
00000000
00000000
00001000
,
00000000
00000000
00000000
00000000
,
00010000
00000000
00000000
00010000
,
00000000
00000000
00000000
00000000
,
00100000
00000000
00000000
00000000
,
00100000
00000000
00010000
00000000
,
00000000
00000000
00000000
00010000
,
00000000
00000000
00000000
00001000
,
00000000
00000000
00000001
00000000
,
00001000
00000000
00000000
00001000
,
00000000
00000000
00000000
00000000
,
00100000
00000000
00000000
10000000
,
00000000
00010000
00000000
00001000
,
00000000
00000000
00000000
00000000
,
00000001
00000000
00000000
00001000
,
00000000
00000000
00000000
00000100
,
00000000
00000000
00010000
00000000
,
10000000
00000000
00000000
01000000
,
00000000
00000000
00000000
00000000
,
00001000
00000000
00000010
00000000
,
00000001
00000000
00000100
00000000
,
00010000
00000000
01000000
00000000
,
00010000
00000000
00001000
00000000
,
00000100
00000000
00001000
00000000
,
00100000
00000000
10010000
00000000
;

//---------------dance-single - ----------------
#NOTES:
     dance-single:
     :
     Challenge:
     12:
     0.997117,0.999134,0.373593,0.018224,1.316689,766.000000,725.000000,41.000000,2.000000,0.000000,0.000000,0.997117,0.999134,0.373593,0.018224,1.316689,766.000000,725.000000,41.000000,2.000000,0.000000,0.000000:
0000
0000
0000
0000
,
0000
0000
0000
0000
,
0000
0000
0000
0000
,
0000
0000
0000
0000
,
1001
0000
1000
0010
1000
0010
0100
0001
0100
0001
1000
0010
1000
0001
0100
0010
,
0100
0001
0010
0100
1000
0001
0010
0001
1000
0100
0010
0100
1000
0010
0100
0001
,
1000
0001
1000
0100
0010
0001
0100
0010
1000
0001
1000
0100
0010
0100
1000
0010
,
0100
0001
0010
0100
1000
0010
0100
0001
1000
0001
0100
0010
0100
0001
1000
0100
,
0010
0000
0000
0001
0100
0010
1000
0010
0100
0001
0010
0100
1000
0001
0010
0100
,
0010
0001
1000
0100
0010
0001
0100
0010
0100
0000
0000
0001
0010
0000
0000
0010
,
1000
0000
0000
1000
0010
0100
0001
0010
0100
1000
0010
1000
0001
0100
0010
1000
,
0100
0000
0100
0010
0001
0010
0100
0000
0000
0000
0100
1000
0010
1000
0100
0000
,
0010
0000
0000
0001
0100
0010
1000
0010
0100
0001
1000
0010
0100
0001
0100
0010
,
1000
0000
1000
0010
0100
0010
1000
0000
0001
0000
0001
0100
0010
0100
0001
0000
,
0101
0000
0000
1000
0010
0100
0001
0000
0011
0000
0000
0001
0010
0100
1000
0000
,
1100
0000
0000
1000
0100
0010
0001
0000
1010
0000
0000
1000
0010
0100
0001
0000
,
0010
0001
0100
1000
0100
0001
0010
0100
,
0010
0100
0010
0100
1000
0001
1000
0001
1000
0001
1000
0001
1000
0001
1000
0001
,
1000
0000
0000
0000
0101
0000
0000
0000
1100
0000
0000
1000
0010
0000
0000
0010
,
0001
0000
0001
0100
0010
0100
0001
0000
1000
0000
1000
0010
0100
0010
1000
0000
,
0001
0000
0000
0000
1100
0000
0000
0000
0101
0000
0000
1000
0010
0000
0000
0100
,
0001
0000
1000
0010
0100
0010
1000
0000
0001
0000
0100
0010
1000
0001
0100
0000
,
0110
0000
0000
0000
0100
0000
0001
1000
0100
0000
0010
0000
0110
0000
0000
0000
,
0010
1001
0010
1001
0010
0110
1000
0010
,
0110
0000
1000
0100
1000
0000
0010
0000
0110
0000
0001
0100
0001
0000
0010
0100
,
1000
0100
0010
0001
1000
0100
0010
0001
1000
0001
0100
0010
0100
0001
1000
0001
,
0100
0000
0000
0000
0000
0000
0010
1000
0100
1000
0010
1000
0100
0010
0001
0010
,
0100
0000
1000
0000
0000
0000
1000
0000
0100
0000
0001
0000
1000
0000
0000
0010
,
0100
0000
0001
0000
0000
0000
0001
0100
0010
0100
0001
0100
0010
0100
0001
1000
,
0010
0000
0100
0000
0000
0000
0100
0000
0010
0000
1000
0000
0100
0000
0000
0100
,
0010
0000
0010
0001
0100
0010
1000
0001
0100
0010
0100
0001
0010
0100
1000
0001
,
0000
1000
0010
0100
0001
0010
0100
1000
0010
1000
0001
0100
0010
0100
0001
0010
,
0000
0001
0010
0100
1000
0010
0100
0001
1000
0010
1000
0001
0100
0010
0100
0001
,
0010
0100
0010
0001
1000
0100
0010
0100
1000
0010
0100
0001
1000
0010
1000
0001
,
0101
0000
0001
0100
0010
0000
1000
0000
0110
0000
0010
0000
1001
0000
0100
0000
,
1010
0000
0100
1000
0100
0000
0010
0000
1001
0000
0100
0010
0100
0000
0000
0000
,
0101
0000
0001
0010
0100
0000
1000
0000
1010
0000
0100
0000
0101
0000
0100
0000
,
1001
1000
0001
1000
0001
1000
0100
1000
0100
0010
0100
0010
0001
0010
0001
0010
,
0001
0100
0010
1000
0010
0100
0001
1000
0010
0100
0001
0100
0001
1000
0010
0100
,
0001
0100
0001
0100
0001
0010
0100
1000
0100
1000
0100
1000
0001
0010
0100
1000
,
0100
0000
1000
0010
0100
0001
0100
0001
1000
0010
0100
0001
0100
0001
0010
0100
,
1000
0100
1000
0100
1000
0001
0010
0100
1000
0100
1000
0001
0010
0100
1000
0100
,
1000
0000
0010
0100
0001
0010
0100
1000
0010
1000
0001
0100
0010
0100
0001
0010
,
0100
1000
0010
0100
0001
1000
0010
0100
0001
0010
0100
1000
0001
0010
0100
1000
,
0001
0100
0001
1000
0010
1000
0001
0100
0001
1000
0010
0100
0001
1000
0010
0100
,
0000
0000
0001
0100
0001
0100
0010
1000
0010
1000
0001
0100
0001
1000
0010
1000
,
0001
0000
0000
0000
1010
0000
0000
0000
0011
0000
0000
1000
0010
0000
0000
0100
,
0001
0000
1000
0010
0100
0010
1000
0000
0001
0000
0100
0010
0100
0001
0010
0000
,
1000
0000
0000
0000
0011
0000
0000
0000
1010
0000
0000
0001
0100
0000
0000
0100
,
0010
0000
1000
0001
0100
0010
0100
0000
0001
0000
1000
0001
0010
0100
0010
0000
,
0011
0000
0001
0100
0010
1000
0100
0000
1000
0000
1000
0100
0010
0001
0100
0000
,
0010
0000
0100
0001
0010
0100
1000
0000
0010
0000
1000
0001
0100
0010
0100
0000
,
0001
0100
1000
0100
0001
0010
0100
1000
,
0010
1000
0001
0100
0010
0100
0001
0010
0100
1000
0010
0100
0001
0010
0100
1000
,
0001
0000
1000
0010
1010
0000
0001
0010
0011
0000
0001
1000
0100
0010
0001
1000
,
0010
0000
1000
0001
0100
0010
0100
0000
0001
0000
1000
0001
0100
0010
0100
0000
,
0001
0000
0010
0100
0110
0000
1000
0001
1001
0000
1000
0010
0100
0001
0010
0100
,
1000
0000
0010
1000
0001
0100
0010
0100
0001
0000
0010
0100
1000
0010
0100
0001
,
1000
0000
1000
0100
1000
0000
0001
0010
0100
0000
0010
0001
0010
0000
0000
0000
,
0000
0000
0010
0001
0100
0000
0010
1000
0100
0000
1000
0100
0010
0100
0010
0001
,
1000
0000
0010
1000
0100
0000
0011
0000
1100
0000
0010
0000
0101
0000
0100
0000
,
1001
0000
0010
0001
0100
0000
1010
0000
0101
0000
0010
0000
1100
0000
0100
0000
,
1000
0001
1000
0100
0010
0100
1000
0001
0100
0010
0100
0001
1000
0010
0100
0001
,
1000
0000
0100
0000
0100
0000
0100
0020
0200
0000
0000
0000
0000
0000
0000
0000
,
0000
0000
0330
0000
;

//---------------dance-threepanel - ----------------
#NOTES:
     dance-threepanel:
     :
     Hard:
     10:
     0.001302,0.000000,0.000000,0.000000,0.000000,1.000000,1.000000,0.000000,0.000000,0.000000,0.000000,0.001302,0.000000,0.000000,0.000000,0.000000,1.000000,1.000000,0.000000,0.000000,0.000000,0.000000:
100
000
000
000
;
