#TITLE:I Wanna Go;
#SUBTITLE:;
#ARTIST:Britney Spears;
#TITLETRANSLIT:;
#SUBTITLETRANSLIT:;
#ARTISTTRANSLIT:;
#GENRE:Femme Fatale;
#CREDIT:;
#BANNER:I Wanna Go-bn.jpg;
#BACKGROUND:I Wanna Go-bg.jpg;
#LYRICSPATH:;
#CDTITLE:;
#MUSIC:I Wanna Go.mp3;
#OFFSET:-1.116000;
#SAMPLESTART:98.961998;
#SAMPLELENGTH:18.462000;
#LASTBEATHINT:259.977356;
#SELECTABLE:YES;
#DISPLAYBPM:130.000000;
#BPMS:0.000000=130.000000
;
#STOPS:
;
#BGCHANGES:;
#KEYSOUNDS:;
#ATTACKS:;

//---------------dance-single - Blank----------------
#NOTES:
     dance-single:
     :
     Challenge:
     9:
     0.563219,0.592394,0.275815,0.202805,0.202805,486.000000,452.000000,34.000000,25.000000,0.000000,0.000000,0.563219,0.592394,0.275815,0.202805,0.202805,486.000000,452.000000,34.000000,25.000000,0.000000,0.000000:
0000
0000
0000
0000
,
0000
0000
0000
0000
,
0000
0000
0000
0000
,
0000
0000
0000
0000
,
0010
1000
0100
1000
0001
0010
0100
1000
,
0001
0100
0001
1001
0000
1000
0001
1000
,
0010
1000
0100
0010
0001
0100
0010
1000
,
0001
1000
0010
0110
0000
0100
0001
1000
,
1002
0000
0000
0000
0000
0000
0103
0000
0000
0000
0001
0100
0001
0000
1000
0000
0001
0000
0010
0000
0001
0000
1000
0000
,
0100
0010
0001
1000
0010
0100
1000
0100
,
0001
1000
0100
1100
0000
0100
0010
0001
,
1000
0010
0100
0001
1000
0001
0100
0010
,
0001
0010
1000
1010
0000
1000
0001
1000
,
1100
0000
0000
0000
0000
0000
0010
0000
0000
0000
0100
0001
0100
0000
0010
0000
1000
0000
0100
0000
0010
0000
0001
0000
,
1000
0000
0010
0000
1000
0100
1000
0000
0101
0000
0000
0000
1000
0000
0001
0000
,
1000
0000
0010
0000
0001
0100
0001
0000
1000
0000
0010
0000
0001
0100
0001
0000
,
1000
0000
0010
0000
0100
0001
0100
0000
1010
0000
0000
0000
0001
0000
1000
0000
,
0001
0000
0010
0000
1000
0100
1000
0000
0001
0000
0010
0000
1000
0100
1000
0000
,
0010
0000
0100
0000
0001
1000
0001
0000
0110
0000
0000
0000
0100
0000
0010
0000
,
1000
0000
0100
0000
0001
1000
0001
0000
0001
0000
0010
0000
1000
0001
1000
0000
,
0010
0000
0000
0010
0000
0000
0100
0000
0000
0001
0100
0001
0100
0000
0010
0000
1000
0000
0100
0000
0010
0000
0001
0000
,
2000
3000
2000
3000
1000
0001
0010
0200
,
0300
0200
0300
0200
0300
0200
0302
0003
,
2000
3000
2000
3000
1000
2000
3020
0032
,
0000
2003
0000
3020
0000
0032
0000
2003
,
3100
0000
1000
0100
1000
0000
0100
1000
0100
0000
0010
0100
0010
0000
0001
0010
,
0001
0000
0100
0001
0100
0000
0001
0000
1000
0000
0010
0000
0100
0000
0001
0000
,
1000
0000
0100
0010
0100
0000
0010
0001
0010
0000
0001
1000
0001
0000
1000
0010
,
1000
0000
0010
0100
0010
0000
0100
0000
0001
0000
1000
0000
0100
0000
0010
0000
,
0001
0010
0100
1000
0001
1000
0100
0010
,
0001
0100
1000
0100
0000
0010
1000
0001
,
0101
0000
0001
0000
0100
0000
0010
0000
1000
0000
0100
0010
0001
0000
1010
0000
,
0100
1010
0000
1000
0100
0001
0010
0001
,
0011
0000
0100
0000
0010
0000
1000
0000
0001
0000
0100
0010
1000
0000
0011
0000
,
0100
0002
0000
1003
0010
0001
0010
1000
,
0101
0000
1000
0000
0100
0000
0010
0000
0100
0000
1000
0001
0100
0000
0011
0000
,
1000
0011
0000
0001
0100
1000
0010
1000
,
1010
0000
0001
0000
0100
0000
0010
0000
1000
0000
0100
0010
0001
0000
1000
0000
,
0010
0002
0000
1003
0100
0010
1000
0001
,
0010
0100
0010
0001
0010
1000
0010
0001
,
0010
0100
0010
0001
0000
1100
0001
0100
,
0001
0000
0000
0000
,
0000
0000
0000
0000
,
0001
0001
0001
0001
,
1000
0000
0000
0000
1000
0000
0000
0000
1000
0000
1000
0001
1000
0000
1000
0001
,
2000
0000
3100
0010
0002
0000
0103
0010
,
1000
0010
0001
0010
1000
0010
0001
0010
,
2000
0000
3010
0100
0002
0000
0013
0100
,
1000
0100
0001
0100
1000
0100
0001
0100
,
0020
0000
0031
0100
0020
0000
1030
0100
,
0001
0100
1000
0100
0001
0100
1000
0100
,
0010
0000
0000
0000
0000
0000
0110
0000
0011
0000
0000
0000
0000
0000
0010
0001
,
1000
0000
0000
1001
0000
0000
0001
0000
0100
0000
0010
0000
1000
0000
0001
0000
,
1100
0000
1000
0000
0100
0000
0001
0000
1000
0000
0010
0100
1000
0000
0101
0000
,
1000
0101
0000
0001
0100
1000
0001
0010
,
0110
0000
0010
0000
1000
0000
0001
0000
1000
0000
0100
0010
0001
0000
1100
0000
,
0001
0100
0000
0010
1000
0001
0000
1000
,
0101
0000
0010
0000
1000
0000
0100
0000
0010
0000
1000
0010
0001
0000
1100
0000
,
0010
1100
0000
1000
0010
0001
1000
0100
,
0110
0000
0010
0000
1000
0000
0001
0000
0100
0000
0010
0100
0001
0000
1010
0000
,
0001
1010
0000
1000
0100
0001
1000
0010
,
0110
0100
0001
0100
1000
0100
0001
0100
,
1000
0100
0001
0100
1000
0001
0010
1000
,
0001
0000
0001
0000
0000
0001
0000
0000
0001
0000
0000
0000
0000
0000
0000
0000
;

//---------------dance-single - Blank----------------
#NOTES:
     dance-single:
     :
     Hard:
     7:
     0.381274,0.459962,0.170356,0.024337,0.012168,329.000000,308.000000,21.000000,3.000000,0.000000,0.000000,0.381274,0.459962,0.170356,0.024337,0.012168,329.000000,308.000000,21.000000,3.000000,0.000000,0.000000:
// measure 0
0000
0000
0000
0000
,  // measure 1
0000
0000
0000
0000
,  // measure 2
0000
0000
0000
0000
,  // measure 3
0000
0000
0000
0000
,  // measure 4
0010
0000
0010
0000
1000
0010
0001
0010
,  // measure 5
1000
0000
0001
0100
0000
0000
0001
1000
,  // measure 6
0100
0000
0010
0000
0001
0010
1000
0010
,  // measure 7
0001
0000
1000
0100
0000
0001
0100
0010
,  // measure 8
0001
0101
1000
1100
,  // measure 9
0010
0000
0010
0000
1000
0100
0001
0100
,  // measure 10
1000
0000
0001
0100
0000
0000
0001
1000
,  // measure 11
0010
0000
0010
0000
1000
0100
0001
0100
,  // measure 12
1000
0001
0000
0100
0000
1000
0100
0010
,  // measure 13
1000
1100
0001
0101
,  // measure 14
1001
0000
0100
0001
1001
0000
0100
0001
,  // measure 15
1000
0010
0001
0010
1000
0010
0001
0010
,  // measure 16
1001
0000
0100
0001
1001
0000
0100
0001
,  // measure 17
1000
0010
0001
0010
1000
0010
0001
0010
,  // measure 18
1001
0000
0010
1000
1001
0000
1000
0100
,  // measure 19
0001
0100
1000
0100
0001
0100
1000
0100
,  // measure 20
0010
0000
0000
0010
0000
0000
0100
0010
0100
0010
0000
0000
,  // measure 21
0110
0000
0100
0000
0100
1000
0100
1000
,  // measure 22
0000
1000
0000
1000
0000
1000
0001
0000
,  // measure 23
0010
0000
0010
0000
0010
0001
0010
0001
,  // measure 24
0000
0100
0000
0010
0000
1000
0000
0001
,  // measure 25
1000
0000
1000
0000
1000
0001
1000
0001
,  // measure 26
0000
0010
0000
0100
0000
0010
0100
0000
,  // measure 27
1000
0000
0001
0000
1000
0100
1000
0100
,  // measure 28
0000
0010
0000
0001
0000
1000
0000
0001
,  // measure 29
0100
0010
1000
0001
,  // measure 30
0010
0000
0100
0000
0000
0001
0100
1000
,  // measure 31
1001
0000
1000
0000
0001
0100
0010
1000
,  // measure 32
0000
0010
0000
0100
0000
1000
0100
0000
,  // measure 33
0010
0000
1000
0000
0100
0010
0001
1000
,  // measure 34
0000
0001
0000
0010
0000
0100
0000
0001
,  // measure 35
0100
0000
0100
0000
1000
0010
0100
0001
,  // measure 36
0000
1000
0000
0010
0000
0001
0010
0000
,  // measure 37
0100
0000
0001
0000
1000
0001
0100
0010
,  // measure 38
0000
1000
0000
0100
0000
0001
0000
1000
,  // measure 39
0010
0001
0010
1000
0010
0001
0010
1000
,  // measure 40
0010
0001
0010
1000
0000
0010
0100
1000
,  // measure 41
0001
0000
0000
0000
,  // measure 42
0000
0000
0000
0000
,  // measure 43
0001
0001
0001
0001
,  // measure 44
1000
1000
1000
1000
,  // measure 45
2010
0000
3001
1000
0001
0000
0100
0000
,  // measure 46
0010
0000
0110
0000
0100
0000
0110
0100
,  // measure 47
0002
0000
1003
0001
1000
0000
0001
0000
,  // measure 48
0010
0110
0100
0110
,  // measure 49
2100
0000
3001
1000
0001
0000
0100
0000
,  // measure 50
0010
0110
0100
0110
,  // measure 51
1000
0000
0000
0001
0001
0000
0000
0010
,  // measure 52
0010
0000
0000
0010
0000
0000
0010
0000
0100
0000
0000
0000
1000
0000
0000
0000
,  // measure 53
1001
0000
0001
0000
1000
0001
0100
0010
,  // measure 54
0000
1000
0000
0100
0000
0001
0100
0000
,  // measure 55
0010
0000
0001
0000
1000
0100
0010
0001
,  // measure 56
0000
1000
0000
0010
0000
1000
0000
0100
,  // measure 57
0010
0000
0010
0000
0001
0100
0001
1000
,  // measure 58
0000
0010
0000
1000
0000
0100
0010
0000
,  // measure 59
0001
0000
1000
0000
0010
1000
0100
1000
,  // measure 60
0000
0001
0000
0010
0000
0100
0000
1000
,  // measure 61
0001
0100
1000
0100
0001
0100
1000
0100
,  // measure 62
0001
0100
1000
0100
0000
0010
1000
0001
,  // measure 63
0100
0000
0000
0000
;

//---------------dance-single - Blank----------------
#NOTES:
     dance-single:
     :
     Medium:
     6:
     0.294357,0.332195,0.170356,0.040561,0.000000,254.000000,233.000000,21.000000,5.000000,0.000000,0.000000,0.294357,0.332195,0.170356,0.040561,0.000000,254.000000,233.000000,21.000000,5.000000,0.000000,0.000000:
0000
0000
0000
0000
,
0000
0000
0000
0000
,
0000
0000
0000
0000
,
0000
0000
0000
0000
,
0010
0010
1000
0100
,
0010
0000
0100
0010
0000
0000
0001
0000
,
1000
0010
0100
0001
,
1000
0000
0001
1000
0000
0000
0010
0000
,
0100
0110
0001
1001
,
1000
1000
0001
0010
,
0100
0000
1000
0100
0000
0000
0010
0000
,
0001
1000
0001
0100
,
0010
0100
0000
0010
0000
0000
1000
0000
,
0001
0100
1000
0100
,
0020
0000
1030
0100
0010
0000
0001
0000
,
1100
0001
0101
1000
,
0020
0000
0130
0001
0010
0000
0100
0000
,
1100
0001
0101
1000
,
0020
0000
0130
0001
0010
0000
0100
0000
,
1100
0001
0101
1000
,
0001
0001
1000
1000
,
2001
0000
0000
0000
3001
0000
1000
0100
,
0000
0100
0000
0100
0000
0100
1000
0000
,
0001
0000
0001
0000
0001
0000
0001
0100
,
0000
0100
0000
0100
0000
0100
0000
0001
,
1000
0000
1000
0000
1000
0000
0010
1000
,
0000
1000
0000
1000
0000
1000
0010
0000
,
0100
0000
0100
0000
0100
0000
0010
0100
,
0000
0001
0000
1000
0000
0001
0000
1000
,
0000
0001
1000
0001
,
1000
0001
0000
0000
,
1001
0000
0010
0000
0100
0000
0010
0100
,
0000
0010
0000
0100
0000
0010
0100
0000
,
0001
0000
1000
0000
0001
0000
0010
0001
,
0000
0010
0000
0001
0000
0100
0000
0001
,
0100
0000
0100
0000
0010
0000
1000
0100
,
0000
0100
0000
1000
0000
0010
1000
0000
,
0001
0000
0010
0000
0001
0000
0100
0010
,
0000
1000
0000
0001
0000
0100
0000
0010
,
0000
0110
0100
1001
,
0001
0000
1000
0000
0001
1000
0001
0000
,
1001
0000
0000
0000
,
0000
0000
0000
0000
,
0001
0000
1000
0000
,
0010
0100
0001
1000
,
0001
0000
0000
0010
0100
0000
0000
0000
,
1000
0110
0001
0110
,
1000
0000
0000
0010
0100
0000
0000
0000
,
0001
0110
1000
0110
,
0001
0000
0000
1000
0001
0000
0000
0000
,
0010
1001
0100
1001
,
0001
0000
0000
1000
1000
0000
0000
0010
,
0020
0000
0000
0000
,
0130
0000
0100
0000
0001
0000
1000
0100
,
0000
0010
0000
0100
0000
0010
0001
0000
,
1000
0000
0001
0000
1000
0000
0010
0100
,
0000
0001
0000
1000
0000
0100
0000
0010
,
0001
0000
0001
0000
0100
0000
0010
1000
,
0000
0001
0000
1000
0000
0100
0010
0000
,
0001
0000
1000
0000
0010
0000
1000
0100
,
0000
0010
0000
0001
0000
1000
0000
0100
,
0000
0110
0010
1001
,
0001
0000
1000
0000
0010
0100
0001
0000
,
1000
0000
0000
0000
;

//---------------dance-single - Blank----------------
#NOTES:
     dance-single:
     :
     Easy:
     3:
     0.197011,0.255535,0.048673,0.056785,0.000000,170.000000,164.000000,6.000000,7.000000,0.000000,0.000000,0.197011,0.255535,0.048673,0.056785,0.000000,170.000000,164.000000,6.000000,7.000000,0.000000,0.000000:
0000
0000
0000
0000
,
0000
0000
0000
0000
,
0000
0000
0000
0000
,
0000
0000
0000
0000
,
0010
0010
1000
0001
,
1000
0000
0000
0001
,
0010
0010
0001
1000
,
0001
0000
0100
0000
,
0010
0000
1001
0000
,
0010
0010
0100
0001
,
1000
0000
0000
0100
,
0010
0010
0001
1000
,
0100
0000
0010
0000
,
0001
0000
1001
0000
,
0010
0000
0100
0000
,
0010
1000
0010
0001
,
0010
0000
0100
0000
,
0010
0001
0010
1000
,
0010
0000
0100
0000
,
0010
0001
0010
1000
,
0100
0000
0010
0000
,
2002
0000
0000
0000
,
3003
0000
0000
0000
,
0010
0000
0000
0000
,
0100
0000
0000
0000
,
0001
0001
0001
0000
,
1000
0100
1000
0000
,
0010
0010
0010
0000
,
0100
0001
1000
0000
,
0002
0000
0000
0000
,
0000
0000
0003
0000
,
1001
1000
1000
0010
,
0010
0010
0010
0010
,
0100
0100
0100
0001
,
0001
0001
0001
0001
,
1000
1000
1000
0100
,
0100
0100
0100
0100
,
0010
0010
0010
0001
,
0001
0001
0001
0001
,
0200
0000
0310
0000
,
2000
0000
3001
0000
,
1001
0000
0000
0000
,
0000
0000
0000
0000
,
0100
0000
0010
0000
,
1000
0000
0001
0000
,
0010
0000
0010
0000
,
0100
0001
0100
1000
,
0100
0000
0010
0000
,
0100
0001
0100
1000
,
0100
0000
0010
0000
,
0100
0001
0100
1000
,
0010
0000
0100
0000
,
0001
0000
1000
0000
,
1001
0001
0001
1000
,
1000
1000
1000
1000
,
0100
0100
0100
0010
,
0010
0010
0010
0010
,
0001
0001
0001
0100
,
0100
0100
0100
0100
,
1000
1000
1000
0010
,
0010
0010
0010
0010
,
0002
0000
0103
0000
,
2000
0000
3100
0000
,
0010
0000
0000
0000
;

//---------------dance-single - Blank----------------
#NOTES:
     dance-single:
     :
     Beginner:
     1:
     0.119365,0.153321,0.016224,0.000000,0.000000,103.000000,101.000000,2.000000,0.000000,0.000000,0.000000,0.119365,0.153321,0.016224,0.000000,0.000000,103.000000,101.000000,2.000000,0.000000,0.000000,0.000000:
0000
0000
0000
0000
,
0000
0000
0000
0000
,
0000
0000
0000
0000
,
0000
0000
0000
0000
,
0010
0000
1000
0000
,
0100
0000
0000
0000
,
0010
0000
0001
0000
,
0100
0000
0000
0000
,
0001
0000
1000
0000
,
0001
0000
0010
0000
,
0100
0000
0000
0000
,
1000
0000
0010
0000
,
0100
0000
0000
0000
,
0001
0000
1000
0000
,
0001
0000
0001
0000
,
0010
0000
0100
0000
,
1000
0000
1000
0000
,
0100
0000
0010
0000
,
0001
0000
0001
0000
,
0100
0000
0010
0000
,
1000
0000
0001
0000
,
1000
0000
0000
0000
,
0010
0000
0000
0000
,
0100
0000
0000
0000
,
0001
0000
0000
0000
,
0010
0000
0000
0000
,
0100
0000
0000
0000
,
1000
0000
0000
0000
,
0001
0000
0000
0000
,
1000
0000
0000
0000
,
0010
0000
0000
0000
,
1001
0000
0010
0000
,
1000
0000
0100
0000
,
0010
0000
0001
0000
,
1000
0000
0001
0000
,
0100
0000
0010
0000
,
1000
0000
0100
0000
,
0010
0000
0001
0000
,
1000
0000
0001
0000
,
0010
0000
0100
0000
,
1000
0000
0001
0000
,
0100
0000
0000
0000
,
0000
0000
0000
0000
,
0010
0000
0010
0000
,
0010
0000
0010
0000
,
0100
0000
0100
0000
,
0001
0000
1000
0000
,
0100
0000
0100
0000
,
1000
0000
0001
0000
,
0100
0000
0100
0000
,
0001
0000
1000
0000
,
0001
0000
1000
0000
,
0001
0000
0000
0000
,
1001
0000
0010
0000
,
0001
0000
0100
0000
,
0010
0000
1000
0000
,
0100
0000
0001
0000
,
0100
0000
0010
0000
,
0001
0000
1000
0000
,
0010
0000
0100
0000
,
0001
0000
1000
0000
,
0100
0000
0100
0000
,
0010
0000
0001
0000
,
1000
0000
0000
0000
;
