#TITLE:Hollow Moon (Bad Wolf);
#SUBTITLE:;
#ARTIST:Awolnation;
#TITLETRANSLIT:;
#SUBTITLETRANSLIT:;
#ARTISTTRANSLIT:;
#GENRE:Run;
#CREDIT:;
#BANNER:Hollow Moon (Bad Wolf)-bn.jpg;
#BACKGROUND:Hollow Moon (Bad Wolf)-bg.jpg;
#LYRICSPATH:;
#CDTITLE:;
#MUSIC:Hollow Moon (Bad Wolf).mp3;
#OFFSET:-0.031000;
#SAMPLESTART:52.002499;
#SAMPLELENGTH:16.000000;
#SELECTABLE:YES;
#BPMS:0.000000=120.000000
;
#STOPS:
;
#BGCHANGES:;
#KEYSOUNDS:;
#ATTACKS:;

//---------------dance-single - ----------------
#NOTES:
     dance-single:
     :
     Hard:
     8:
     0.479514,0.649352,0.224884,0.033316,0.191568,403.000000,376.000000,27.000000,4.000000,0.000000,0.000000,0.479514,0.649352,0.224884,0.033316,0.191568,403.000000,376.000000,27.000000,4.000000,0.000000,0.000000:
0000
0000
0000
0000
,
0000
0000
0000
0000
,
0000
0000
0000
0000
,
0000
0000
0000
0000
,
0000
0000
0000
0000
,
0000
0000
0000
0000
,
0000
0000
0000
0000
,
0000
0100
1001
0000
0110
0000
1001
0000
,
0100
0000
0010
0010
1000
1000
0001
0001
,
0010
0011
1010
1001
,
0100
0100
0000
0010
0010
0010
0010
0000
,
0000
1000
0100
0100
0100
0000
0000
0000
,
0010
0001
0001
0100
0100
0010
0010
1000
,
1000
0010
0010
0100
0100
0000
0001
0000
,
1000
0000
0000
0100
0100
0100
0100
0000
,
0000
0010
0010
0010
0100
0100
0000
1000
,
0001
0100
0100
0010
0010
1000
1000
0100
,
0100
0010
0010
0001
0001
0000
1000
0000
,
0010
0000
0000
1000
1000
1000
1000
0000
,
0000
0001
0100
0100
0100
0000
0010
0000
,
0100
0001
0001
0010
0010
1000
1000
0010
,
0010
0001
0001
0100
0100
0000
0010
0000
,
1000
0000
0000
0100
0100
0100
0100
0010
,
0010
0001
0001
1000
1000
0000
0010
0000
,
0220
0000
0330
1000
0010
0010
0010
0001
,
0100
0100
0010
0000
1000
1000
0001
0000
,
0010
0001
0010
0001
0010
0000
0001
0100
0001
0000
0001
0000
1000
0010
1000
0000
,
0010
0010
0100
0100
0001
0000
1001
0000
,
1000
0100
1000
0100
1000
0000
0001
1000
0001
0000
0001
0000
0100
0010
0100
0000
,
0100
0010
0010
1000
1000
0000
1001
0000
,
0100
1000
0100
1000
0100
0000
1000
0010
1000
0000
1000
0000
0001
0100
0001
0000
,
0100
0100
0010
0010
1000
0000
1001
0000
,
0001
0010
0001
0010
0001
0000
1000
0001
1000
0000
1000
0000
0010
0100
0010
0000
,
0010
0100
0100
0001
0001
0000
1001
0000
,
1000
0100
1000
0100
1000
0100
1000
0100
1000
0000
1000
0000
0001
0100
0001
0100
,
0001
0000
0001
0000
0010
0001
0010
0001
0010
0000
0010
0000
0100
1000
0100
1000
,
0100
1000
0100
1000
0100
0000
1000
0001
1000
0000
1000
0000
0010
0100
0010
0000
,
0100
0001
0001
1000
1000
0000
1001
0000
,
0010
0010
0100
0000
0001
0001
1000
0000
,
0100
0100
0010
0000
1000
1000
0001
0000
,
0010
0010
0010
0010
0110
0010
0010
0010
,
0010
0110
0110
0000
0011
0000
0110
0000
,
0010
0000
1001
1000
0010
0010
0100
0100
,
0001
0000
1001
0010
1001
0000
0110
0000
,
0001
0001
0000
0100
0100
0100
0100
0000
,
0000
0010
0010
0010
0010
0000
0000
0000
,
1000
1000
0100
0100
0010
0010
0001
0001
,
0010
0010
0001
1000
0001
0001
0100
0000
,
0220
0000
0330
0001
0100
0100
0100
1000
,
0010
0010
0100
0000
0001
0001
1000
0000
,
0100
1000
0100
1000
0100
0000
1000
0010
1000
0000
1000
0000
0001
0100
0001
0000
,
0100
0100
0010
0010
1000
1000
1000
0000
,
0001
0010
0001
0010
0001
0000
1000
0001
1000
0000
1000
0000
0010
0100
0010
0000
,
0010
0100
0100
0000
0110
0010
0110
0000
,
0010
1000
0010
1000
0010
0000
0001
0100
0001
0000
0001
0000
1000
0010
1000
0000
,
0010
0010
0100
0100
0001
0001
1001
0000
,
1000
0100
1000
0100
1000
0000
0001
1000
0001
0000
0001
0000
0100
0010
0100
0000
,
0100
0010
0010
0000
0110
0100
0110
0000
;

//---------------dance-single - ----------------
#NOTES:
     dance-single:
     :
     Medium:
     5:
     0.327212,0.362313,0.174910,0.149923,0.000000,275.000000,254.000000,21.000000,18.000000,0.000000,0.000000,0.327212,0.362313,0.174910,0.149923,0.000000,275.000000,254.000000,21.000000,18.000000,0.000000,0.000000:
0000
0000
0000
0000
,
0000
0000
0000
0000
,
0000
0000
0000
0000
,
0000
0000
0000
0000
,
0000
0000
0000
0000
,
0000
0000
0000
0000
,
0000
0000
0000
0000
,
0000
0010
1001
0000
1001
0000
1001
0000
,
0100
0000
0001
0001
0001
0000
0010
0100
,
1000
0000
1000
1000
1000
0000
1001
0000
,
0010
0000
0000
0000
1000
1000
1000
0000
,
0000
0000
0001
0001
0001
0000
0000
0000
,
0100
0000
0010
0010
0010
0000
1000
0001
,
0100
0000
0001
0001
0001
0000
0010
0000
,
0100
0000
0000
0000
1000
1000
1000
0000
,
0000
0000
0010
0010
0010
0000
0000
0000
,
0100
0000
0001
0001
0001
0000
1000
0010
,
0100
0000
0010
0010
0010
0000
1000
0000
,
0100
0000
0000
0000
0010
0010
0010
0000
,
0000
0000
0100
0100
0100
0000
0000
0000
,
0010
0000
0001
0001
0001
0000
1000
0001
,
0100
0000
0001
0001
0001
0000
0010
0000
,
0100
0000
0000
0000
1000
0000
0010
0010
,
0100
0000
0001
0001
1000
0000
0100
0000
,
2002
3003
0220
0330
,
1001
0220
0000
0330
,
0001
0001
0001
0000
1000
1000
1000
0000
,
0001
0001
1000
1000
0001
0000
1001
0000
,
0010
0010
0010
0000
0100
0100
0100
0000
,
0010
0010
0100
0100
0010
0000
0110
0000
,
1000
1000
1000
0000
0001
0001
0001
0000
,
0010
0010
0100
0100
0010
0000
1001
0000
,
1000
1000
1000
0000
0001
0001
0001
0000
,
0100
0100
0001
0001
1000
0000
1001
0000
,
0010
0010
0010
0000
0100
0100
0010
0010
,
0010
0000
1000
1000
1000
0000
0001
0001
,
0010
0010
0010
0000
0100
0100
0100
0000
,
0010
0010
0100
0100
0010
0000
0110
0000
,
0100
1000
0010
0100
,
0001
0010
0100
1000
,
0010
0010
0010
0010
0010
0010
0010
0000
,
0000
1001
1001
1001
,
0100
0000
0001
0001
0001
0000
1000
0010
,
0100
0000
0010
0010
1000
0000
1001
0000
,
0001
0000
0000
0000
0100
0100
0100
0000
,
0000
0000
0010
0010
0010
0000
0000
0000
,
0100
0000
0010
0010
0010
0000
1000
0001
,
0100
0000
1000
1000
1000
0000
0100
0000
,
2002
3003
0220
0330
,
1001
0220
0000
0330
,
0001
0001
0001
0000
1000
1000
1000
0000
,
0010
0010
1000
1000
0001
0001
0001
0000
,
0100
0100
0100
0000
0010
0010
0010
0000
,
0100
0100
0002
0000
2003
0000
3002
0000
,
0103
0100
0100
0000
0010
0010
0010
0000
,
0001
0001
1000
1000
0010
0010
0010
0000
,
0100
0100
0100
0000
0010
0010
0010
0000
,
1000
1000
0002
0000
0023
0000
0230
0000
,
0300
0000
0000
0000
;

//---------------dance-single - ----------------
#NOTES:
     dance-single:
     :
     Easy:
     3:
     0.197517,0.216451,0.000000,0.000000,0.000000,166.000000,166.000000,0.000000,0.000000,0.000000,0.000000,0.197517,0.216451,0.000000,0.000000,0.000000,166.000000,166.000000,0.000000,0.000000,0.000000,0.000000:
// measure 0
0000
0000
0000
0000
,  // measure 1
0000
0000
0000
0000
,  // measure 2
0000
0000
0000
0000
,  // measure 3
0000
0000
0000
0000
,  // measure 4
0000
0000
0000
0000
,  // measure 5
0000
0000
0000
0000
,  // measure 6
0000
0000
0000
0000
,  // measure 7
0000
0100
0100
0100
,  // measure 8
0100
0001
0010
0010
,  // measure 9
0100
0010
0100
0100
,  // measure 10
1000
0000
0010
0000
,  // measure 11
0100
0100
0001
0000
,  // measure 12
0010
0001
0100
0100
,  // measure 13
0001
0100
0001
0001
,  // measure 14
1000
0000
0010
0000
,  // measure 15
0100
0000
0010
0000
,  // measure 16
1000
0001
0100
0100
,  // measure 17
0001
1000
0100
0100
,  // measure 18
0010
0000
0100
0000
,  // measure 19
1000
0000
0001
0000
,  // measure 20
0100
0010
1000
0010
,  // measure 21
0100
0001
0100
0100
,  // measure 22
0001
0000
1000
0000
,  // measure 23
0010
0100
0010
0010
,  // measure 24
0100
0000
0100
0000
,  // measure 25
0100
0100
0000
0000
,  // measure 26
0001
0100
0001
0001
,  // measure 27
1000
1000
0100
0000
,  // measure 28
0010
0001
0010
0010
,  // measure 29
0100
0100
1000
0000
,  // measure 30
0010
0100
0001
0001
,  // measure 31
1000
1000
0100
0000
,  // measure 32
0010
0100
0010
0010
,  // measure 33
0001
0001
1000
0000
,  // measure 34
0010
0010
0100
0100
,  // measure 35
0100
0100
0100
0100
,  // measure 36
0100
0001
0010
0010
,  // measure 37
0100
0100
1000
0000
,  // measure 38
0010
0000
0100
0000
,  // measure 39
0010
0000
1000
0000
,  // measure 40
0100
0100
0100
0100
,  // measure 41
0000
0010
0100
0010
,  // measure 42
0001
0100
0010
1000
,  // measure 43
0010
0100
0001
0001
,  // measure 44
0010
0000
0100
0000
,  // measure 45
1000
0000
0001
0000
,  // measure 46
0100
0010
1000
0001
,  // measure 47
0100
0010
1000
1000
,  // measure 48
0001
0000
1000
0000
,  // measure 49
0100
0100
0000
0000
,  // measure 50
0010
0010
0001
0001
,  // measure 51
1000
1000
0100
0000
,  // measure 52
0010
0010
0100
0100
,  // measure 53
1000
0001
0001
0001
,  // measure 54
0100
0100
0010
0010
,  // measure 55
0100
0100
0001
0000
,  // measure 56
0010
0010
0100
0100
,  // measure 57
1000
0001
0001
0001
;

//---------------dance-single - ----------------
#NOTES:
     dance-single:
     :
     Beginner:
     1:
     0.090429,0.119730,0.000000,0.000000,0.000000,76.000000,76.000000,0.000000,0.000000,0.000000,0.000000,0.090429,0.119730,0.000000,0.000000,0.000000,76.000000,76.000000,0.000000,0.000000,0.000000,0.000000:
0000
0000
0000
0000
,
0000
0000
0000
0000
,
0000
0000
0000
0000
,
0000
0000
0000
0000
,
0000
0000
0000
0000
,
0000
0000
0000
0000
,
0000
0000
0000
0000
,
0000
0010
0000
0010
,
0000
0000
1000
0000
,
0000
0000
0001
0000
,
0000
0000
0100
0000
,
0000
0000
0010
0000
,
0000
0000
0100
0000
,
0000
0000
0010
0000
,
0000
0000
1000
0000
,
0000
0000
0001
0000
,
0000
0000
0010
0000
,
0000
0000
0100
0000
,
0000
0000
1000
0000
,
0000
0000
0001
0000
,
0000
0000
0100
0000
,
0000
0000
0010
0000
,
0000
0000
1000
0000
,
0000
0000
0001
0000
,
0100
0000
1000
0000
,
0100
0000
0000
0000
,
0010
0000
0010
0000
,
0010
0000
0100
0000
,
0010
0000
0010
0000
,
0010
0000
0100
0000
,
0001
0000
0001
0000
,
0001
0000
1000
0000
,
0001
0000
0001
0000
,
0001
0000
1000
0000
,
0100
0000
0010
0000
,
0100
0000
0010
0000
,
0100
0000
0100
0000
,
0010
0000
0010
0000
,
0001
0000
0000
0000
,
1000
0000
0000
0000
,
0010
0000
0000
0000
,
0100
0100
0000
0100
,
0000
0000
0010
0000
,
0000
0000
0010
0000
,
0000
0000
1000
0000
,
0000
0000
0100
0000
,
0000
0000
0010
0000
,
0000
0000
0001
0000
,
0010
0000
1000
0000
,
0010
0000
0000
0000
,
0001
0000
0001
0000
,
1000
0000
1000
0000
,
0100
0000
0100
0000
,
0010
0000
0010
0000
,
0001
0000
0001
0000
,
1000
0000
1000
0000
,
0100
0000
0100
0000
,
0010
0000
0010
0000
;
