#TITLE:Gutterpunk;
#SUBTITLE:;
#ARTIST:Noisia feat. Bex Riley;
#TITLETRANSLIT:;
#SUBTITLETRANSLIT:;
#ARTISTTRANSLIT:;
#GENRE:DDR UNIVERSE 3;
#CREDIT:;
#BANNER:Gutterpunk-bn.jpg;
#BACKGROUND:Gutterpunk-bg.jpg;
#LYRICSPATH:;
#CDTITLE:;
#MUSIC:Gutterpunk.mp3;
#OFFSET:-0.058;
#SAMPLESTART:45.023;
#SAMPLELENGTH:12.000;
#SELECTABLE:YES;
#BPMS:0.000=128.000;
#STOPS:;
#BGCHANGES:;

//---------------dance-single - ----------------
#NOTES:
     dance-single:
     :
     Easy:
     3:
     0.200,0.258,0.054,0.000,0.000:
0000
0000
0000
0000
,
0000
0000
0000
0000
,
0000
0000
0000
0000
,
0000
0000
0000
0000
,
1000
0001
1000
0001
,
0010
0100
0010
0100
,
1000
0001
1000
0001
,
0100
0000
0000
0000
,
0010
0010
1000
0000
,
0001
0100
0001
0000
,
0010
0100
1000
0000
,
0001
0000
1000
0010
,
0100
0100
0001
0001
,
0010
0100
1000
0001
,
0100
0000
0010
0000
,
1000
0001
1000
0000
,
1001
0000
0001
0000
,
0100
0000
0010
1000
,
0001
0000
0010
0000
,
0100
1000
0001
0000
,
1001
0000
0000
0000
,
0000
0000
0000
0000
,
0010
0100
0010
0100
,
0001
1000
0001
1000
,
1001
0000
0000
1001
,
0001
0100
0010
1000
,
0100
0010
0001
0010
,
0100
0000
1000
1000
,
0001
0001
0100
0000
,
0010
1000
0010
0000
,
0100
0001
0010
0000
,
0100
0000
0100
1000
,
0001
0000
0100
0100
,
0010
0000
1000
0001
,
1000
0000
0100
0000
,
0010
0000
0001
0010
,
0100
0000
1000
0000
,
0001
1000
0001
1000
,
0010
0000
0100
0000
,
0001
0000
0010
0000
,
0100
0000
1000
0000
,
0001
0000
0000
0000
,
1001
1000
0010
0000
,
0100
0000
0001
0000
,
1001
0001
0010
0000
,
0100
0000
1000
1000
,
0010
0000
0100
0000
,
0001
1000
0001
1000
,
0100
0000
0010
0000
,
0001
0010
0100
0000
,
1000
0000
1000
0000
,
0001
0000
0001
0001
,
0100
0000
0100
0000
,
0010
0000
0010
0010
,
1000
0100
0010
0000
,
0001
0010
0100
0000
,
1000
0001
1000
0000
,
0010
0100
0001
1000
;

//---------------dance-single - ----------------
#NOTES:
     dance-single:
     :
     Medium:
     5:
     0.339,0.361,0.152,0.009,0.000:
0000
0000
0000
0000
,
0000
0000
0000
0000
,
0000
0000
0000
0000
,
0000
0000
0000
0000
,
1000
1010
0010
0110
,
0100
0101
0001
0011
,
0010
0110
0100
1100
,
1001
0000
0000
0000
,
0001
0000
0100
0000
0010
1000
0010
0000
,
0100
0000
0001
0000
1000
0001
1000
0000
,
0100
0000
0010
0000
0001
0010
0100
0000
,
1000
0000
0001
0000
0100
0010
0100
0010
,
1000
0001
0010
0100
,
1000
0001
1000
0001
1000
0000
0010
0000
,
0100
0000
0001
0000
1000
0001
1000
0000
,
0100
0010
0001
0001
,
1001
1000
0010
0010
,
0100
0001
0010
0010
,
0100
0000
1000
0000
0001
1000
0001
0000
,
0100
0000
0010
0000
1000
0010
1000
0010
,
1001
0000
0000
0000
,
0000
0000
0000
0000
,
1000
0001
1000
0000
0010
0100
0010
0000
,
0100
0001
0010
0100
1000
0000
1001
0000
,
0010
1000
0002
0103
,
0010
1000
0001
0010
,
0100
1000
0001
0000
0010
0001
0100
0000
,
0010
0000
1000
0000
0001
0010
0100
0000
,
1000
0001
0100
0000
0010
0000
1000
0000
,
0001
0010
0100
1000
,
0001
0100
0001
0000
1000
0100
1000
0000
,
0001
0100
0010
0000
1000
0000
0001
0000
,
0010
0000
0100
0000
0000
0010
0001
0000
,
0100
0000
0010
0000
0000
1000
0001
0000
,
0010
0100
1000
0001
,
0100
0000
0010
0000
0000
1000
0010
0000
,
0100
0001
1000
0001
,
0010
0000
0100
1000
0001
0000
0100
0000
,
0010
0000
1000
0000
0001
1000
0001
0000
,
0010
0100
1000
0000
,
0100
0001
0010
0000
,
0001
1000
0010
0000
0100
0001
0010
0000
,
0100
1000
0001
0100
,
0010
1000
0010
0000
0100
0001
0100
0000
,
0001
0010
0100
1000
,
0001
0100
0001
0000
1000
0100
1000
0100
,
0010
0001
0010
0100
,
1000
0001
1000
0000
0010
0100
0010
0000
,
0100
0001
0010
0100
,
1000
0001
0100
0000
0010
1000
0001
0000
,
0010
0000
0110
0000
0100
1000
0001
0000
,
0100
0000
0101
0000
0010
1000
0100
0000
,
0010
0000
1001
0000
0001
0100
0010
0000
,
1000
0000
1001
0000
0001
0010
0100
0000
,
1000
0000
1100
0000
0010
0001
0100
0000
,
0001
0000
0101
0000
0010
1000
0001
0000
,
0010
0000
0110
0000
0100
1000
0001
0000
,
1000
0010
0100
0000
0001
0100
1000
0000
;

//---------------dance-single - ----------------
#NOTES:
     dance-single:
     :
     Hard:
     8:
     0.442,0.466,0.277,0.187,0.241: // measure 1
0000
0000
0000
0000
,  // measure 2
0000
0000
0000
0000
,  // measure 3
0000
0000
0000
0000
,  // measure 4
0000
0000
0000
0000
,  // measure 5
0001
0010
0100
1000
0100
0010
0001
1000
,  // measure 6
0001
0100
0010
1000
0010
0100
0001
1000
,  // measure 7
0001
0010
0100
1000
0001
0100
0010
1000
,  // measure 8
0002
0000
0000
0000
,  // measure 9
1003
0000
0000
0000
0010
0000
0000
1000
0001
0000
0000
0000
1001
0000
0000
0000
,  // measure 10
0010
0000
0000
0000
0001
0000
0000
0010
0100
0000
0000
0000
1001
0000
0000
0000
,  // measure 11
0010
0000
0000
0000
1000
0000
0000
0010
0100
0000
0000
0000
0101
0000
0000
0000
,  // measure 12
0001
0000
0000
0000
0010
0000
0000
0100
1000
0000
0000
0000
1002
0000
0000
0000
,  // measure 13
0013
0000
0000
0000
0001
0000
0000
0100
0010
0000
0000
0000
1010
0000
0000
0000
,  // measure 14
1000
0000
0000
0000
0001
0000
0000
0010
0100
0000
0000
0000
0110
0000
0000
0000
,  // measure 15
1000
0000
0000
0000
0001
0000
0000
0100
0010
0000
0000
0000
1001
0000
0000
0000
,  // measure 16
0010
0000
0000
0000
0100
0000
0000
0001
1000
0000
0000
0000
1100
0000
0000
0000
,  // measure 17
1001
0000
0000
0000
0001
0000
0000
0001
0100
0000
0000
0000
1010
0000
0000
0000
,  // measure 18
0001
0000
0000
0000
1000
0000
0000
1000
0100
0000
0000
0000
0011
0000
0000
0000
,  // measure 19
0010
0000
0000
0000
0001
0000
0000
0001
1000
0000
0000
0000
1001
0000
0000
0000
,  // measure 20
0010
0000
0000
0000
0100
0000
0000
0100
0001
0000
0000
0000
2001
0000
0000
0000
,  // measure 21
3100
0000
0000
0000
0010
0000
0000
0001
0000
0000
0000
0000
0000
0000
0000
0000
,  // measure 22
0000
0000
0000
0000
,  // measure 23
1000
0010
0100
0001
1000
0010
0100
0001
,  // measure 24
1000
0100
0010
0001
1000
0100
0010
1000
,  // measure 25
0002
0000
0000
0103
,  // measure 26
1000
0000
0000
0000
0001
0000
0000
0100
0010
0000
0000
0000
1001
0000
0000
0000
,  // measure 27
2010
0001
0010
3100
,  // measure 28
0010
0100
1000
0100
0010
0010
0001
0000
,  // measure 29
0102
1000
0100
0013
,  // measure 30
0100
0000
0000
0000
1000
0000
0000
0001
0100
0000
0000
0000
1010
0000
0000
0000
,  // measure 31
0201
0010
1000
0301
,  // measure 32
0020
0000
0000
0030
,  // measure 33
0100
0000
0000
0000
1000
0000
0000
0001
0100
0000
0000
0000
1010
0000
0000
0000
,  // measure 34
1000
0000
0000
0000
0010
0000
0000
0100
0001
0000
0010
0000
0011
0000
0000
0000
,  // measure 35
0100
0000
0000
0000
1000
0000
0000
0001
0100
0000
0000
0000
1001
0000
0000
0000
,  // measure 36
0010
0000
0000
0000
1000
0000
0000
0100
0010
0000
0001
0000
1001
0000
0000
0000
,  // measure 37
0101
0000
0000
0000
0010
0000
0000
1000
0001
0000
0000
0000
0101
0000
0000
0000
,  // measure 38
0010
0000
0000
0000
1000
0000
0000
0100
0010
0000
0100
0000
1100
0000
0000
0000
,  // measure 39
1000
0000
0000
0000
0001
0000
0000
0100
0010
0000
1000
0000
0001
0000
0000
0000
,  // measure 40
0010
0000
0000
0000
0100
0000
0000
1000
0000
0000
0000
0000
0000
0000
0001
0000
,  // measure 41
0100
0000
0000
0000
0010
0000
0000
1000
0000
0000
0000
0000
0000
0000
0000
0000
,  // measure 42
1000
0001
0000
0010
0000
0000
0100
0000
0010
0000
0010
0000
0200
0000
0000
0000
,  // measure 43
1300
0000
0001
0010
0000
0001
0010
0000
0200
0000
0000
0000
1300
0000
0000
0000
,  // measure 44
0010
0000
0000
0000
1000
0000
0000
0100
0010
0000
0000
0000
1001
0000
0000
0000
,  // measure 45
0010
0000
0100
0001
0000
0100
0001
0000
2000
0000
0000
0000
3100
0000
0000
0000
,  // measure 46
0010
0001
0000
1000
0010
0000
0100
0000
0001
0000
0001
0000
0020
0000
0000
0000
,  // measure 47
0130
0000
1000
0001
0000
1000
0001
0000
0200
0000
0000
0000
0310
0000
0000
0000
,  // measure 48
1000
0000
0000
0000
0001
0000
0000
0100
0010
0000
0000
0000
1001
0000
0000
0000
,  // measure 49
0010
0000
0100
1000
0000
0100
1000
0000
0002
0000
0000
0000
0103
0000
0000
0000
,  // measure 50
0010
0100
0000
0001
0000
0000
0100
0000
1000
0000
0100
0000
0002
0000
0000
0000
,  // measure 51
0013
0000
0100
1000
0000
1000
0001
0000
0020
0000
0000
0000
0130
0000
0000
0000
,  // measure 52
1001
0000
0000
0000
1000
0000
0000
0010
0100
0000
0000
0000
1001
0000
0000
0000
,  // measure 53
0001
0000
0010
0100
0000
0100
1000
0000
0020
0000
0000
0000
0130
0000
0000
0000
,  // measure 54
0001
1000
0000
0100
0010
0000
0100
0000
1000
0000
1000
0000
0002
0000
0000
0000
,  // measure 55
0103
0000
0010
1000
0000
1000
0001
0000
0020
0000
0000
0000
0031
0000
0000
0000
,  // measure 56
1001
0000
0000
0000
0010
0000
0000
1000
0001
0000
0000
0000
0011
0000
0000
0000
,  // measure 57
0100
0000
1000
0001
0000
0001
0100
0000
0020
0000
0000
0000
1030
0000
0000
0000
,  // measure 58
0001
1000
0000
0100
0000
0000
0010
0000
1000
0000
0010
0000
0002
0000
0000
0000
,  // measure 59
0003
0000
0000
0000
;

//---------------dance-double - ----------------
#NOTES:
     dance-double:
     :
     Easy:
     3:
     0.198,0.258,0.071,0.000,0.000:
00000000
00000000
00000000
00000000
,
00000000
00000000
00000000
00000000
,
00000000
00000000
00000000
00000000
,
00000000
00000000
00000000
00000000
,
10000000
01000000
10000000
01000000
,
00100000
00010000
00100000
00010000
,
00100000
00001000
00100000
00001000
,
00010000
00000000
00000000
00000000
,
00000100
00000100
00001000
00000000
,
00000100
00000010
00000100
00000000
,
00000001
00000100
00000010
00000000
,
00010000
00000000
00001000
00100000
,
00001000
00000000
01000000
01000000
,
00100000
10000000
00010000
00000000
,
00100000
00000000
01000000
00000000
,
10000000
00010000
10000000
00000000
,
10010000
00000000
00010000
00000000
,
00100000
00000000
00001000
00010000
,
00001000
00000000
00010000
00000000
,
00000010
00001000
00000001
00000000
,
00001001
00000000
00000000
00000000
,
00000000
00000000
00000000
00000000
,
00000010
00000100
00000010
00000100
,
00010000
00001000
00010000
00001000
,
00011000
00000000
00000000
00011000
,
00001000
01000000
00100000
10000000
,
10010000
00000000
00010000
00100000
,
01000000
00000000
10000000
10000000
,
00010000
00010000
00100000
00000000
,
00001000
00010000
00001000
00010000
,
00000100
00000000
00001000
00000000
,
00001001
00000000
00000000
00000000
,
00000100
00000010
00000000
00000001
,
00001000
00000000
00000010
00000010
,
00001000
00000000
00000100
00000000
,
00010000
00000000
00001000
00100000
,
00010000
00000000
01000000
00000000
,
00100000
10000000
00100000
10000000
,
00010000
00000000
00100000
00000000
,
00001000
00000000
00010000
00000000
,
00000100
00000000
00000010
00000000
,
00000001
00000000
00000000
00000000
,
00001001
00001000
00000010
00000000
,
00000100
00000000
00001000
00000000
,
00011000
00001000
00100000
00000000
,
00010000
00000000
10000000
10000000
,
00100000
00000000
01000000
00000000
,
00100000
01000000
00001000
00010000
,
00001000
00000000
00010000
00000000
,
00000100
00000010
00000100
00000100
,
00001000
00000000
00000001
00000000
,
00001000
00000000
00000100
00000100
,
00010000
00000000
00001000
00000000
,
01000000
00000000
00100000
00100000
,
10000000
01000000
00010000
00000000
,
00001000
00010000
00001000
00000000
,
00010000
00001000
00010000
00000000
,
00000100
00001000
00000001
00000010
;

//---------------dance-double - ----------------
#NOTES:
     dance-double:
     :
     Medium:
     6:
     0.339,0.361,0.152,0.009,0.000:
00000000
00000000
00000000
00000000
,
00000000
00000000
00000000
00000000
,
00000000
00000000
00000000
00000000
,
00000000
00000000
00000000
00000000
,
00000001
00001001
00001000
00001100
,
00000100
00010100
00010000
00011000
,
00001000
01001000
01000000
01100000
,
10010000
00000000
00000000
00000000
,
00010000
00000000
10000000
00000000
01000000
00100000
01000000
00000000
,
00100000
00000000
00001000
00000000
00010000
00000100
00001000
00000000
,
00000010
00000000
00000100
00000000
00000001
00001000
00000100
00000000
,
00010000
00000000
00001000
00000000
00100000
00010000
00100000
00010000
,
10000000
00100000
01000000
10000000
,
01000000
00100000
01000000
00100000
01000000
00000000
00001000
00000000
,
00010000
00000000
00001000
00000000
00010000
00000100
00000010
00000000
,
00000001
00001000
00000010
00000010
,
00001001
00001000
00000100
00000100
,
00010000
00001000
01000000
01000000
,
10000000
00000000
01000000
00000000
00010000
10000000
00010000
00000000
,
00100000
00000000
00001000
00000000
00010000
00001000
00010000
00001000
,
00011000
00000000
00000000
00000000
,
00000000
00000000
00000000
00000000
,
00001000
00010000
00001000
00000000
00010000
00000010
00010000
00000000
,
00000010
00001000
00000001
00000100
00000010
00000000
00001001
00000000
,
00000010
00000100
00020000
00031000
,
01000000
00100000
10000000
01000000
,
00100000
00010000
00100000
00000000
00001000
00010000
00001000
00000000
,
00010000
00000000
00000010
00000000
00001000
00000001
00001000
00000000
,
00000100
00000010
00001000
00000000
00010000
00000000
00001000
00000000
,
00100000
00010000
01000000
10000000
,
01000000
00100000
10000000
00000000
00010000
01000000
00001000
00000000
,
00010000
00001000
00010000
00000000
00000100
00000000
00000010
00000000
,
00000001
00000000
00001000
00000000
00000000
00000010
00000100
00000000
,
00000001
00000000
00000010
00000000
00000000
00001000
00010000
00000000
,
00001000
01000000
00100000
10000000
,
01000000
00000000
00100000
00000000
00000000
10000000
00100000
00000000
,
00010000
01000000
00001000
00010000
,
00000100
00000000
00000010
00000100
00000010
00000000
00000001
00000000
,
00000100
00000000
00000010
00000000
00010000
00001000
00010000
00000000
,
00001000
00100000
10000000
00000000
,
00100000
00010000
01000000
00000000
,
00100000
10000000
00100000
00000000
01000000
00010000
01000000
00000000
,
00001000
00010000
00000100
00000010
,
00001000
00000010
00001000
00000000
00000010
00000001
00000010
00000000
,
00000001
00000100
00001000
00010000
,
00100000
10000000
00100000
00000000
01000000
00010000
01000000
00010000
,
00100000
00001000
00010000
00000100
,
00000010
00000001
00001000
00000000
00000010
00000100
00000001
00000000
,
00001000
00000100
00010000
00001000
,
01000000
00010000
01000000
00000000
00100000
10000000
00010000
00000000
,
00100000
00000000
10010000
00000000
00100000
00001000
00010000
00000000
,
00001000
00000000
00011000
00000000
00010000
00000010
00001000
00000000
,
00000001
00000000
00001001
00000000
00000010
00000100
00010000
00000000
,
00001000
00000000
00011000
00000000
00100000
00010000
01000000
00000000
,
00100000
00000000
10010000
00000000
00100000
00010000
01000000
00000000
,
10000000
00000000
11000000
00000000
00100000
00010000
00100000
00000000
,
00001000
00000000
00011000
00000000
00010000
00000010
00000100
00000000
,
00000001
00000010
00000100
00000000
00000001
00000100
00001000
00000000
;

//---------------dance-double - ----------------
#NOTES:
     dance-double:
     :
     Hard:
     8:
     0.442,0.466,0.277,0.187,0.241:
00000000
00000000
00000000
00000000
,
00000000
00000000
00000000
00000000
,
00000000
00000000
00000000
00000000
,
00000000
00000000
00000000
00000000
,
10000000
01000000
00100000
00010000
01000000
00100000
00010000
00100000
,
01000000
00001000
00100000
00010000
01000000
00100000
00010000
00001000
,
00010000
00000010
00001000
00000100
00010000
00000100
00000010
00000001
,
00002000
00000000
00000000
00000000
,
00003010
00000000
00000000
00000000
00001000
00000000
00000000
00000001
00000010
00000000
00000000
00000000
00001001
00000000
00000000
00000000
,
00000100
00000000
00000000
00000000
00010000
00000000
00000000
00001000
00100000
00000000
00000000
00000000
00110000
00000000
00000000
00000000
,
00010000
00000000
00000000
00000000
01000000
00000000
00000000
00100000
10000000
00000000
00000000
00000000
01010000
00000000
00000000
00000000
,
00100000
00000000
00000000
00000000
00001000
00000000
00000000
00010000
00001000
00000000
00000000
00000000
00021000
00000000
00000000
00000000
,
00030100
00000000
00000000
00000000
00001000
00000000
00000000
00000100
00000001
00000000
00000000
00000000
00000101
00000000
00000000
00000000
,
00000010
00000000
00000000
00000000
00000001
00000000
00000000
00001000
00000010
00000000
00000000
00000000
00001001
00000000
00000000
00000000
,
00010000
00000000
00000000
00000000
00001000
00000000
00000000
01000000
00010000
00000000
00000000
00000000
10010000
00000000
00000000
00000000
,
00100000
00000000
00000000
00000000
00010000
00000000
00000000
00100000
00001000
00000000
00000000
00000000
00101000
00000000
00000000
00000000
,
00011000
00000000
00000000
00000000
00010000
00000000
00000000
00010000
00000100
00000000
00000000
00000000
00000110
00000000
00000000
00000000
,
00000010
00000000
00000000
00000000
00000001
00000000
00000000
00000001
00000100
00000000
00000000
00000000
00001010
00000000
00000000
00000000
,
00000010
00000000
00000000
00000000
00010000
00000000
00000000
00010000
00001000
00000000
00000000
00000000
00011000
00000000
00000000
00000000
,
00100000
00000000
00000000
00000000
00010000
00000000
00000000
00010000
10000000
00000000
00000000
00000000
21000000
00000000
00000000
00000000
,
30010000
00000000
00000000
00000000
01000000
00000000
00000000
00001000
00000000
00000000
00000000
00000000
00000000
00000000
00000000
00000000
,
00000000
00000000
00000000
00000000
,
00010000
00000010
00001000
00000100
00010000
00000010
00001000
00000100
,
00000010
00001000
00010000
00000010
00000100
00001000
00010000
00001000
,
00000200
00000000
00000000
00000301
,
00000010
00000000
00000000
00000000
00000100
00000000
00000000
00010000
00001000
00000000
00000000
00000000
00101000
00000000
00000000
00000000
,
00210000
00010000
10000000
01300000
,
10000000
00100000
01000000
00001000
00010000
00010000
00001000
00000000
,
00021000
00000100
00000010
00031000
,
00010000
00000000
00000000
00000000
00000100
00000000
00000000
00001000
00000100
00000000
00000000
00000000
00000110
00000000
00000000
00000000
,
00000102
00000010
00001000
00000103
,
00000020
00000000
00000000
00000030
,
00000100
00000000
00000000
00000000
00010000
00000000
00000000
00001000
00100000
00000000
00000000
00000000
00110000
00000000
00000000
00000000
,
01000000
00000000
00000000
00000000
10000000
00000000
00000000
00100000
01000000
00000000
00010000
00000000
01010000
00000000
00000000
00000000
,
00100000
00000000
00000000
00000000
00001000
00000000
00000000
00010000
00001000
00000000
00000000
00000000
00011000
00000000
00000000
00000000
,
00000100
00000000
00000000
00000000
00000010
00000000
00000000
00000001
00001000
00000000
00000010
00000000
00001010
00000000
00000000
00000000
,
00001001
00000000
00000000
00000000
00000010
00000000
00000000
00000100
00010000
00000000
00000000
00000000
00011000
00000000
00000000
00000000
,
00100000
00000000
00000000
00000000
00010000
00000000
00000000
10000000
01000000
00000000
10000000
00000000
10010000
00000000
00000000
00000000
,
01000000
00000000
00000000
00000000
00100000
00000000
00000000
01000000
00001000
00000000
00100000
00000000
01000000
00000000
00000000
00000000
,
00010000
00000000
00000000
00000000
00001000
00000000
00000000
00000010
00000000
00000000
00000000
00000000
00000000
00000000
00000001
00000000
,
00000100
00000000
00000000
00000000
00000010
00000000
00000000
00001000
00000000
00000000
00000000
00000000
00000000
00000000
00000000
00000000
,
00000100
00010000
00000000
00001000
00000000
00000000
01000000
00000000
00100000
00000000
00100000
00000000
00020000
00000000
00000000
00000000
,
00130000
00000000
10000000
00010000
00000000
10000000
00010000
00000000
00200000
00000000
00000000
00000000
01300000
00000000
00000000
00000000
,
00010000
00000000
00000000
00000000
00001000
00000000
00000000
00010000
00000010
00000000
00000000
00000000
00001010
00000000
00000000
00000000
,
00000001
00000000
00001000
00000100
00000000
00001000
00000100
00000000
00020000
00000000
00000000
00000000
00031000
00000000
00000000
00000000
,
00100000
00010000
00000000
10000000
01000000
00000000
10000000
00000000
00100000
00000000
00100000
00000000
02000000
00000000
00000000
00000000
,
03001000
00000000
00010000
00000100
00000000
00010000
00000100
00000000
00002000
00000000
00000000
00000000
00003010
00000000
00000000
00000000
,
00000100
00000000
00000000
00000000
00000001
00000000
00000000
00000010
00000100
00000000
00000000
00000000
00001001
00000000
00000000
00000000
,
00000100
00000000
00000010
00010000
00000000
00000010
00010000
00000000
00002000
00000000
00000000
00000000
00103000
00000000
00000000
00000000
,
00010000
10000000
00000000
01000000
00000000
00000000
00100000
00000000
10000000
00000000
00100000
00000000
00020000
00000000
00000000
00000000
,
00130000
00000000
00001000
00010000
00000000
00010000
00000010
00000000
00002000
00000000
00000000
00000000
00003010
00000000
00000000
00000000
,
00001001
00000000
00000000
00000000
00001000
00000000
00000000
00000100
00000010
00000000
00000000
00000000
00000110
00000000
00000000
00000000
,
00000100
00000000
00010000
00001000
00000000
00001000
00100000
00000000
00020000
00000000
00000000
00000000
01030000
00000000
00000000
00000000
,
00100000
00010000
00000000
00100000
01000000
00000000
00100000
00000000
10000000
00000000
10000000
00000000
00020000
00000000
00000000
00000000
,
00130000
00000000
00001000
00010000
00000000
00010000
00001000
00000000
00020000
00000000
00000000
00000000
00030100
00000000
00000000
00000000
,
00000110
00000000
00000000
00000000
00000001
00000000
00000000
00000001
00000010
00000000
00000000
00000000
00001100
00000000
00000000
00000000
,
00000100
00000000
00010000
00001000
00000000
00001000
01000000
00000000
00200000
00000000
00000000
00000000
10300000
00000000
00000000
00000000
,
00010000
01000000
00000000
00100000
00000000
00000000
10000000
00000000
00010000
00000000
00100000
00000000
20000000
00000000
00000000
00000000
,
30000000
00000000
00000000
00000000
;

//---------------dance-single - ----------------
#NOTES:
     dance-single:
     :
     Beginner:
     1:
     0.091,0.129,0.027,0.009,0.000:
0000
0000
0000
0000
,
0000
0000
0000
0000
,
0000
0000
0000
0000
,
0000
0000
0000
0000
,
1000
0000
0000
0000
,
0001
0000
0000
0000
,
1000
0000
0000
0000
,
0001
0000
0000
0000
,
0010
0000
0010
0000
,
0010
0000
0000
0000
,
0100
0000
0100
0000
,
0100
0000
0000
0000
,
1000
0000
1000
0000
,
1000
0000
0000
0000
,
0001
0000
0001
0000
,
0001
0000
0000
0000
,
1001
0000
0000
0000
,
0001
0000
0000
0000
,
1000
0000
0000
0000
,
0100
0000
0000
0000
,
0110
0000
0000
0000
,
0000
0000
0000
0000
,
0010
0000
0001
0000
,
0010
0000
0001
0000
,
1000
0000
0000
0000
,
0001
0000
0000
0000
,
0100
0000
0000
0000
,
0010
0000
0010
0000
,
0010
0000
0000
0000
,
1000
0000
0000
0000
,
0001
0000
0000
0000
,
0010
0000
0000
0000
,
0100
0000
0000
0000
,
0100
0000
0000
0000
,
1000
0000
0000
0000
,
0001
0000
0000
0000
,
1001
0000
0000
0000
,
1000
0000
0000
0000
,
0010
0000
0010
0000
,
0010
0000
0000
0000
,
0100
0000
0000
0000
,
0000
0000
0000
0000
,
0001
0000
0000
0000
,
1000
0000
1000
0000
,
0100
0000
0000
0000
,
0010
0000
0010
0000
,
0001
0000
0000
0000
,
1000
0000
0001
0000
,
1000
0000
0000
0000
,
0010
0000
0100
0000
,
0010
0000
0000
0000
,
0100
0000
0100
0000
,
0001
0000
0000
0000
,
0010
0000
0100
0000
,
0010
0000
0000
0000
,
0100
0000
0100
0000
,
1000
0000
0000
0000
,
0002
0000
0000
0003
;

//---------------dance-double - ----------------
#NOTES:
     dance-double:
     :
     Beginner:
     1:
     0.096,0.129,0.054,0.009,0.000:
00000000
00000000
00000000
00000000
,
00000000
00000000
00000000
00000000
,
00000000
00000000
00000000
00000000
,
00000000
00000000
00000000
00000000
,
00000001
00000000
00000000
00000000
,
00001000
00000000
00000000
00000000
,
00000001
00000000
00000000
00000000
,
00001000
00000000
00000000
00000000
,
00000100
00000000
00000100
00000000
,
00000100
00000000
00000000
00000000
,
00010000
00000000
00010000
00000000
,
00010000
00000000
00000000
00000000
,
00001000
00000000
00001000
00000000
,
00001000
00000000
00000000
00000000
,
01000000
00000000
01000000
00000000
,
01000000
00000000
00000000
00000000
,
10010000
00000000
00000000
00000000
,
10000000
00000000
00000000
00000000
,
10000000
00000000
00000000
00000000
,
01000000
00000000
00000000
00000000
,
01100000
00000000
00000000
00000000
,
00000000
00000000
00000000
00000000
,
00100000
00000000
00001000
00000000
,
00100000
00000000
00001000
00000000
,
00010000
00000000
00000000
00000000
,
00001000
00000000
00000000
00000000
,
00001000
00000000
00000000
00000000
,
00010000
00000000
00010000
00000000
,
00010000
00000000
00000000
00000000
,
00000010
00000000
00000000
00000000
,
00001000
00000000
00001000
00000000
,
00001000
00000000
00000000
00000000
,
00000001
00000000
00000000
00000000
,
00000010
00000000
00000000
00000000
,
00000100
00000000
00000000
00000000
,
00010000
00000000
00000000
00000000
,
00011000
00000000
00000000
00000000
,
00001000
00000000
00000000
00000000
,
01000000
00000000
01000000
00000000
,
01000000
00000000
00000000
00000000
,
00100000
00000000
00000000
00000000
,
00000000
00000000
00000000
00000000
,
10000000
00000000
00000000
00000000
,
00010000
00000000
00010000
00000000
,
00100000
00000000
00000000
00000000
,
00001000
00000000
00010000
00000000
,
00011000
00000000
00000000
00000000
,
00010000
00000000
00000100
00000000
,
00000100
00000000
00000000
00000000
,
00000010
00000000
00000100
00000000
,
00000110
00000000
00000000
00000000
,
00000010
00000000
00000001
00000000
,
00000010
00000000
00000000
00000000
,
00000100
00000000
00010000
00000000
,
00011000
00000000
00000000
00000000
,
00001000
00000000
01000000
00000000
,
00010000
00000000
00000000
00000000
,
20000000
00000000
00000000
30000000
;

//---------------dance-single - ----------------
#NOTES:
     dance-single:
     :
     Challenge:
     9:
     0.567,0.518,0.152,0.214,0.504:
0000
0000
0000
0000
,
0000
0000
0000
0000
,
0000
0000
0000
0000
,
0000
0000
0000
0000
,
1000
0100
0010
0100
0001
0100
0010
0100
,
1000
0001
0100
0001
0010
0001
0100
0001
,
0010
0100
0001
0100
0010
0100
1000
0100
,
0010
0001
0000
2000
0000
0000
3010
0000
0001
0000
0010
0000
2000
0000
0000
0000
,
3001
0000
0010
0000
1000
0000
0010
0000
0000
0001
0000
1000
0010
0000
0000
0000
,
0100
0001
0000
1000
0000
0100
0000
0010
0001
0000
0010
0000
0100
0000
0000
0000
,
1000
0000
0001
0100
0000
0010
0000
0100
0001
0000
0100
0000
1000
0000
0000
0000
,
0100
0000
0010
1000
0000
0001
0000
1000
0100
0000
0010
0000
0001
0000
0000
0000
,
1001
0000
0101
0000
1010
0000
1100
0100
,
0010
0001
0000
1000
0000
0100
0001
0000
1000
0000
0010
0000
0001
0000
0000
0000
,
0100
0010
0000
1000
0000
0010
0000
0100
0001
0000
0010
0000
0001
0000
1000
0000
,
0100
0010
0000
0001
0000
1000
0010
0000
0001
0000
0010
0000
1000
0000
0000
0000
,
0001
0100
0000
0010
0000
1000
0000
0001
0010
0000
0100
0000
0001
0000
0000
0000
,
0100
0010
0000
0100
0000
1000
0000
0001
0100
0000
0010
0000
0100
0000
0000
0000
,
1010
0101
0011
1100
,
0001
0000
0010
0100
0000
1000
0001
0000
0100
0000
1000
0000
0100
0000
0000
0000
,
0001
1000
0000
0100
0000
0010
0000
0001
1000
0000
0001
0000
0101
0000
0100
0000
,
0010
1000
0000
0100
0000
0010
0100
0000
1000
0000
0010
0000
0001
0000
0010
0000
,
1000
0100
0000
0010
0000
0000
0001
0000
0010
0100
0000
1000
0000
0000
0001
0000
,
0100
1000
0000
0100
0000
0010
0001
0000
0010
0000
1000
0000
0001
0000
0000
0000
,
0100
0000
0001
1000
0000
0100
0010
0000
0001
0000
0000
0000
1100
0000
0000
0000
,
0010
0001
0100
0001
1000
0001
0010
0001
,
0100
0000
0010
1000
0000
0001
0010
0000
0001
0000
0000
0000
1010
0000
0000
0000
,
0100
0001
0000
2000
0000
0000
3010
0000
0100
0000
0100
0000
0002
0000
0000
0000
,
0013
0000
0100
1000
0000
0001
0010
0000
0100
0000
0000
0000
1100
0000
0000
0000
,
0010
1000
0100
1000
0001
1000
0010
1000
,
0100
0000
0010
0001
0000
1000
0100
0000
0010
0000
0000
0000
0101
0000
0000
0000
,
0010
1000
0000
0002
0000
0000
0013
0000
1000
0000
0010
0000
0002
0000
0000
0000
,
1003
0000
0010
0000
1000
0000
0010
0000
0000
0100
0000
0001
0010
0000
0000
0000
,
0100
1000
0000
0001
0000
1000
0000
0100
0010
0000
0001
0000
1000
0000
0000
0000
,
0010
0100
0000
0001
0000
0100
0000
1000
0100
0000
0001
0000
0010
0000
0000
0000
,
0100
1000
0000
0001
0000
0010
0000
0001
1000
0000
0010
0000
0001
0000
0000
0000
,
1001
0011
1010
1100
,
0001
0000
1000
0001
0000
0100
1000
0000
0100
0000
0010
0000
0001
0000
0000
0000
,
0010
1000
0000
0001
0000
0010
0000
0100
1000
0000
0001
0000
0100
0000
0001
0000
,
0010
0100
0000
1000
0000
0100
0010
0000
1000
0000
0010
0000
0001
0000
1000
0000
,
0010
0100
0000
0001
0000
0000
0001
0000
1000
0001
0000
0010
0000
0000
0100
0000
,
1000
0001
0000
0200
0000
0000
0310
0000
0001
0000
0010
0000
2000
0000
0000
0000
,
3001
0000
0010
0100
0000
0100
1000
0000
0002
0000
0000
0000
0103
0000
0000
0000
,
0010
1000
0010
0100
0010
0001
0010
1000
,
0001
0000
0010
0001
0000
0001
0100
0000
0020
0000
0000
0000
1030
0000
0000
0000
,
0001
0010
0000
0200
0000
0000
1300
0000
0001
0000
0100
0000
2000
0000
0000
0000
,
3100
0000
0001
1000
0000
1000
0100
0000
0020
0000
0000
0000
1030
0000
0000
0000
,
0010
0001
0010
0100
0010
1000
0010
0100
,
0010
0000
0001
0100
0000
0100
1000
0000
0200
0000
0000
0000
0310
0000
0000
0000
,
1000
0100
0000
0002
0000
0000
0103
0000
1000
0000
0010
0000
0200
0000
0000
0000
,
0301
0000
1000
0100
0000
0100
0001
0000
0020
0000
0000
0000
1030
0000
0000
0000
,
0001
0010
0001
0100
0001
1000
0001
0010
,
0001
0000
1000
0010
0000
0010
0001
0000
0200
0000
0000
0000
1300
0000
0000
0000
,
0001
0010
0000
0200
0000
0000
0301
0000
0100
0000
1000
0000
0020
0000
0000
0000
,
0130
0000
0001
0010
0000
0010
1000
0000
0200
0000
0000
0000
0301
0000
0000
0000
,
0010
0001
0010
0100
1000
0001
1000
0010
,
0100
0000
0001
0100
0000
0100
1000
0000
0020
0000
0000
0000
0031
0000
0000
0000
,
1000
0001
0000
0200
0000
0000
0310
0000
0001
0000
0010
0000
2000
0000
0000
0000
,
3000
0000
0000
0000
;

//---------------dance-double - ----------------
#NOTES:
     dance-double:
     :
     Challenge:
     9:
     0.569,0.518,0.161,0.214,0.504:
00000000
00000000
00000000
00000000
,
00000000
00000000
00000000
00000000
,
00000000
00000000
00000000
00000000
,
00000000
00000000
00000000
00000000
,
00000001
00000100
00000010
00000100
00001000
00000100
00000010
00000100
,
00000001
00001000
00000100
00001000
00000010
00001000
00000001
00001000
,
00000100
00010000
00000010
00010000
00001000
00010000
00100000
00010000
,
00100000
10000000
00000000
00020000
00000000
00000000
00130000
00000000
10000000
00000000
00010000
00000000
02000000
00000000
00000000
00000000
,
13000000
00000000
00100000
00000000
01000000
00000000
00001000
00000000
00000000
00010000
00000000
00001000
00010000
00000000
00000000
00000000
,
00000100
00000010
00000000
00001000
00000000
00000010
00000000
00000001
00000100
00000000
00001000
00000000
00010000
00000000
00000000
00000000
,
00100000
00000000
10000000
00010000
00000000
01000000
00000000
10000000
01000000
00000000
00010000
00000000
00100000
00000000
00000000
00000000
,
01000000
00000000
00010000
00001000
00000000
00010000
00000000
00000100
00001000
00000000
00000001
00000000
00000100
00000000
00000000
00000000
,
00000110
00000000
00000101
00000000
00001010
00000000
00001100
00000100
,
00010000
00001000
00000000
00100000
00000000
01000000
00010000
00000000
01000000
00000000
10000000
00000000
00100000
00000000
00000000
00000000
,
00010000
00001000
00000000
00000100
00000000
00000001
00000000
00000010
00000100
00000000
00010000
00000000
00001000
00000000
01000000
00000000
,
00100000
00010000
00000000
00010000
00000000
00100000
10000000
00000000
01000000
00000000
00100000
00000000
00010000
00000000
00000000
00000000
,
00100000
00001000
00000000
00010000
00000000
00000010
00000000
00001000
00000100
00000000
00010000
00000000
00001000
00000000
00000000
00000000
,
00000100
00000001
00000000
00000010
00000000
00000100
00000000
00000001
00000100
00000000
00010000
00000000
00001000
00000000
00000000
00000000
,
00011000
00101000
00110000
01100000
,
10000000
00000000
00010000
01000000
00000000
01000000
00001000
00000000
00100000
00000000
01000000
00000000
00010000
00000000
00000000
00000000
,
00001000
00010000
00000000
00000100
00000000
00010000
00000000
00000010
00001000
00000000
00000010
00000000
00001010
00000000
00001000
00000000
,
00000100
00000010
00000000
00001000
00000000
00000010
00000001
00000000
00001000
00000000
00000100
00000000
00000010
00000000
00001000
00000000
,
00010000
00001000
00000000
01000000
00000000
00000000
00100000
00000000
00010000
00100000
00000000
10000000
00000000
00000000
00010000
00000000
,
01000000
10000000
00000000
01000000
00000000
00001000
00010000
00000000
00001000
00000000
00010000
00000000
00000100
00000000
00000000
00000000
,
00000010
00000000
00000001
00000010
00000000
00000100
00001000
00000000
00000010
00000000
00000000
00000000
00001001
00000000
00000000
00000000
,
00001000
00000100
00000010
00000100
00000001
00000100
00010000
00001000
,
01000000
00000000
00100000
10000000
00000000
00010000
01000000
00000000
10100000
00000000
00000000
00000000
01010000
00000000
00000000
00000000
,
00010000
00100000
00000000
02000000
00000000
00000000
03010000
00000000
01000000
00000000
01000000
00000000
20000000
00000000
00000000
00000000
,
30100000
00000000
01000000
00001000
00000000
00010000
00001000
00000000
00010000
00000000
00000000
00000000
00010100
00000000
00000000
00000000
,
00001000
00010000
00000100
00010000
00000010
00010000
00000100
00001000
,
00000010
00000000
00001000
00000001
00000000
00000100
00001000
00000000
00010000
00000000
00000000
00000000
00011000
00000000
00000000
00000000
,
00001000
00100000
00000000
00020000
00000000
00000000
00130000
00000000
10000000
00000000
00100000
00000000
00020000
00000000
00000000
00000000
,
01030000
00000000
00001000
00000000
01000000
00000000
00001000
00000000
00000000
00010000
00000000
00000100
00001000
00000000
00000000
00000000
,
00000010
00001000
00000000
00000001
00000000
00001000
00000000
00000100
00000010
00000000
00001000
00000000
00000010
00000000
00000000
00000000
,
00000001
00000100
00000000
00001000
00000000
00010000
00000000
00001000
00010000
00000000
00001000
00000000
00100000
00000000
00000000
00000000
,
01000000
10000000
00000000
00100000
00000000
01000000
00000000
00100000
10000000
00000000
00010000
00000000
00100000
00000000
00000000
00000000
,
00110000
00101000
00011000
00010010
,
00001000
00000000
00000010
00001000
00000000
00000001
00000010
00000000
00000100
00000000
00000001
00000000
00000100
00000000
00000000
00000000
,
00010000
00001000
00000000
00100000
00000000
00010000
00000000
00100000
10000000
00000000
00100000
00000000
00010000
00000000
01000000
00000000
,
00001000
00010000
00000000
00000100
00000000
00000010
00001000
00000000
00000010
00000000
00000001
00000000
00001000
00000000
00000010
00000000
,
00000100
00000001
00000000
00000100
00000000
00000000
00001000
00000000
00010000
00100000
00000000
10000000
00000000
00000000
00010000
00000000
,
00100000
01000000
00000000
20000000
00000000
00000000
30100000
00000000
00010000
00000000
00100000
00000000
02000000
00000000
00000000
00000000
,
03010000
00000000
00100000
00001000
00000000
00001000
00010000
00000000
00000200
00000000
00000000
00000000
00000310
00000000
00000000
00000000
,
00000001
00000100
00000010
00000100
00001000
00010000
00100000
00010000
,
00001000
00000000
00100000
01000000
00000000
01000000
00010000
00000000
02000000
00000000
00000000
00000000
13000000
00000000
00000000
00000000
,
00100000
01000000
00000000
20000000
00000000
00000000
31000000
00000000
00001000
00000000
00001000
00000000
00020000
00000000
00000000
00000000
,
00030010
00000000
00001000
00000001
00000000
00000001
00000010
00000000
00000200
00000000
00000000
00000000
00010300
00000000
00000000
00000000
,
00001000
00010000
00100000
00010000
00001000
00010000
01000000
00100000
,
00010000
00000000
10000000
01000000
00000000
01000000
00010000
00000000
00002000
00000000
00000000
00000000
00013000
00000000
00000000
00000000
,
00000010
00001000
00000000
00000200
00000000
00000000
00000301
00000000
00001000
00000000
00000010
00000000
00000002
00000000
00000000
00000000
,
00001003
00000000
00000001
00000100
00000000
00000100
00001000
00000000
00020000
00000000
00000000
00000000
00031000
00000000
00000000
00000000
,
00010000
00001000
00000010
00001000
00010000
00001000
00000100
00001000
,
00010000
00000000
00001000
00100000
00000000
00100000
01000000
00000000
20000000
00000000
00000000
00000000
30100000
00000000
00000000
00000000
,
01000000
00010000
00000000
00200000
00000000
00000000
01300000
00000000
00010000
00000000
00001000
00000000
00000020
00000000
00000000
00000000
,
00000031
00000000
00000010
00001000
00000000
00001000
00010000
00000000
00200000
00000000
00000000
00000000
01300000
00000000
00000000
00000000
,
00010000
10000000
00100000
10000000
01000000
10000000
00010000
00100000
,
01000000
00000000
00010000
00001000
00000000
00001000
00000100
00000000
00000002
00000000
00000000
00000000
00000103
00000000
00000000
00000000
,
00001000
00010000
00000000
00200000
00000000
00000000
10300000
00000000
00010000
00000000
01000000
00000000
20000000
00000000
00000000
00000000
,
30000000
00000000
00000000
00000000
;
