#TITLE:Good Luck, Babe!;
#SUBTITLE:;
#ARTIST:Chappell Roan;
#TITLETRANSLIT:;
#SUBTITLETRANSLIT:;
#ARTISTTRANSLIT:;
#GENRE:Good Luck, Babe!;
#CREDIT:[Ness];
#BANNER:Good Luck, Babe!.png;
#BACKGROUND:Good Luck, Babe!-bg.png;
#LYRICSPATH:;
#CDTITLE:;
#MUSIC:Good Luck, Babe!.mp3;
#OFFSET:-0.015000;
#SAMPLESTART:36.689026;
#SAMPLELENGTH:20.406136;
#LASTBEATHINT:283.596832;
#SELECTABLE:YES;
#BPMS:0.000000=116.860001
,39.000000=117.000000
,52.000000=117.099998
,72.000000=116.800003
,80.000000=116.199997
,96.000000=115.699997
,128.000000=116.000000
,136.000000=117.000000
,184.000000=117.080002
,196.000000=117.300003
,212.000000=117.080002
,236.000000=116.699997
,256.000000=110.000000
,260.000000=102.800003
,261.000000=106.000000
,262.000000=103.000000
,263.000000=105.000000
,264.000000=100.000000
,265.000000=97.000000
,266.000000=90.000000
,267.000000=91.000000
,268.000000=90.000000
,272.000000=86.000000
,274.000000=84.000000
,275.000000=81.000000
,278.000000=78.000000
,279.000000=77.000000
;
#STOPS:
;
#BGCHANGES:;
#KEYSOUNDS:;
#ATTACKS:;

//---------------dance-single - ----------------
#NOTES:
     dance-single:
     :
     Hard:
     7:
     0.451738,0.443781,0.187190,0.347638,0.086909,473.000000,445.000000,28.000000,52.000000,0.000000,0.000000,0.451738,0.443781,0.187190,0.347638,0.086909,473.000000,445.000000,28.000000,52.000000,0.000000,0.000000:
0000
0000
0000
0000
,
0000
0000
0000
0000
,
0001
1000
0001
1000
0001
0020
0000
0130
,
1000
0100
1000
0100
1000
0002
0000
0103
,
0001
0100
0001
0100
0001
2000
0000
3100
,
0010
0001
0010
0001
1000
0010
1000
0001
,
0100
0000
0101
0100
0010
0000
1000
0001
,
1000
0000
1100
0100
0010
0001
1000
0020
,
0000
1030
0001
1000
0100
0010
0001
0100
,
0010
0100
0001
2000
0000
3001
0100
0010
,
1000
0000
1001
1000
0001
0000
0010
1000
,
0010
0000
1001
0001
1000
0001
0010
0200
,
0000
0310
0001
1000
0100
0010
0100
1000
,
0020
2030
3100
1100
,
2000
0000
0000
0000
3001
0100
0001
0100
0002
0000
0010
0000
0013
0000
0000
0000
,
0100
0000
0000
0000
1000
0100
1000
0100
2000
0000
0001
0000
3001
0000
0000
0000
,
0100
0000
0000
0000
0010
1000
0010
1000
0020
0000
0100
0000
0130
0000
0001
0000
,
1000
0000
1001
0000
0010
0000
0100
0220
,
0330
0001
0100
1000
0100
0000
0210
0000
,
0310
0000
1002
0000
0103
0001
0010
0200
,
0000
1300
0010
0001
0010
0000
0110
0010
,
0200
0000
1300
0001
0000
1000
0100
0020
,
0000
0031
1000
0001
0100
0000
0102
0000
,
0103
0000
2010
0000
3100
0000
0010
0002
,
0000
0000
1003
0000
0010
0000
0001
0000
0010
0000
0000
0010
0100
0000
0001
0000
,
1000
0001
0100
0020
0000
1030
0100
0010
,
0000
1001
0100
0020
0000
0031
1000
0001
,
0000
1001
0010
0200
0000
1300
0010
2000
,
0000
3001
0010
0100
0020
0000
0031
1000
,
0001
0100
0010
2000
0000
3100
0010
0001
,
0000
1001
0010
0002
0000
1003
0001
0100
,
0000
1001
0010
2000
0000
3001
1000
0200
,
0000
0310
0100
1000
0001
0000
1000
0010
,
0100
0001
0010
0100
0000
0010
0001
1000
,
0100
0000
0010
0000
0100
0010
0000
0000
0001
0000
0000
1000
0001
0000
0000
0000
,
0100
0000
0001
0000
1000
0001
0000
0000
1000
0000
0000
0100
1000
0000
0100
0000
,
0010
0000
0001
0000
0010
0001
0000
0000
1000
0000
0000
0001
1000
0000
0001
0000
,
0100
0000
0010
0000
1000
0010
0000
0000
1000
0000
0000
0001
0100
0000
0001
0000
,
0100
0000
0001
0000
1000
0000
0100
1000
0000
0000
0000
0000
0001
0000
1000
0000
,
0010
1000
0010
0000
0100
0000
0020
0000
0000
0000
1030
0000
0001
0000
0011
0000
,
0000
0001
1000
1100
0000
1000
0001
1000
,
0010
0000
0100
0010
0000
0000
1000
0000
0000
0000
0001
0000
1000
0000
0100
0000
,
0010
0000
0001
0010
0000
0000
0001
0000
0000
0000
1000
0000
0100
0000
1000
0000
,
0001
0000
0000
1000
0000
0000
0100
0000
0000
0000
1000
0000
0010
0000
0100
0000
,
0001
0000
0000
1000
0000
0000
1001
0000
0000
0000
1000
0000
0001
0000
1000
0000
,
0010
0000
0000
0100
0000
0000
0110
0000
0000
0000
0001
0000
0010
0000
0100
0000
,
1000
0000
0000
0010
0000
0000
0200
0000
0000
0000
0000
0000
0300
0000
0001
0000
,
0010
0000
0000
0001
0000
0000
1000
0000
0000
0000
0001
0000
0100
0000
0010
0000
,
1000
0000
0000
0100
0000
0000
0010
0000
0100
0000
1000
0000
0000
0000
0001
0000
,
1000
0010
0100
0001
1000
0100
0010
2001
,
0000
3010
0001
0010
1000
0000
2100
0000
,
3001
0000
0102
0000
0013
0100
1000
0020
,
0000
1030
0001
1000
0200
0000
0310
0001
,
1000
0001
0100
0010
0000
1000
0001
1002
,
0000
1003
0010
0001
0010
1000
0001
0100
,
1000
0100
0001
0010
0100
1000
0010
0200
,
0000
0000
0310
0000
1000
0000
0001
0000
1000
0000
0000
1000
0100
0000
0010
0000
,
0001
0010
0100
2000
0000
3001
0010
1000
,
0000
1001
0100
0002
0000
1003
0010
1000
,
0000
1001
0010
2000
0000
3001
1000
0200
,
0000
1300
0010
1000
0001
0000
0010
0001
,
0010
0100
1000
0001
0000
1000
0010
0100
,
0000
1001
0100
0020
0000
0031
1000
0100
,
0000
1001
0010
0200
0000
1300
0010
2000
,
0000
3100
0010
0001
0200
0000
0301
0010
,
0100
1000
0001
0200
0000
0310
1000
0002
,
0000
1003
0100
1000
0001
0000
0010
0001
,
0010
0100
1000
0002
0000
1003
0010
0200
,
0000
0301
1000
0001
0100
0000
0010
1000
,
0100
1000
0001
0100
0010
0100
0001
1000
;

//---------------dance-single - ----------------
#NOTES:
     dance-single:
     :
     Medium:
     6:
     0.336177,0.302553,0.106965,0.013371,0.000000,352.000000,336.000000,16.000000,2.000000,0.000000,0.000000,0.336177,0.302553,0.106965,0.013371,0.000000,352.000000,336.000000,16.000000,2.000000,0.000000,0.000000:
0000
0000
0000
0000
,
0000
0000
0000
0000
,
0001
0000
1000
0000
0001
0010
0000
0100
,
1000
0000
0010
0000
1000
0001
0000
1000
,
0100
0000
0010
0000
0001
0100
0000
0010
,
1000
0000
1000
0000
0001
0000
1000
0100
,
1000
0000
0001
0000
0100
0000
0010
0100
,
0010
0000
1000
0000
0100
0000
0010
0001
,
0010
0000
0100
0000
1000
0001
1000
0000
,
0010
0000
0001
0000
0100
0000
0010
0100
,
0001
0000
1000
0000
0100
0000
0010
0100
,
1000
0000
0001
0000
0010
0000
0100
1000
,
0010
0000
1000
0001
1000
0000
0010
0000
,
0100
0110
1001
0000
,
0001
0000
1000
0000
0001
0000
1000
0010
,
0100
0001
0010
0100
,
0110
0000
1000
0000
0001
0000
0010
0001
,
0100
0000
0010
0000
1000
0000
0001
1000
,
0000
0001
0100
0000
0010
0000
1001
0000
,
0100
0000
1001
0000
0010
0000
0000
1000
,
0000
0001
0010
0000
0100
0000
1000
0001
,
1000
0000
0010
0000
0100
0000
0000
0001
,
0000
0010
0100
0000
1000
0000
0110
0000
,
0001
0000
0110
0000
1000
0000
0000
0010
,
0000
1000
0100
0000
0010
0000
0001
1000
,
0010
0000
0100
0001
0010
0000
0100
0100
,
0000
1000
0001
1000
0000
0001
0100
0001
,
0000
1000
0001
1000
0000
0000
1001
0000
,
0010
0000
1001
0000
0100
0000
0001
0100
,
0010
0000
1000
0001
0000
1000
0100
0010
,
0000
0100
1000
0100
0000
0010
0001
0100
,
0000
0001
1000
0001
0000
0000
1001
0000
,
0100
1001
0010
1001
,
0100
0000
0001
0010
0000
0100
1000
0000
,
0001
0001
0001
0000
1000
0000
0001
0000
,
0100
0100
0100
0000
0010
0000
0100
0000
,
0010
0010
0010
0000
1000
0000
0100
0000
,
0010
0010
0010
0000
0100
0000
1000
0001
,
1000
0000
0010
0000
0100
0000
0001
0010
,
0001
0000
0010
0000
0100
0000
1000
0100
,
1000
0000
0001
0000
1000
0000
0010
1000
,
0010
0000
0100
0000
0001
0100
0001
0100
,
0001
0000
0010
0000
0100
0000
1000
0001
,
1000
0000
0100
0000
0010
0000
0001
0010
,
0001
0000
0100
0000
0010
0000
1000
0010
,
1000
0001
0100
0010
,
2000
0100
0100
3100
,
0001
1000
0001
1000
,
0002
0100
0100
0103
,
0010
0000
1000
0000
0100
0010
0100
0010
,
0000
0001
1000
0000
0010
0000
1001
0000
,
0100
0000
1001
0000
0010
0000
1000
0100
,
0000
0010
0001
0000
0100
0000
0001
1000
,
0001
0000
0010
0100
0000
1000
0000
0010
,
0000
0100
0010
0000
0100
0000
1001
0000
,
0001
0000
1001
0000
1000
0000
0001
0010
,
0000
0100
1000
0000
0010
0000
1000
0001
,
1000
0000
0010
0100
0000
0001
0010
0100
,
0000
0010
0100
0010
0000
0100
1000
0001
,
0000
1000
0010
1000
0000
0000
0001
0010
,
0000
0100
1000
0000
0010
0000
1000
0001
,
1000
0000
0001
0100
0000
0010
1000
0100
,
0000
1000
0001
1000
0000
0001
0100
0010
,
0000
0100
0001
0100
0000
0010
1000
0010
,
0000
1000
0001
0000
1000
0000
0100
0010
,
0100
0000
1000
0010
0000
0100
0001
0010
,
0000
0100
1000
0000
0001
0000
1000
0001
,
0100
0000
0001
0010
0000
0100
1000
0010
,
0000
1000
0001
0000
1000
0000
0100
1000
,
0100
0000
0010
0001
0000
1000
0000
0000
;

//---------------dance-single - ----------------
#NOTES:
     dance-single:
     :
     Easy:
     3:
     0.221571,0.209836,0.000000,0.213931,0.000000,232.000000,232.000000,0.000000,32.000000,0.000000,0.000000,0.221571,0.209836,0.000000,0.213931,0.000000,232.000000,232.000000,0.000000,32.000000,0.000000,0.000000:
// measure 0
0000
0000
0000
0000
,  // measure 1
0000
0000
0000
0000
,  // measure 2
0010
1000
0100
0000
,  // measure 3
1000
0001
1000
0000
,  // measure 4
0001
0100
0010
0000
,  // measure 5
1000
1000
0001
0001
,  // measure 6
0100
0010
0100
0000
,  // measure 7
0010
1000
0010
0000
,  // measure 8
2000
3000
0002
0003
,  // measure 9
1000
0100
0001
0100
,  // measure 10
1000
0001
1000
0000
,  // measure 11
0001
0100
0010
0000
,  // measure 12
2000
3000
0002
0003
,  // measure 13
0010
0100
1000
0000
,  // measure 14
0002
0003
0002
0013
,  // measure 15
2000
3000
2000
3010
,  // measure 16
0200
0300
0200
0310
,  // measure 17
0002
0003
0002
1003
,  // measure 18
0100
0010
0100
0010
,  // measure 19
0100
0010
0200
0300
,  // measure 20
1000
0001
1000
0001
,  // measure 21
0200
0300
0020
0030
,  // measure 22
1000
0001
1000
0001
,  // measure 23
0010
0100
0020
0030
,  // measure 24
0200
0300
2000
3000
,  // measure 25
0001
0010
0100
1000
,  // measure 26
0100
0010
0100
0010
,  // measure 27
0001
1000
0001
1000
,  // measure 28
0001
0100
1000
0100
,  // measure 29
0001
0100
1000
0100
,  // measure 30
0001
1000
0001
1000
,  // measure 31
0010
0100
0010
0100
,  // measure 32
0001
0010
0100
1000
,  // measure 33
0100
0010
0001
1000
,  // measure 34
0200
0300
0020
0030
,  // measure 35
0200
0300
0020
0030
,  // measure 36
0002
0003
0200
0300
,  // measure 37
2000
3000
0020
0030
,  // measure 38
0100
0100
0100
0010
,  // measure 39
1000
0100
0010
0000
,  // measure 40
0001
0001
0001
1000
,  // measure 41
0010
0100
0100
0000
,  // measure 42
0010
0010
0010
1000
,  // measure 43
0001
0001
0001
0010
,  // measure 44
0100
0100
1000
1000
,  // measure 45
0010
0010
0001
0001
,  // measure 46
0100
0000
0010
0000
,  // measure 47
0100
0010
0100
0010
,  // measure 48
0100
0010
0100
0010
,  // measure 49
1000
0001
0100
0010
,  // measure 50
1000
0001
0100
0001
,  // measure 51
1000
0100
2000
3000
,  // measure 52
0010
0100
0001
0010
,  // measure 53
0200
0300
2000
3000
,  // measure 54
0010
1000
0001
0010
,  // measure 55
0100
1000
0020
0030
,  // measure 56
0200
0300
0002
0003
,  // measure 57
0010
0001
1000
0100
,  // measure 58
0010
0001
0100
0010
,  // measure 59
1000
0001
0100
0010
,  // measure 60
1000
0100
1000
0001
,  // measure 61
1000
0100
0010
0001
,  // measure 62
0100
0010
1000
0010
,  // measure 63
0100
0001
0010
0100
,  // measure 64
1000
0001
1000
0010
,  // measure 65
0100
0001
0010
0100
,  // measure 66
1000
0010
0001
0010
,  // measure 67
1000
0100
0010
0001
,  // measure 68
1000
0100
0001
0100
,  // measure 69
1000
0001
1000
0001
;

//---------------dance-single - ----------------
#NOTES:
     dance-single:
     :
     Beginner:
     1:
     0.120336,0.139389,0.000000,0.040112,0.000000,126.000000,126.000000,0.000000,6.000000,0.000000,0.000000,0.120336,0.139389,0.000000,0.040112,0.000000,126.000000,126.000000,0.000000,6.000000,0.000000,0.000000:
// measure 0
0000
0000
0000
0000
,  // measure 1
0000
0000
0000
0000
,  // measure 2
0001
0000
0001
0000
,  // measure 3
1000
0000
1000
0000
,  // measure 4
0100
0000
0100
0000
,  // measure 5
0010
0000
0010
0000
,  // measure 6
0001
0000
0000
1000
,  // measure 7
1000
0000
0000
0010
,  // measure 8
0010
0000
0100
0000
,  // measure 9
0010
0000
0100
0000
,  // measure 10
0010
0000
0000
1000
,  // measure 11
1000
0000
0000
0001
,  // measure 12
0001
0000
0010
0000
,  // measure 13
0100
0000
1000
0000
,  // measure 14
0010
0000
0010
0010
,  // measure 15
0010
0000
0010
0000
,  // measure 16
0100
0000
0100
0100
,  // measure 17
0100
0000
0100
0000
,  // measure 18
0001
0000
0001
0000
,  // measure 19
1000
0000
1000
0000
,  // measure 20
0010
0000
0100
0000
,  // measure 21
0010
0000
0100
0000
,  // measure 22
0001
0000
0001
0000
,  // measure 23
0001
0000
0001
0000
,  // measure 24
0010
0000
0010
0000
,  // measure 25
0010
0000
0010
0000
,  // measure 26
0100
0000
0010
0000
,  // measure 27
0100
0000
0010
0000
,  // measure 28
0100
0000
1000
0000
,  // measure 29
0010
0000
1000
0000
,  // measure 30
0001
0000
0100
0000
,  // measure 31
0001
0000
0010
0000
,  // measure 32
0100
0000
0010
0000
,  // measure 33
0100
0000
0010
0000
,  // measure 34
0200
0000
0300
0000
,  // measure 35
1000
0000
0000
0000
,  // measure 36
0020
0000
0030
0000
,  // measure 37
0001
0000
0000
0000
,  // measure 38
2000
0000
3000
0000
,  // measure 39
0002
0000
0003
0000
,  // measure 40
0100
0000
0100
0000
,  // measure 41
0010
0000
0010
0000
,  // measure 42
2000
0000
3000
0000
,  // measure 43
0002
0000
0003
0000
,  // measure 44
0010
0000
0010
0000
,  // measure 45
0010
0000
0010
0000
,  // measure 46
0100
0000
0000
0000
,  // measure 47
0010
0000
0000
0000
,  // measure 48
0100
0000
0000
0000
,  // measure 49
1000
0000
0000
0000
,  // measure 50
0001
0000
0001
0000
,  // measure 51
1000
0000
1000
0000
,  // measure 52
0010
0000
0100
0000
,  // measure 53
0010
0000
0100
0000
,  // measure 54
0001
0000
0001
0000
,  // measure 55
0010
0000
0010
0000
,  // measure 56
0100
0000
0100
0000
,  // measure 57
1000
0000
1000
0000
,  // measure 58
0010
0000
0100
0000
,  // measure 59
0010
0000
0100
0000
,  // measure 60
0001
0000
0001
0000
,  // measure 61
1000
0000
1000
0000
,  // measure 62
0010
0000
0100
0000
,  // measure 63
0001
0000
1000
0000
,  // measure 64
0100
0000
0100
0000
,  // measure 65
0100
0000
0100
0000
,  // measure 66
0010
0000
0010
0000
,  // measure 67
0010
0000
0010
0000
,  // measure 68
0001
0000
0001
0000
,  // measure 69
1000
0000
1000
0000
;
