#TITLE:Giudecca;
#SUBTITLE:;
#ARTIST:D.J.SETUP;
#TITLETRANSLIT:;
#SUBTITLETRANSLIT:;
#ARTISTTRANSLIT:;
#GENRE:DDR ULTRAMIX 3;
#CREDIT:;
#BANNER:Giudecca-bn.jpg;
#BACKGROUND:Giudecca-bg.jpg;
#LYRICSPATH:;
#CDTITLE:;
#MUSIC:Giudecca.mp3;
#OFFSET:-0.430000;
#SAMPLESTART:87.678146;
#SAMPLELENGTH:12.580643;
#SELECTABLE:YES;
#DISPLAYBPM:155.000000;
#BPMS:0.000000=155.000000
;
#STOPS:31.000000=0.213000
;
#BGCHANGES:;
#KEYSOUNDS:;
#ATTACKS:;

//---------------dance-single - ----------------
#NOTES:
     dance-single:
     :
     Beginner:
     1:
     0.127863,0.206209,0.041057,0.073903,0.000000,109.000000,104.000000,5.000000,9.000000,0.000000,0.000000,0.127863,0.206209,0.041057,0.073903,0.000000,109.000000,104.000000,5.000000,9.000000,0.000000,0.000000:
// measure 0
0000
0000
0000
0000
,  // measure 1
0000
0000
0000
0000
,  // measure 2
0000
0000
0000
0000
,  // measure 3
0000
0000
0000
0000
,  // measure 4
1000
0000
0000
0000
,  // measure 5
0001
0000
0000
0000
,  // measure 6
1000
0000
0000
0000
,  // measure 7
0001
0000
0000
1001
,  // measure 8
1001
0000
1000
0000
,  // measure 9
1000
0000
1000
0000
,  // measure 10
0001
0000
0001
0000
,  // measure 11
0001
0000
0001
0000
,  // measure 12
0010
0000
0010
0000
,  // measure 13
0010
0000
0010
0000
,  // measure 14
0100
0000
0100
0000
,  // measure 15
0100
0000
0100
0000
,  // measure 16
2000
0000
0000
3000
,  // measure 17
1000
0000
0000
0000
,  // measure 18
0002
0000
0000
0003
,  // measure 19
0001
0000
0000
0000
,  // measure 20
0200
0000
0000
0300
,  // measure 21
0100
0000
0000
0000
,  // measure 22
0020
0000
0000
0030
,  // measure 23
0010
0000
0010
0000
,  // measure 24
1000
1000
0000
1000
,  // measure 25
0000
1000
0000
0000
,  // measure 26
0100
0100
0000
0100
,  // measure 27
0000
0100
0000
0000
,  // measure 28
0010
0010
0000
0010
,  // measure 29
0000
0010
0000
0000
,  // measure 30
0001
0001
0000
0001
,  // measure 31
0000
0001
0000
0100
,  // measure 32
0200
0000
0000
0300
,  // measure 33
0100
0000
0100
0000
,  // measure 34
0020
0000
0000
0030
,  // measure 35
0010
0000
0010
0000
,  // measure 36
2000
0000
0000
3000
,  // measure 37
1000
0000
1000
0000
,  // measure 38
0002
0000
0000
0003
,  // measure 39
0001
0000
0001
0000
,  // measure 40
0010
0010
0000
0000
,  // measure 41
0100
0100
0000
0000
,  // measure 42
1000
1000
0000
0000
,  // measure 43
0001
0001
0000
0000
,  // measure 44
1000
1000
0000
0000
,  // measure 45
0010
0010
0000
0000
,  // measure 46
0100
0100
0000
0000
,  // measure 47
0002
0000
0000
0003
,  // measure 48
0001
0000
0000
0000
,  // measure 49
1000
0000
0000
0000
,  // measure 50
0010
0000
0000
0000
,  // measure 51
0100
0000
0000
0000
,  // measure 52
0001
0000
0000
0000
,  // measure 53
0010
0000
0000
0000
,  // measure 54
0100
0000
0000
0000
,  // measure 55
1000
0000
0000
0000
,  // measure 56
0001
0000
0000
0000
,  // measure 57
0100
0000
0000
0000
,  // measure 58
1000
0000
0000
0000
,  // measure 59
0100
0000
0000
0000
,  // measure 60
0001
0000
0000
0000
,  // measure 61
0010
0000
0000
0000
,  // measure 62
1000
0000
0000
0000
,  // measure 63
0010
0000
0000
0000
,  // measure 64
0001
0000
0001
0000
,  // measure 65
0001
0000
0001
0000
,  // measure 66
1000
0000
1000
0000
,  // measure 67
1000
0000
1000
0000
,  // measure 68
1001
0000
0000
0000
,  // measure 69
1001
0000
0000
0000
,  // measure 70
0010
0000
0100
0000
,  // measure 71
0010
0000
0000
1001
;

//---------------dance-single - ----------------
#NOTES:
     dance-single:
     :
     Easy:
     3:
     0.231092,0.294584,0.147805,0.344879,0.000000,197.000000,179.000000,18.000000,42.000000,0.000000,0.000000,0.231092,0.294584,0.147805,0.344879,0.000000,197.000000,179.000000,18.000000,42.000000,0.000000,0.000000:
// measure 0
0000
0000
0000
0000
,  // measure 1
0000
0000
0000
0000
,  // measure 2
0000
0000
0000
0000
,  // measure 3
0000
0000
0000
0000
,  // measure 4
2000
0000
3100
0000
,  // measure 5
0200
0000
0301
0000
,  // measure 6
0002
0000
1003
0000
,  // measure 7
0000
0200
0300
0110
,  // measure 8
0010
0010
0010
0000
,  // measure 9
0100
0100
0100
0000
,  // measure 10
1000
1000
1000
0000
,  // measure 11
0001
0001
0001
0000
,  // measure 12
1000
0000
0010
0000
,  // measure 13
0100
0000
0001
0000
,  // measure 14
1000
0000
0010
0000
,  // measure 15
2000
0001
3001
1001
,  // measure 16
0001
1000
0100
0000
,  // measure 17
0010
0001
1000
0000
,  // measure 18
0010
0100
0001
0000
,  // measure 19
1000
0010
0001
0000
,  // measure 20
0010
1000
0100
0000
,  // measure 21
1000
0001
0100
0000
,  // measure 22
0001
0100
1000
0000
,  // measure 23
0020
0100
0130
0110
,  // measure 24
0010
1000
0100
0000
,  // measure 25
0001
1000
0001
0000
,  // measure 26
1000
0001
0100
0000
,  // measure 27
1000
0010
0100
0000
,  // measure 28
0001
0010
0100
0000
,  // measure 29
1000
0100
0001
0000
,  // measure 30
2000
3000
0002
0003
,  // measure 31
1000
0001
1000
0000
,  // measure 32
1002
0000
0103
0000
,  // measure 33
2000
0000
3100
0000
,  // measure 34
0002
0000
0013
0000
,  // measure 35
0200
0000
1300
0000
,  // measure 36
1000
0100
1000
0000
,  // measure 37
0010
0100
0010
0000
,  // measure 38
0100
1000
0100
0000
,  // measure 39
1000
0001
1000
0000
,  // measure 40
2001
0000
3010
0001
,  // measure 41
0200
0000
0310
1000
,  // measure 42
0020
0000
0130
0001
,  // measure 43
0020
0000
0130
1000
,  // measure 44
2200
0000
3300
0000
,  // measure 45
0022
0000
0033
0000
,  // measure 46
0101
0000
1100
0000
,  // measure 47
2000
0001
3001
1001
,  // measure 48
0001
0000
0010
0001
,  // measure 49
1000
0000
0010
1000
,  // measure 50
0001
0000
0100
1000
,  // measure 51
0001
0000
0100
0001
,  // measure 52
1000
0000
0010
0100
,  // measure 53
0001
0000
0010
0100
,  // measure 54
1000
0000
0010
1000
,  // measure 55
0002
1000
1003
1001
,  // measure 56
0002
0003
0020
0030
,  // measure 57
2000
3000
0002
0003
,  // measure 58
0020
0030
0200
0300
,  // measure 59
0002
0003
0200
0300
,  // measure 60
2000
3000
0020
0030
,  // measure 61
0200
0300
0002
0003
,  // measure 62
2000
3000
0002
0003
,  // measure 63
2000
0001
3001
1001
,  // measure 64
0001
0100
0001
0000
,  // measure 65
1000
0100
1000
0000
,  // measure 66
0001
0010
0001
0000
,  // measure 67
1000
0001
1000
0000
,  // measure 68
0202
0000
0303
0000
,  // measure 69
2200
0000
3300
0000
,  // measure 70
0101
0000
1001
0000
,  // measure 71
1200
0000
0300
1001
;

//---------------dance-single - ----------------
#NOTES:
     dance-single:
     :
     Medium:
     6:
     0.375378,0.441876,0.205285,0.246342,0.000000,320.000000,295.000000,25.000000,30.000000,0.000000,0.000000,0.375378,0.441876,0.205285,0.246342,0.000000,320.000000,295.000000,25.000000,30.000000,0.000000,0.000000:
// measure 0
0000
0000
0000
0000
,  // measure 1
0000
0000
0000
0000
,  // measure 2
0000
0000
0000
0000
,  // measure 3
0000
0000
0000
0000
,  // measure 4
1000
0000
0100
0000
,  // measure 5
0010
0000
0001
0000
,  // measure 6
1000
0000
0001
0000
,  // measure 7
2002
0000
0000
3003
,  // measure 8
0100
0100
0100
1000
,  // measure 9
0010
0010
0010
0100
,  // measure 10
0001
0001
0001
0010
,  // measure 11
0100
0000
0100
0000
0100
1000
0001
0000
,  // measure 12
0000
0100
0000
0001
0000
0100
0000
0001
,  // measure 13
0000
1000
0000
0100
0000
1000
0000
0100
,  // measure 14
0000
0001
0000
0100
0000
0001
0000
0100
,  // measure 15
0000
1000
0001
1000
0001
0000
1001
0000
,  // measure 16
1000
0001
0010
1000
,  // measure 17
0010
0001
1000
0010
,  // measure 18
0001
0010
1000
0001
,  // measure 19
0100
0010
0100
0001
,  // measure 20
1000
0100
0010
0001
,  // measure 21
0100
0010
1000
0001
,  // measure 22
0010
0100
1000
0001
,  // measure 23
1000
0010
0100
0010
0100
0010
0100
0001
,  // measure 24
1000
1001
0100
0011
,  // measure 25
1000
0110
0001
0101
,  // measure 26
1000
1001
0010
1010
,  // measure 27
0100
1100
0010
1001
,  // measure 28
0001
0000
0110
0000
0010
1000
0001
0000
,  // measure 29
0010
0000
0011
0000
0100
1000
0001
0000
,  // measure 30
1000
0010
0001
0000
1000
0100
0001
0000
,  // measure 31
1000
0001
1000
0010
0000
0010
0000
0010
,  // measure 32
0100
0100
0001
0001
,  // measure 33
1000
1000
0010
0010
,  // measure 34
0100
0001
0100
0000
0010
1000
0010
0000
,  // measure 35
1000
0100
1000
0000
0001
0010
0001
0000
,  // measure 36
1000
1000
0010
0010
,  // measure 37
0100
0100
0001
0001
,  // measure 38
0010
0100
0010
0000
1000
0100
1000
0000
,  // measure 39
0001
0100
0001
0000
1000
0010
1000
0000
,  // measure 40
1002
0100
1003
0100
,  // measure 41
0020
1000
0100
1030
,  // measure 42
0002
0010
1000
0013
,  // measure 43
2000
0001
0010
3001
,  // measure 44
0102
0010
0100
0013
,  // measure 45
2100
0010
0100
3010
,  // measure 46
2020
3030
0202
0303
,  // measure 47
0000
1000
0001
1000
0001
0000
1001
0000
,  // measure 48
0010
0100
0001
1000
,  // measure 49
0100
0001
0100
1000
,  // measure 50
0001
1000
0010
0001
,  // measure 51
0010
0100
0001
1000
,  // measure 52
0001
0100
0001
0000
1000
0100
1000
0000
,  // measure 53
0001
0010
0001
0000
1000
0010
1000
0000
,  // measure 54
0100
0010
0100
0000
1000
0001
1000
0000
,  // measure 55
0000
0010
0001
0100
1000
0000
0110
0000
,  // measure 56
2000
3001
0200
0310
,  // measure 57
2000
3100
0020
0031
,  // measure 58
2000
3010
0200
0301
,  // measure 59
0200
1300
0200
0301
,  // measure 60
1000
0001
0010
0000
0001
1000
0010
0000
,  // measure 61
0100
0001
0010
0000
0100
1000
0010
0000
,  // measure 62
0001
0010
1000
0000
0001
0100
1000
0000
,  // measure 63
0100
0001
0010
0100
0000
0100
0000
0100
,  // measure 64
2000
0100
0100
3100
,  // measure 65
0200
0010
0010
0310
,  // measure 66
0020
0001
0001
0031
,  // measure 67
0002
1000
1000
1003
,  // measure 68
2001
0000
0010
3010
,  // measure 69
0120
0000
0001
0031
,  // measure 70
0021
0000
0031
1000
1200
0000
0310
0001
,  // measure 71
2002
0000
3003
1001
;

//---------------dance-single - ----------------
#NOTES:
     dance-single:
     :
     Hard:
     9:
     0.520837,0.618626,0.082114,0.188862,0.213496,444.000000,434.000000,10.000000,23.000000,0.000000,0.000000,0.520837,0.618626,0.082114,0.188862,0.213496,444.000000,434.000000,10.000000,23.000000,0.000000,0.000000:
// measure 0
0000
0000
0000
0000
,  // measure 1
0000
0000
0000
0000
,  // measure 2
0000
0000
0000
0000
,  // measure 3
0000
0000
0000
0000
,  // measure 4
2000
0000
0002
3000
,  // measure 5
0200
0003
0020
0300
,  // measure 6
2000
0030
0200
3000
,  // measure 7
0000
0000
0300
1001
,  // measure 8
0110
1000
0001
1000
,  // measure 9
0001
0100
0010
0100
,  // measure 10
0010
1000
0100
0010
,  // measure 11
0001
0000
0010
0000
0100
1000
0002
0000
,  // measure 12
0000
0000
1003
0000
0000
0000
1000
0000
0000
0000
1000
0000
0000
0010
1000
0000
,  // measure 13
0000
0010
0100
0000
0000
0000
0100
0000
0000
0010
0100
0000
0000
0001
0100
0000
,  // measure 14
0000
0001
0010
0000
0000
0000
0010
0000
0000
0000
0010
0000
0000
0100
0010
0000
,  // measure 15
0000
1000
1000
1000
1000
0001
1001
0000
,  // measure 16
1000
0001
0100
0010
1000
0001
0010
0100
,  // measure 17
1000
0001
0100
0010
0001
0010
0100
0001
,  // measure 18
1000
0100
1000
0001
0010
0001
0100
0010
,  // measure 19
1000
0100
0010
1000
0010
0100
1000
0001
,  // measure 20
0100
0001
1000
0010
1000
0100
0001
0100
,  // measure 21
0010
0001
1000
0010
0100
0001
0010
0100
,  // measure 22
1000
0001
0100
1000
0100
0001
1000
0010
,  // measure 23
0000
0100
0100
0100
0100
0001
1001
0000
,  // measure 24
0100
0000
0010
0000
0000
0000
1000
0010
1000
0000
0010
0000
0000
0000
0100
0000
,  // measure 25
0001
0000
0010
0000
0000
0000
0001
0010
0001
0000
0100
0000
0000
0000
0001
0000
,  // measure 26
1000
0000
0100
0000
0000
0000
1000
0100
1000
0000
0001
0000
0000
0000
0100
0000
,  // measure 27
0010
0000
1000
0000
0000
0000
0010
1000
0010
0000
0100
0000
0000
0000
0010
0000
,  // measure 28
0100
0000
0001
0000
0000
0000
0100
0001
0100
0000
0010
0000
0000
0000
0100
0000
,  // measure 29
0001
0000
0010
0000
0000
0000
0001
0010
0001
0000
0100
0000
0000
0000
0010
0000
,  // measure 30
1000
0000
0001
0000
0000
0000
1000
0001
1000
0000
0001
0000
0000
0000
0010
0000
,  // measure 31
0100
1000
0001
0100
0000
0100
0000
0100
,  // measure 32
0001
0010
0100
1000
0001
0100
1000
0100
,  // measure 33
0001
1000
0010
1000
0001
0010
0100
1000
,  // measure 34
0001
0100
0010
1000
0100
0010
0100
1000
,  // measure 35
0001
0100
0010
1000
0100
0001
0100
1000
,  // measure 36
0001
0100
0010
1000
0100
0010
0001
1000
,  // measure 37
0001
0010
0100
1000
0001
0100
0001
0010
,  // measure 38
0100
1000
0010
1000
0001
0010
0100
1000
,  // measure 39
0001
0100
0010
0100
0001
1000
0001
0100
,  // measure 40
0002
0000
0010
0000
0010
0000
0013
0100
,  // measure 41
2000
0000
0001
0000
0001
0000
3001
0010
,  // measure 42
0200
0000
1000
0000
1000
0000
1300
0100
,  // measure 43
0020
0000
0001
0000
0001
0000
0031
1000
,  // measure 44
2000
0000
0001
0000
0100
0000
3001
0010
,  // measure 45
0020
0000
0100
0000
0001
0000
0130
1000
,  // measure 46
2200
3300
0022
0033
,  // measure 47
0000
1000
1000
1000
1000
0010
0110
0000
,  // measure 48
1000
0000
0001
0000
1000
0100
0000
0010
0000
0100
0000
0001
0000
0100
0000
1000
,  // measure 49
0000
0000
0010
0000
0100
0001
0000
0100
0000
0010
0000
0100
0000
1000
0000
0100
,  // measure 50
0000
0000
0001
0000
1000
0100
0000
0010
0000
0001
0000
1000
0000
0001
0000
0100
,  // measure 51
0000
0000
0010
0100
0010
0100
0010
0100
0000
0001
0000
1000
0000
0001
0000
0100
,  // measure 52
0000
0010
2000
0000
3000
0001
0020
0000
,  // measure 53
0030
0100
2000
0000
3000
0001
0200
0000
,  // measure 54
0300
0010
0002
0000
0003
0010
2000
0000
,  // measure 55
3000
0001
0001
0001
0001
0100
0101
0000
,  // measure 56
0010
0000
1000
0000
0000
0000
1000
0100
0000
0000
1000
0000
0000
0000
0100
0010
,  // measure 57
0000
0000
0100
0000
0000
0000
0010
0001
0000
0000
0010
0000
0000
0000
0100
1000
,  // measure 58
0000
0000
0100
0000
0000
0000
0001
0100
0000
0000
0010
0000
0000
0000
1000
0100
,  // measure 59
0000
0000
0010
0000
0000
0000
0001
1000
0000
0000
0010
0000
0000
0000
1000
0000
,  // measure 60
0100
0001
0000
0100
0001
0100
0000
0010
,  // measure 61
1000
0010
0000
1000
0100
1000
0000
0001
,  // measure 62
0010
0001
0000
0100
0010
0100
0000
0001
,  // measure 63
1000
0000
0100
0000
0010
0001
0000
0010
0100
0000
1000
0000
0001
0000
0000
0000
,  // measure 64
0010
0100
1000
0001
0010
0001
1000
0010
,  // measure 65
0100
0001
1000
0100
0010
0001
1000
0000
,  // measure 66
0100
0001
1000
0100
0010
0001
1000
0010
,  // measure 67
0100
0001
1000
0100
0010
0001
1000
0000
,  // measure 68
1010
1000
0010
0100
0001
1000
0100
0000
,  // measure 69
0011
0001
0010
0100
1000
0001
0100
0000
,  // measure 70
0001
1000
0010
1000
0001
0010
0100
1000
,  // measure 71
0001
0000
1000
0001
1000
0001
1000
0001
1000
0001
1000
0001
0100
0000
0000
0000
;

//---------------dance-single - ----------------
#NOTES:
     dance-single:
     :
     Challenge:
     10:
     0.703834,0.883751,0.320244,0.287399,0.673334,600.000000,561.000000,39.000000,35.000000,0.000000,0.000000,0.703834,0.883751,0.320244,0.287399,0.673334,600.000000,561.000000,39.000000,35.000000,0.000000,0.000000:
// measure 0
0000
0000
0000
0000
,  // measure 1
0000
0000
0000
0000
,  // measure 2
0000
0000
0000
0000
,  // measure 3
0000
0000
0000
0000
,  // measure 4
0010
0100
1000
0000
0100
0010
0000
0001
0010
0100
1000
0000
0001
1000
0000
0001
,  // measure 5
0100
0010
1000
0000
0010
0100
0000
0001
0100
0010
1000
0000
0001
0010
0000
0010
,  // measure 6
0001
1000
0001
0000
0001
0100
0000
0100
0010
1000
0001
0000
0001
0100
0000
0000
,  // measure 7
0000
0220
0330
1001
,  // measure 8
0100
0010
0100
0010
0100
0001
0010
0001
,  // measure 9
1000
0100
1000
0100
1000
0010
0100
0001
,  // measure 10
0010
0100
0010
0100
0010
1000
0001
0100
,  // measure 11
1000
0000
0001
0000
0100
0000
0001
0000
1000
0010
1000
0000
0020
0000
0000
0000
,  // measure 12
0030
0100
0010
0000
0000
1000
0100
0000
0000
0010
1000
0000
0000
0010
0001
0000
,  // measure 13
0000
0100
1000
0000
0000
0100
0010
0000
0000
1000
0100
0000
0000
0010
0001
0000
,  // measure 14
0000
1000
0010
0000
0000
0100
0001
0000
0000
0010
0100
0000
0000
1000
0001
0000
,  // measure 15
0000
0000
0100
0000
0100
0000
0010
0000
0010
0000
1000
0000
0110
0000
0001
1000
,  // measure 16
0001
0000
1000
0000
0000
0000
0010
0100
0010
0000
0100
0000
0000
0000
0001
0010
,  // measure 17
0001
0000
0011
0000
0000
0000
0100
1000
0100
0000
1100
0000
0000
0000
0001
0100
,  // measure 18
0001
0000
0100
0000
0000
0000
0010
1000
0010
0000
1000
0000
0000
0000
0100
0010
,  // measure 19
0100
0000
0110
0000
0000
0000
0001
1000
0001
0000
1001
0000
0000
0000
0010
1000
,  // measure 20
0001
0000
0010
0000
0000
0000
0100
1000
0001
0000
0100
0000
0000
0000
0010
0100
,  // measure 21
0001
0000
1000
0000
0000
0000
0100
1000
0001
0000
0101
0000
0000
0000
0001
0010
,  // measure 22
0100
0000
1000
0000
0000
0000
0010
0100
0001
0000
1000
0000
0000
0000
0100
0010
,  // measure 23
0001
0000
1001
0000
1000
0000
1001
0000
0001
0000
1000
0000
0110
0000
0001
1000
,  // measure 24
0001
0000
1000
0000
0001
0000
0100
0010
0100
0000
0010
0000
0100
0000
0001
0010
,  // measure 25
0001
0000
0010
0000
0001
0000
1000
0010
1000
0000
0010
0000
1000
0000
0001
0100
,  // measure 26
0001
0000
0100
0000
0001
0000
1000
0100
1000
0000
0100
0000
1000
0000
0010
0100
,  // measure 27
0010
0000
0100
0000
0010
0000
1000
0001
1000
0000
0001
0000
1000
0000
0010
1000
,  // measure 28
0001
0000
1000
0000
0001
1000
0100
0000
1000
0000
0001
0000
0100
0001
1000
0000
,  // measure 29
0100
0000
0010
0000
0001
1000
0010
0000
0100
0000
0001
0000
1000
0100
1000
0000
,  // measure 30
1100
0000
0100
0010
0100
0000
0010
0001
0010
0000
0011
0000
0001
1000
0001
0000
,  // measure 31
1000
0000
0100
1000
0010
0000
0100
0001
0010
0000
0100
1000
0001
0000
1001
0000
,  // measure 32
0110
0000
2000
0000
0010
0000
0002
3000
,  // measure 33
0010
0000
2000
0003
0100
0000
0002
3000
,  // measure 34
0100
0000
0020
0003
1000
0000
0002
0030
,  // measure 35
0100
0000
2003
0000
0010
0000
3001
1000
,  // measure 36
0002
0000
0100
0000
2000
0003
0100
0000
,  // measure 37
0002
3000
0010
0000
2000
0003
0010
0000
,  // measure 38
0200
3000
0001
0000
2000
0300
0010
0000
,  // measure 39
3002
0000
0100
0000
2000
0003
3010
0001
,  // measure 40
1000
0100
0000
0010
0001
0000
1000
0100
0000
0010
0001
0000
1000
0001
0000
1000
,  // measure 41
0010
0000
0100
0001
0000
1000
0010
0000
0100
0001
0000
1000
0001
0000
1000
0100
,  // measure 42
0010
0001
0000
0010
0100
0000
1000
0001
0000
0100
0010
0000
1000
0100
0000
1000
,  // measure 43
0010
0000
0100
0001
0000
1000
0100
0000
0010
0001
0000
1000
0010
0000
0100
0000
,  // measure 44
2200
0000
0000
3300
,  // measure 45
0202
0000
0000
0303
,  // measure 46
0001
1000
0001
1000
0001
1000
0001
1000
0100
0010
0100
0010
0100
0010
0100
0010
,  // measure 47
0001
0101
0101
1100
1100
1001
0110
0000
,  // measure 48
0010
1000
0010
1000
0001
0100
0001
0100
0000
0010
0000
1000
0000
0011
0000
1001
,  // measure 49
0000
0000
0010
0001
1000
0100
1000
0100
0000
0010
0000
0001
0000
1010
0000
1001
,  // measure 50
0000
0000
0100
0001
1000
0010
1000
0010
0000
0100
0000
0001
0000
0101
0000
1001
,  // measure 51
0000
0000
0100
1000
0001
0010
0001
0010
0000
0100
0000
1000
0000
1100
0000
1001
,  // measure 52
0000
1000
0200
0000
0000
0310
0002
0000
,  // measure 53
0000
1003
0020
0000
0000
0130
0002
0000
,  // measure 54
0000
0013
0200
0000
0000
1300
0002
0000
,  // measure 55
0000
0000
1003
0000
1001
0000
0110
0000
0110
0000
1001
0000
0110
0000
1000
0001
,  // measure 56
1000
0000
0001
0000
1000
0000
0010
0100
0010
0000
0100
0000
0010
0000
1000
0100
,  // measure 57
1000
0000
0100
0000
1000
0000
0001
0100
0001
0000
0100
0000
0001
0000
1000
0010
,  // measure 58
1000
0000
0010
0000
1000
0000
0001
0010
0001
0000
0010
0000
0001
0000
0100
0010
,  // measure 59
0100
0000
0010
0000
0100
0000
0001
1000
0001
0000
1000
0000
0001
0000
0100
0001
,  // measure 60
1000
0000
0001
0000
1000
0001
0010
0000
0001
0000
0100
0000
0010
1000
0001
0000
,  // measure 61
0010
0000
0100
0000
1000
0001
0100
0000
0010
0000
1000
0000
0001
0100
0001
0000
,  // measure 62
0101
0000
0100
0010
0100
0000
0010
1000
0010
0000
1010
0000
1000
0001
1000
0000
,  // measure 63
0001
0000
1000
0000
0001
1000
0000
0001
1000
0000
0100
0000
1001
0000
0000
0000
,  // measure 64
0010
0002
1000
0003
0010
2000
0001
3000
,  // measure 65
1000
0200
0001
0300
1000
0020
0001
0030
,  // measure 66
1000
0020
0100
0030
0001
0020
0100
0030
,  // measure 67
1000
0001
2000
0010
0000
3010
0100
0000
,  // measure 68
0001
0010
0000
0100
1000
0000
0001
0010
0000
0100
1000
0000
0001
1000
0000
0001
,  // measure 69
0100
0000
0010
1000
0000
0001
0100
0000
0010
1000
0000
0001
1000
0000
0001
0010
,  // measure 70
0100
1000
0000
0100
1000
0100
0000
0010
0001
0010
0000
0001
1000
0001
0000
1000
,  // measure 71
0010
0000
0100
0010
1000
0001
0100
0010
1000
0001
0010
0100
1000
0000
0000
0000
;

//---------------dance-double - ----------------
#NOTES:
     dance-double:
     :
     Beginner:
     1:
     0.127863,0.203335,0.041057,0.073903,0.000000,109.000000,104.000000,5.000000,9.000000,0.000000,0.000000,0.127863,0.203335,0.041057,0.073903,0.000000,109.000000,104.000000,5.000000,9.000000,0.000000,0.000000:
00000000
00000000
00000000
00000000
,
00000000
00000000
00000000
00000000
,
00000000
00000000
00000000
00000000
,
10000000
00000000
00000000
00000000
,
01000000
00000000
00000000
00000000
,
00010000
00000000
00000000
00000000
,
00001000
00000000
00000000
00011000
,
00011000
00000000
00001000
00000000
,
00001000
00000000
00001000
00000000
,
00000100
00000000
00000100
00000000
,
00000100
00000000
00000100
00000000
,
00000001
00000000
00000001
00000000
,
00000001
00000000
00000001
00000000
,
00000010
00000000
00000010
00000000
,
00000010
00000000
00000010
00000000
,
00002000
00000000
00000000
00003000
,
00001000
00000000
00000000
00000000
,
00020000
00000000
00000000
00030000
,
00010000
00000000
00000000
00000000
,
02000000
00000000
00000000
03000000
,
01000000
00000000
00000000
00000000
,
20000000
00000000
00000000
30000000
,
10000000
00000000
10000000
00000000
,
00010000
00010000
00000000
00010000
,
00000000
00010000
00000000
00000000
,
01000000
01000000
00000000
01000000
,
00000000
01000000
00000000
00000000
,
00100000
00100000
00000000
00100000
,
00000000
00100000
00000000
00000000
,
00010000
00010000
00000000
00010000
,
00000000
00010000
00000000
00001000
,
00002000
00000000
00000000
00003000
,
00001000
00000000
00001000
00000000
,
00000020
00000000
00000000
00000030
,
00000010
00000000
00000010
00000000
,
00000002
00000000
00000000
00000003
,
00000001
00000000
00000001
00000000
,
00000200
00000000
00000000
00000300
,
00000100
00000000
00000100
00000000
,
00001000
00001000
00000000
00000000
,
00010000
00010000
00000000
00000000
,
01000000
01000000
00000000
00000000
,
00100000
00100000
00000000
00000000
,
00010000
00010000
00000000
00000000
,
00001000
00001000
00000000
00000000
,
00000100
00000100
00000000
00000000
,
00000002
00000000
00000000
00000003
,
00000001
00000000
00000000
00000000
,
00000010
00000000
00000000
00000000
,
00001000
00000000
00000000
00000000
,
00010000
00000000
00000000
00000000
,
01000000
00000000
00000000
00000000
,
10000000
00000000
00000000
00000000
,
00100000
00000000
00000000
00000000
,
00010000
00000000
00000000
00000000
,
00001000
00000000
00000000
00000000
,
00000100
00000000
00000000
00000000
,
00000010
00000000
00000000
00000000
,
00001000
00000000
00000000
00000000
,
00000100
00000000
00000000
00000000
,
00000010
00000000
00000000
00000000
,
00001000
00000000
00000000
00000000
,
00010000
00000000
00000000
00000000
,
00001000
00000000
00001000
00000000
,
00001000
00000000
00001000
00000000
,
00010000
00000000
00010000
00000000
,
00010000
00000000
00010000
00000000
,
00011000
00000000
00000000
00000000
,
00011000
00000000
00000000
00000000
,
00010000
00000000
01000000
00000000
,
10000000
00000000
00000000
10010000
;

//---------------dance-double - ----------------
#NOTES:
     dance-double:
     :
     Easy:
     4:
     0.231092,0.294584,0.147805,0.344879,0.000000,197.000000,179.000000,18.000000,42.000000,0.000000,0.000000,0.231092,0.294584,0.147805,0.344879,0.000000,197.000000,179.000000,18.000000,42.000000,0.000000,0.000000:
00000000
00000000
00000000
00000000
,
00000000
00000000
00000000
00000000
,
00000000
00000000
00000000
00000000
,
00000000
00000000
00000000
00000000
,
20000000
00000000
31000000
00000000
,
02000000
00000000
03010000
00000000
,
00020000
00000000
00031000
00000000
,
00000000
00000200
00000300
00000110
,
00000010
00000010
00000010
00000000
,
00000100
00000100
00000100
00000000
,
00001000
00001000
00001000
00000000
,
00010000
00010000
00010000
00000000
,
00001000
00000000
01000000
00000000
,
00010000
00000000
10000000
00000000
,
01000000
00000000
00010000
00000000
,
00002000
00010000
00013000
00011000
,
00010000
00001000
00000100
00000000
,
00001000
00000100
00000001
00000000
,
00000100
00000001
00000010
00000000
,
00000001
00000010
00001000
00000000
,
00000010
00001000
00010000
00000000
,
00001000
00010000
01000000
00000000
,
00010000
01000000
10000000
00000000
,
00200000
01000000
01300000
01100000
,
00100000
10000000
01000000
00000000
,
00010000
00001000
00010000
00000000
,
00001000
00010000
00000100
00000000
,
00001000
00000010
00000100
00000000
,
00000001
00000010
00000100
00000000
,
00001000
00000100
00010000
00000000
,
00002000
00003000
00020000
00030000
,
00001000
00010000
00001000
00000000
,
00021000
00000000
01030000
00000000
,
20000000
00000000
31000000
00000000
,
00020000
00000000
00031000
00000000
,
00000200
00000000
00000301
00000000
,
00001000
00000100
00001000
00000000
,
00000010
00000100
00000010
00000000
,
00000100
00001000
00000100
00000000
,
00001000
00010000
00001000
00000000
,
00012000
00000000
00103000
00010000
,
02000000
00000000
03100000
10000000
,
02000000
00000000
03010000
00001000
,
00020000
00000000
00030100
00001000
,
00002200
00000000
00003300
00000000
,
00000022
00000000
00000033
00000000
,
00000101
00000000
00001100
00000000
,
00002000
00010000
00013000
00011000
,
00001000
00000000
00100000
00010000
,
10000000
00000000
00100000
10000000
,
00010000
00000000
01000000
00001000
,
00010000
00000000
00001000
00010000
,
00000100
00000000
00001000
00000010
,
00000001
00000000
00001000
00000100
,
00000001
00000000
00000010
00001000
,
00020000
00001000
00031000
00011000
,
00020000
00030000
00200000
00300000
,
20000000
30000000
02000000
03000000
,
00200000
00300000
00002000
00003000
,
00020000
00030000
00000200
00000300
,
00002000
00003000
00000020
00000030
,
00000200
00000300
00000002
00000003
,
00000020
00000030
00002000
00003000
,
00020000
00001000
00031000
00011000
,
00010000
01000000
00010000
00000000
,
01000000
10000000
01000000
00000000
,
00100000
00010000
00100000
00000000
,
00001000
00010000
00001000
00000000
,
00020200
00000000
00030300
00000000
,
02002000
00000000
03003000
00000000
,
01010000
00000000
00011000
00000000
,
00001200
00000000
00000300
00001001
;

//---------------dance-double - ----------------
#NOTES:
     dance-double:
     :
     Medium:
     7:
     0.375378,0.441876,0.205285,0.254553,0.000000,320.000000,295.000000,25.000000,31.000000,0.000000,0.000000,0.375378,0.441876,0.205285,0.254553,0.000000,320.000000,295.000000,25.000000,31.000000,0.000000,0.000000:
00000000
00000000
00000000
00000000
,
00000000
00000000
00000000
00000000
,
00000000
00000000
00000000
00000000
,
00000000
00000000
00000000
00000000
,
00001000
00000000
00010000
00000000
,
01000000
00000000
10000000
00000000
,
00100000
00000000
00010000
00000000
,
00022000
00000000
00000000
00033000
,
00001000
00001000
00001000
00000100
,
00000001
00000001
00000001
00000010
,
00000100
00000100
00000100
00010000
,
00001000
00000000
00001000
00000000
00001000
00100000
00020000
00000000
,
00000000
10030000
00000000
00010000
00000000
10000000
00000000
00010000
,
00000000
01000000
00000000
00100000
00000000
01000000
00000000
00100000
,
00000000
00010000
00000000
00001000
00000000
00010000
00000000
00001000
,
00000000
00010000
00001000
00010000
00001000
00000000
00011000
00000000
,
00000100
00001000
00000001
00000010
,
00001000
00000010
00000001
00000100
,
00001000
00010000
01000000
10000000
,
00100000
00010000
00100000
10000000
,
00010000
00100000
01000000
00010000
,
00001000
00000100
00000010
00001000
,
00000001
00000010
00001000
00010000
,
00001000
00010000
00000100
00010000
00001000
01000000
00001000
00010000
,
00001000
00011000
00010000
00110000
,
10000000
01100000
00010000
01010000
,
10000000
10010000
00100000
00101000
,
00010000
00011000
00000100
00001001
,
00000010
00000000
00000110
00000000
00000100
00000001
00001000
00000000
,
00000100
00000000
00010100
00000000
00010000
00001000
01000000
00000000
,
00100000
10000000
01000000
00000000
00100000
00010000
01000000
00000000
,
00001000
00100000
00001000
00010000
00000000
00010000
00000000
00010000
,
00000100
00000100
00000010
00000010
,
00000001
00000001
00000100
00000100
,
00000001
00000100
00000001
00000000
00000001
00000010
00000001
00000000
,
00000010
00001000
00000010
00000000
00001000
00010000
00001000
00000000
,
01000000
01000000
00100000
00100000
,
10000000
10000000
01000000
01000000
,
10000000
01000000
10000000
00000000
10000000
00100000
10000000
00000000
,
00100000
00010000
00100000
00000000
00010000
00001000
00010000
00000000
,
00021000
00000100
00001000
00030100
,
00000020
00000100
00000001
00000130
,
00002000
00000010
00000001
00003010
,
00020000
00001000
00100000
00031000
,
00012000
00100000
00010000
00103000
,
00021000
00000010
00001000
00030010
,
02002000
03003000
00020200
00030300
,
00000000
00010000
00001000
00010000
00001000
00000000
00011000
00000000
,
00001000
00100000
00010000
10000000
,
01000000
00010000
01000000
10000000
,
00010000
10000000
00100000
00010000
,
00001000
00000010
00000001
00001000
,
00000010
00000100
00000010
00000000
00001000
00000100
00001000
00000000
,
00000100
00010000
00000100
00000000
00010000
00001000
00010000
00000000
,
00001000
01000000
00001000
00000000
01000000
00010000
01000000
00000000
,
00000000
00100000
10000000
01000000
00010000
00000000
01010000
00000000
,
02000000
13000000
00200000
00310000
,
20000000
31000000
00200000
00301000
,
00020000
00030100
00002000
00003010
,
00002000
00003001
00002000
00003100
,
00010000
00000100
00001000
00000000
00010000
00001000
01000000
00000000
,
00010000
00100000
00001000
00000000
00010000
00000010
00001000
00000000
,
00000100
00001000
00000010
00000000
00000100
00000001
00000010
00000000
,
00000100
00001000
00000100
00010000
00000000
00010000
00000000
00010000
,
00002000
00000010
00000010
00000010
,
00023000
01000000
01000000
01000000
,
00032000
00000100
00000100
00000100
,
00023000
00100000
00100000
00130000
,
02100000
00000000
00001000
03001000
,
00012000
00000000
00000100
00003100
,
00000120
00000000
00000031
00001000
00001020
00000000
00010030
00001000
,
00022000
00000000
00033000
00011000
;

//---------------dance-double - ----------------
#NOTES:
     dance-double:
     :
     Hard:
     9:
     0.522010,0.618626,0.098537,0.197073,0.209391,445.000000,433.000000,12.000000,24.000000,0.000000,0.000000,0.522010,0.618626,0.098537,0.197073,0.209391,445.000000,433.000000,12.000000,24.000000,0.000000,0.000000:
00000000
00000000
00000000
00000000
,
00000000
00000000
00000000
00000000
,
00000000
00000000
00000000
00000000
,
00000000
00000000
00000000
00000000
,
00000002
00000000
00000200
00000003
,
00002000
00000300
00200000
00003000
,
20000000
00300000
02000000
30000000
,
00000000
00000000
03000000
10010000
,
01100000
10000000
00010000
10000000
,
00010000
01000000
00001000
01000000
,
00001000
00010000
00000100
00010000
,
00000100
00000000
00001000
00000000
00000001
00000100
00000020
00000000
,
00000000
00000030
00001000
00000000
00000000
00000000
00001000
00000000
00000000
00000000
00001000
00000000
00000000
00000100
00010000
00000000
,
00000000
00001000
00010000
00000000
00000000
00000000
00010000
00000000
00000000
00000000
00010000
00000000
00000000
00001000
00100000
00000000
,
00000000
00010000
00100000
00000000
00000000
00000000
00100000
00000000
00000000
00000000
00100000
00000000
00000000
01000000
10000000
00000000
,
00000000
00100000
00100000
00100000
00100000
01000000
01100000
00000000
,
00010000
10000000
01000000
00010000
01000000
10000000
00100000
01000000
,
00001000
00010000
00000010
00001000
00000010
00000100
00000001
00001000
,
00000100
00000010
00001000
00010000
01000000
00100000
00010000
10000000
,
00100000
01000000
00100000
10000000
00010000
00100000
00001000
00010000
,
00001000
01000000
00001000
00010000
00000100
00010000
00000010
00001000
,
00000010
00000100
00000001
00001000
00000100
00010000
00000100
00001000
,
00000010
00010000
00001000
00010000
01000000
10000000
00100000
00010000
,
00000000
00001000
00001000
00001000
00001000
00010000
00011000
00000000
,
00000100
00000000
00001000
00000000
00000000
00000000
00000001
00000010
00000001
00000000
00001000
00000000
00000000
00000000
00000010
00000000
,
00000100
00000000
00000001
00000000
00000000
00000000
00000001
00000100
00000001
00000000
00001000
00000000
00000000
00000000
00000100
00000000
,
00010000
00000000
00001000
00000000
00000000
00000000
00010000
00001000
00010000
00000000
00100000
00000000
00000000
00000000
01000000
00000000
,
00100000
00000000
10000000
00000000
00000000
00000000
00100000
10000000
00100000
00000000
01000000
00000000
00000000
00000000
00100000
00000000
,
01000000
00000000
00010000
00000000
00000000
00000000
00100000
00001000
00100000
00000000
00010000
00000000
00000000
00000000
00100000
00000000
,
00001000
00000000
00010000
00000000
00000000
00000000
00000100
00001000
00000100
00000000
00010000
00000000
00000000
00000000
00000100
00000000
,
00001000
00000000
00000001
00000000
00000000
00000000
00001000
00000001
00001000
00000000
00000010
00000000
00000000
00000000
00000100
00000000
,
00000001
00000010
00002000
00010000
00000000
00010000
00000000
00013000
,
00001000
00100000
00010000
10000000
00010000
01000000
00100000
00010000
,
00001000
00000100
00000001
00000010
00000001
00001000
00000001
00000100
,
00000010
00010000
00001000
00010000
01000000
00100000
01000000
10000000
,
00010000
01000000
00100000
10000000
01000000
00010000
01000000
00100000
,
00001000
00100000
00010000
01000000
00001000
00010000
00000100
00000010
,
00000001
00001000
00000010
00000100
00000010
00000001
00001000
00000100
,
00000001
00001000
00000100
00010000
00001000
01000000
00100000
10000000
,
00010000
01000000
00100000
01000000
00010000
10000000
00010000
01000000
,
00002000
00000000
00010000
00000000
00010000
00000000
00013000
00001000
,
00000200
00000000
00000010
00000000
00000010
00000000
00000310
00000100
,
00000002
00000000
00001000
00000000
00001000
00000000
00001003
00000100
,
00000020
00000000
00001000
00000000
00001000
00000000
00001030
00010000
,
00021000
00000000
00000100
00000000
00001000
00000000
00030100
00010000
,
00012000
00000000
01000000
00000000
00010000
00000000
01003000
00010000
,
02020000
03030000
20200000
30300000
,
00000000
01000000
01000000
01000000
01000000
00100000
01100000
00000000
,
10000000
00000000
00010000
00000000
01000000
00010000
00000000
00100000
00000000
01000000
00000000
00010000
00000000
00001000
00000000
00010000
,
00000000
00000000
00001000
00000000
00010000
00000100
00000000
00001000
00000000
00000010
00000000
00000100
00000000
00000001
00000000
00000100
,
00000000
00000000
00001000
00000000
00010000
00001000
00000000
00100000
00000000
00010000
00000000
10000000
00000000
00010000
00000000
01000000
,
00000000
00000000
00001000
00010000
00001000
00010000
00001000
00010000
00000000
00000100
00000000
00010000
00000000
00001000
00000000
00100000
,
00000000
00010000
20000000
00000000
30000000
00010000
00200000
00000000
,
00300000
01000000
00020000
00000000
00030000
00001000
00000200
00000000
,
00000300
00000001
00000020
00000000
00000030
00001000
00020000
00000000
,
00030000
00001000
00001000
00001000
00001000
00010000
00011000
00000000
,
00100000
00000000
10000000
00000000
00000000
00000000
10000000
01000000
00000000
00000000
10000000
00000000
00000000
00000000
01000000
00100000
,
00000000
00000000
01000000
00000000
00000000
00000000
00100000
00010000
00000000
00000000
00100000
00000000
00000000
00000000
00001000
00010000
,
00000000
00000000
00001000
00000000
00000000
00000000
00010000
00000100
00000000
00000000
00010000
00000000
00000000
00000000
00000010
00001000
,
00000000
00000000
00000010
00000000
00000000
00000000
00000100
00000001
00000000
00000000
00000100
00000000
00000000
00000000
00000010
00000000
,
00001000
00000100
00000000
00000010
00000001
00000010
00000000
00000100
,
00001000
00000100
00000000
00100000
00010000
00100000
00000000
00001000
,
00010000
00001000
00000000
01000000
00010000
01000000
00000000
00100000
,
10000000
00000000
00010000
00000000
10000000
00010000
00000000
10000000
00010000
00000000
01000000
00000000
00100000
00000000
00000000
00000000
,
10000000
01000000
10000000
00010000
00100000
00010000
01000000
00100000
,
01000000
00001000
00010000
00000100
00000010
00000100
00001000
00000000
,
00000010
00000100
00000001
00000010
00001000
00010000
00000100
00010000
,
00001000
01000000
00010000
01000000
00100000
10000000
01000000
00000000
,
11000000
10000000
00010000
01000000
00001000
00010000
00000010
00000000
,
00000101
00000001
00001000
00000100
00010000
00001000
01000000
00000000
,
00100000
10000000
00100000
01000000
00001000
00100000
00001000
00010000
,
00000100
00000000
00010000
00001000
00010000
00001000
00010000
00001000
00010000
00001000
00010000
00001000
00100000
00000000
00000000
00000000
;

//---------------dance-double - ----------------
#NOTES:
     dance-double:
     :
     Challenge:
     10:
     0.678027,0.677543,0.328456,0.057480,0.320244,578.000000,538.000000,40.000000,7.000000,0.000000,0.000000,0.678027,0.677543,0.328456,0.057480,0.320244,578.000000,538.000000,40.000000,7.000000,0.000000,0.000000:
00000000
00000000
00000000
00000000
,
00000000
00000000
00000000
00000000
,
00000000
00000000
00000000
00000000
,
00000000
00000000
00000000
00000000
,
10000000
01000000
00100000
10000000
00100000
00010000
01000000
00001000
,
00000100
00000010
00000100
00000001
00001000
00000010
00000001
00000010
,
00010000
00001000
00000010
00001000
00010000
00000010
00001000
00000200
,
00000000
00000000
00000000
00000000
00000000
00000000
00000000
00000300
00000000
00000000
00000000
00000000
00001001
00000000
00000000
00000000
,
00000100
00000001
00001000
00000100
00001000
00000001
00000010
00000001
,
00001000
00000010
00010000
00100000
00001000
00000010
00000100
00000001
,
00001000
00000100
00010000
01000000
10000000
00100000
01000000
00001000
,
00100000
01000000
10000000
00100000
00010000
00001000
00011000
00000000
,
00010000
00000100
00010000
00000000
00000010
00000000
00000100
00000000
00000001
00000010
00000001
00000000
00001000
00000000
00000010
00000000
,
00010000
00001000
00010000
00000000
01000000
00000000
10000000
00000000
00100000
10000000
00100000
00000000
01000000
00000000
00010000
00000000
,
01000000
00100000
01000000
00000000
00001000
00000000
00010000
00000000
00000010
00001000
00000010
00000000
00000100
00000000
00000001
00000000
,
00000100
00000001
00000001
00001000
00001000
00001100
00000101
00000001
,
00000100
00000010
00010000
00100000
01000000
00010000
10000000
01000000
,
00010000
00001000
00000010
00000100
00001000
00000001
00000010
00000100
,
00001000
00000010
00000100
00001000
00010000
00100000
10000000
01000000
,
00100000
00010000
01000000
00100000
00010000
00001000
01000000
00100000
,
10000000
01000000
01100000
00100000
00001000
00010000
00011000
00001000
,
00000100
00000010
00001010
00001000
00000001
00000010
00000110
00000100
,
00010000
00001000
00011000
00010000
00100000
10000000
11000000
01000000
,
00100000
00010000
00010000
10000000
10000000
10100000
00110000
00010000
,
01000000
00000000
00001000
00010000
00001000
00000000
00010000
00000000
00000010
00000000
00001000
00000100
00001000
00000000
00000001
00000000
,
00000100
00000000
00000010
00000001
00000010
00000000
00000100
00000000
00000001
00000000
00001000
00000100
00001000
00000000
00000010
00000000
,
00010000
00000000
00001000
00100000
00001000
00000000
01000000
00000000
00100000
00000000
10000000
01000000
10000000
00000000
00010000
00000000
,
10000000
00000000
00100000
00010000
00100000
00000000
00010000
00000000
00001000
00000000
00010000
00000100
00010000
00000000
00000100
00000000
,
00000010
00000001
00000101
00000000
00000001
00001000
00001100
00000000
,
00000100
00010000
00011000
00000000
00001000
00100000
00110000
00000000
,
00010000
10000000
11000000
00000000
01000000
00100000
00101000
00000000
,
00010000
00010100
00000000
00001010
00000000
00000101
00000000
00000011
,
00001001
00001000
00000001
00000100
00000010
00010000
00100000
01000000
,
00001000
00010000
00100000
10000000
01000000
00100000
00001000
01000000
,
00100000
10000000
00010000
01000000
00001000
00010000
00001000
00100000
,
00010000
00100000
00001000
00010000
00000010
00002000
00000100
00000100
,
00003100
00010000
00000010
00001000
00000001
00000010
00000100
00001000
,
00000100
00100000
00001000
00010000
00100000
01000000
00001000
00010000
,
00000010
00000100
00000001
00001000
00000100
00000010
00000001
00000010
,
00001000
00010000
00100000
10000000
01000000
20000000
00010000
00010000
,
30010000
10000000
10010000
10000000
01000000
00010000
00011000
00001000
,
00000010
00000001
00001001
00000001
00000100
00001000
00011000
00010000
,
00100000
10000000
10010000
00010000
01000000
00001000
00011000
00010000
,
00000100
00001000
00001001
00000001
00000100
00000020
00001000
00001000
,
00002030
00000100
00000001
00003100
,
00000002
00000100
00001000
00000103
,
00001001
00000000
00001000
00000001
00001000
00000000
00000000
00000000
00011000
00000000
00010000
00001000
00010000
00000000
00000000
00000000
,
00000000
00010000
00010000
10000000
10000000
11000000
01010000
00000000
,
01000000
00100000
01000000
00100000
01000000
00100000
01000000
00100000
00000000
10000000
00000000
00010000
00000000
10000000
01000000
00000000
,
00000000
00000000
00010000
00001000
00010000
00001000
00010000
00001000
00000000
00010000
00000000
00000100
00000000
00001000
00000010
00000000
,
00000000
00000000
00000100
00000001
00000100
00000001
00000100
00000001
00000000
00000010
00000000
00001000
00000000
00010000
00001000
00000000
,
00000000
00000000
00010000
00001000
00010000
00001000
00010000
00001000
00000000
00100000
00000000
00001000
00000000
00010000
00000100
00000000
,
00000000
00000000
00001000
00000010
00001000
00000010
00001000
00000010
00000000
00000100
00000000
00000001
00000000
00001000
00000100
00000000
,
00000000
00000000
00010000
00001000
00010000
00001000
00010000
00001000
00000000
00100000
00000000
00010000
00000000
01000000
00001000
00000000
,
00000000
00000000
00100000
00010000
00100000
00010000
00100000
00010000
00000000
01000000
00000000
00001000
00000000
00010000
00001000
00000000
,
00000000
00000000
00001000
00000000
00001000
00000000
00000001
00000000
00000001
00000000
00000011
00000000
00001010
00000000
00000000
00000001
,
00000100
00000000
00000001
00000000
00001000
00000000
00000000
00000100
00010000
00000000
00000010
00000000
00000100
00000000
00000000
00000001
,
00000010
00000000
00000100
00000000
00010000
00000000
00000000
00001000
00010000
00000000
00100000
00000000
01000000
00000000
00000000
00010000
,
00100000
00000000
01000000
00000000
00010000
00000000
00000000
01000000
10000000
00000000
00100000
00000000
01000000
00000000
00000000
00001000
,
00010000
00000000
01000000
00000000
10000000
00000000
00000000
00100000
00010000
00000000
00001000
00000000
00000010
00000000
00000000
00000100
,
00001000
00000000
00000001
00000000
00000100
00000000
00000000
00000001
00000010
00000000
00000100
00000000
00001000
00000000
00000000
00000010
,
00001000
00000000
00000100
00000000
00010000
00000000
00000000
00001000
00010000
00000000
01000000
00000000
10000000
00000000
00000000
00100000
,
10000000
00000000
00010000
00000000
10000000
00000000
00000000
00010000
01000000
00000000
00100000
00000000
10000000
00000000
00000000
00000000
,
00010000
01010000
00000000
11000000
00000000
10010000
10010000
00010000
,
10000000
01000000
00010000
00000000
01000000
00100000
00001000
00000000
,
00010000
00000100
00000001
00000000
00000100
00001000
00000001
00000000
,
00000010
00000001
00000100
00000000
00000010
00010000
00000100
00000000
,
00020000
00001000
00000000
00000100
00000000
00001000
00031000
00000000
,
00010000
01000000
10000000
00100000
01000000
00010000
10000000
01000000
,
00001000
00000100
00000010
00000001
00000100
00000010
00010000
00001000
,
01000000
00001000
00100000
10000000
00100000
00001000
00010000
00000100
,
00010000
00000000
00001000
00010000
00001000
00010000
00001000
00010000
00001000
00010000
00001000
00010000
00000100
00000000
00000000
00000000
;
