#TITLE:Four Sided Circle (Manderville Gold Saucer);
#SUBTITLE:;
#ARTIST:Nobuo Uematsu;
#TITLETRANSLIT:;
#SUBTITLETRANSLIT:;
#ARTISTTRANSLIT:;
#GENRE:Before The Fall;
#CREDIT:;
#BANNER:Four-Sided Circle-bn.jpg;
#BACKGROUND:Four-Sided Circle-bg.jpg;
#LYRICSPATH:;
#CDTITLE:;
#MUSIC:Four-Sided Circle.mp3;
#OFFSET:-0.037000;
#SAMPLESTART:63.526791;
#SAMPLELENGTH:18.823528;
#LASTBEATHINT:184.000000;
#SELECTABLE:YES;
#BPMS:0.000000=102.000000
;
#STOPS:
;
#BGCHANGES:;
#KEYSOUNDS:;
#ATTACKS:;

//---------------dance-single - ----------------
#NOTES:
     dance-single:
     :
     Challenge:
     9:
     0.543705,0.535209,0.229375,0.042477,0.382292,448.000000,421.000000,27.000000,5.000000,0.000000,0.000000,0.543705,0.535209,0.229375,0.042477,0.382292,448.000000,421.000000,27.000000,5.000000,0.000000,0.000000:
0000
0000
0000
0000
,
1000
0000
0010
0000
1000
0000
0001
0100
0010
0000
0100
0000
0001
1000
0010
0100
,
0001
0000
1100
0000
1000
0000
0101
0000
1000
0100
1000
0001
0010
0000
0110
0000
,
1000
0000
0001
0000
0100
0000
0010
1000
0001
0000
0010
0000
0100
0000
1000
0100
,
0010
0000
0101
0000
0010
0000
1100
0000
0010
1000
0001
1000
0010
0000
0000
0000
,
0100
0000
1001
0000
0100
0000
0001
1000
0010
0000
0100
0000
0001
1000
0100
0010
,
0001
0000
1010
0000
1000
0000
0011
0000
1000
0100
1000
0001
0010
0000
1001
0000
,
0100
0000
0010
0000
1000
0000
0001
0100
0010
0000
0101
0000
1000
0000
0001
1000
,
0010
0000
1100
0000
0100
0000
0011
0000
0010
0100
1000
0100
0010
0000
0000
0000
,
0001
1000
0010
0100
0001
0000
1000
0000
0100
0000
0010
0000
0100
0000
1000
0100
,
0010
0000
0001
0000
1000
0000
0001
0000
0100
0000
1000
0100
0010
0000
0100
0000
,
0001
0000
1000
0000
0010
0000
0000
1000
0001
0000
1000
0000
0100
0000
0000
0010
,
0001
0000
1000
0000
0010
1000
0001
1000
0100
0010
0001
0010
0100
0000
0000
0000
,
1000
0010
0100
0001
1000
0000
0001
0000
0010
0000
0100
0000
1000
0000
0001
0010
,
0100
0010
0001
1000
0100
0010
0001
0000
,
1000
0000
0010
0000
1000
0000
0001
0000
0200
0000
0000
0000
0310
0000
0000
0100
,
0001
0000
0000
0010
0000
0000
0001
1000
0001
1000
0000
0000
0200
0000
0000
0000
0000
0000
0310
0000
0000
0000
0000
0000
,
0001
0000
0010
0000
0001
0000
1000
0000
0020
0000
0000
0000
0130
0000
0000
0001
,
1000
0000
0000
0010
0000
0000
1000
0100
0010
0001
0000
0000
1000
0000
0000
0100
0000
0000
1000
0000
0000
0001
0000
0000
,
0100
0000
0010
0000
0100
0000
0001
0000
2000
0000
0000
0000
3010
0000
0000
1000
,
0100
0000
0000
0010
0000
0000
0001
0010
0100
1000
0000
0000
0010
0000
0000
0100
0000
0000
0001
0000
0000
1000
0000
0000
,
0100
0000
0000
0000
0000
0000
0010
0000
0000
0000
0000
0000
0001
0000
0100
0000
0010
0000
1000
0000
0000
0000
0000
0000
0001
0000
0000
0000
0000
0000
0100
0000
0000
0000
0000
0000
0001
0000
0000
0000
0000
0000
0000
0000
0000
1000
0000
0000
,
0010
0000
1000
0000
0100
1000
0001
0010
0100
0000
1000
0000
0001
0000
0000
0000
,
1000
0000
0010
0000
1000
0000
0001
0100
0010
0000
0100
0000
0001
1000
0010
0100
,
0001
0000
0110
0000
0001
0000
0110
0000
1000
0100
1000
0010
0100
0000
0110
0000
,
0001
0000
0100
0000
0010
0000
1000
0001
1000
0000
0010
0000
0100
0000
0001
0100
,
0010
0000
1001
0000
0010
0000
0101
0000
0010
0100
0001
1000
0010
0000
0000
0000
,
0100
0000
0001
0000
0100
0000
0001
1000
0010
0000
0100
0000
0001
1000
0100
0010
,
0001
0000
1010
0000
1000
0000
0011
0000
1000
0100
1000
0001
0010
0000
1001
0000
,
0100
0000
0010
0000
1000
0000
0001
0100
0010
0000
0101
0000
1000
0000
0001
1000
,
0010
0000
1100
0000
0100
0000
0011
0000
0010
0100
1000
0100
0010
0001
0010
0001
,
1000
0100
1000
0100
0010
0000
0100
0000
1000
0000
0001
0000
0100
0000
0010
0100
,
0010
0000
1000
0000
0001
0000
1000
0000
0100
0000
0010
0100
1000
0000
0001
0000
,
1000
0000
0010
0000
0110
0000
0000
1000
0001
0000
1000
0000
0101
0000
0000
0001
,
0010
0000
0100
0000
1000
0100
0010
0001
0100
0010
0001
0010
0100
0000
0000
0000
,
0001
0100
0010
1000
0100
0000
0010
0000
0001
0000
1000
0000
0110
0000
0001
1000
,
0001
0010
1000
0010
0001
1000
0010
0000
,
1000
0000
0010
0000
1000
0000
0001
0000
0010
0000
0100
0000
0010
0000
0100
1000
,
0001
0010
0001
0100
0010
1000
0010
1000
,
0001
0000
0010
0000
0100
0000
1000
0000
0001
0000
1000
0000
0010
0000
0100
0001
,
1000
0010
1000
0100
0010
0001
1000
0001
,
0100
0000
0000
0000
0000
0000
0010
0000
0000
0000
0000
0000
1000
0000
0010
0000
1000
0000
0010
0000
0000
0000
0000
0000
0100
0000
0000
0000
0000
0000
0001
0000
0000
0000
0000
0000
1000
0000
0000
0000
0000
0000
0100
0000
0000
0010
0000
0000
,
0100
0000
0000
1000
0000
0000
0001
0010
0100
1000
0000
0000
0001
0000
0000
0010
0000
0000
0001
0000
0000
1000
0000
0000
,
1001
0000
0000
0000
0000
0000
0010
0000
0000
0000
0000
0000
0100
0000
0001
0000
1000
0000
0100
0000
0000
0000
0000
0000
0010
0000
0000
0000
0000
0000
0001
0000
0000
0000
0000
0000
1000
0000
0000
0000
0000
0000
0010
0000
0000
0100
0000
0000
,
0001
0000
1000
0000
0100
1000
0001
0010
0100
0000
1000
0000
0002
0000
0000
0000
,
1003
0000
0000
0000
;

//---------------dance-single - ----------------
#NOTES:
     dance-single:
     :
     Hard:
     7:
     0.385933,0.420521,0.220880,0.152917,0.000000,318.000000,292.000000,26.000000,18.000000,0.000000,0.000000,0.385933,0.420521,0.220880,0.152917,0.000000,318.000000,292.000000,26.000000,18.000000,0.000000,0.000000:
0000
0000
0000
0000
,
0001
0010
0001
0000
1000
0010
0100
0001
,
0010
0100
0010
0100
1000
0010
0100
0000
,
0001
1000
0100
0000
0010
0001
0100
0010
,
1000
0001
1000
0001
1000
0100
0010
0000
,
0001
0010
0100
0000
1000
0010
1000
0001
,
0010
0100
0010
0100
1000
0010
0100
0001
,
1000
0001
0100
0000
0010
1000
0100
0010
,
0001
1000
0001
1000
0010
0100
0001
0000
,
1000
0100
1000
0010
1000
0100
1000
0001
,
0010
0001
0100
0001
1000
0001
0010
0100
,
1000
0100
0020
0000
0031
1000
0020
0000
,
0130
0001
0010
0100
1000
0001
0200
0000
,
0310
1000
0001
1000
0100
1000
0001
1000
,
0010
0100
0001
0100
0010
1000
0001
0000
,
0100
0010
0100
0010
2000
0000
3001
0000
,
0010
0100
0010
0100
0002
0000
1003
0000
,
0100
0010
0001
1000
0020
0000
0130
0000
,
0001
1000
0100
0010
0200
0000
1300
0000
,
0010
0100
0010
1000
0002
0000
0013
0000
,
0001
1000
0100
0010
0200
0000
1300
0000
,
0001
0100
0010
1000
0200
0000
0310
0000
,
0001
1000
0100
0010
0100
1000
0001
0000
,
0100
0010
0000
1000
0000
1001
0000
0010
,
0000
0001
0000
1000
0000
1010
0000
1001
,
0000
0100
0000
0001
0000
0101
0000
1001
,
0000
0010
0000
0100
0000
0110
1001
0000
,
0010
1000
0100
1000
0001
0010
0100
1000
,
0001
0001
1000
1000
0001
0100
0001
0100
,
0010
1000
0100
0010
0001
1000
0001
0010
,
0100
1000
0100
0010
0001
1000
0200
0000
,
0310
0001
0011
0001
1000
0001
1001
0100
,
0001
0100
0101
0100
0010
1000
1010
0010
,
1000
0001
1001
0000
0100
0001
0101
0000
,
1000
0010
1000
0100
0010
0100
1001
0000
,
0010
0001
1000
0001
0100
0010
1001
0100
,
0010
0100
0010
1000
0100
0010
0110
0000
,
0011
1000
0010
0100
0002
0000
1003
0000
,
1100
0001
0100
0010
2000
0000
3001
0000
,
0110
0001
1000
0001
0020
0000
0130
0000
,
1001
0100
0010
0100
2000
0000
3001
0000
,
0110
0010
1000
0001
0020
0000
0130
0000
,
0110
0001
0100
0001
0020
0000
0130
0000
,
1010
1000
0100
1000
0020
0000
0130
0000
,
0011
0001
0100
0001
1000
0010
0110
0000
,
1001
0000
0000
0000
;

//---------------dance-single - ----------------
#NOTES:
     dance-single:
     :
     Medium:
     6:
     0.274280,0.286719,0.025486,0.050972,0.000000,226.000000,223.000000,3.000000,6.000000,0.000000,0.000000,0.274280,0.286719,0.025486,0.050972,0.000000,226.000000,223.000000,3.000000,6.000000,0.000000,0.000000:
0000
0000
0000
0000
,
1000
0001
0010
0100
,
1000
0000
0010
0000
0100
0001
0100
0000
,
0010
1000
0001
0010
,
0100
1000
0020
0000
0000
0100
0130
0000
,
0001
0010
0100
1000
,
0010
0000
0100
0000
0001
1000
0100
0000
,
0010
0001
1000
0010
,
0100
0001
0020
0000
0000
0100
0130
0000
,
1000
1000
0100
0100
0010
0000
0001
0001
,
0000
1000
0000
0001
0100
0000
0010
0000
,
1000
0010
1000
0000
0001
0010
0001
0000
,
0010
0000
0100
0000
1000
0100
0010
0001
,
0100
0100
0010
0010
1000
0001
0000
0010
,
0000
0100
0000
1000
0001
1000
0010
0000
,
0100
0001
0020
0000
,
0130
0000
1000
0000
0010
1000
0010
1000
,
0010
0100
0020
0000
,
0130
0000
0001
0000
1000
0001
1000
0001
,
1000
0010
0200
0000
,
0310
0000
1000
0000
0100
0010
0100
0010
,
0001
1000
0002
0000
,
0013
0000
0100
1000
0100
1000
0100
0000
,
0000
0010
0000
0010
0000
0010
0000
0001
,
0000
1000
0000
0001
0000
0100
0000
0010
,
0000
1000
0000
0001
0000
0010
0000
0100
,
0000
1000
0000
0010
0000
0100
0100
0000
,
0001
1000
0100
0010
,
0001
0010
0001
0010
0001
0100
0001
0000
,
1000
0010
0100
0001
,
1000
0000
0010
0000
1000
0100
1000
0000
,
0001
1000
0001
0000
0100
0000
0110
0000
,
0010
0000
1000
0000
0001
1000
0010
0100
,
0001
0100
0001
0000
1000
0100
1000
0000
,
0001
0010
0001
0010
0001
1000
0001
0000
,
1000
0010
0100
0110
,
0001
0000
1000
0000
0100
1000
0001
0000
,
0010
0001
0100
0001
0010
0000
0100
0000
,
1000
0010
0100
0010
1000
0000
0000
0000
,
0001
0100
0010
0100
0001
0000
0001
0000
,
1000
0010
0100
0001
1000
0000
0000
0000
,
0100
1000
0001
0100
0001
0000
0100
0000
,
0010
1000
0001
0010
0100
0000
0000
0000
,
0010
0001
1000
0001
0010
0000
0100
0000
,
1000
0010
0100
0001
1000
0001
1000
0000
,
1001
0000
0000
0000
;

//---------------dance-single - ----------------
#NOTES:
     dance-single:
     :
     Easy:
     3:
     0.196607,0.229375,0.050972,0.118935,0.000000,162.000000,156.000000,6.000000,14.000000,0.000000,0.000000,0.196607,0.229375,0.050972,0.118935,0.000000,162.000000,156.000000,6.000000,14.000000,0.000000,0.000000:
// measure 0
0000
0000
0000
0000
,  // measure 1
0100
1000
0001
0100
,  // measure 2
0010
1000
0010
0100
,  // measure 3
0001
0010
0001
1000
,  // measure 4
0010
0100
0000
1001
,  // measure 5
0010
1000
0100
0100
,  // measure 6
0001
1000
0100
0010
,  // measure 7
0001
1000
0010
0100
,  // measure 8
0001
0001
1000
0010
,  // measure 9
1000
0100
0010
0100
,  // measure 10
1000
0010
0100
0100
,  // measure 11
0001
0001
1000
1000
,  // measure 12
0010
0100
0001
1000
,  // measure 13
0100
0010
0100
1000
,  // measure 14
0001
0010
0100
1000
,  // measure 15
0001
1000
0002
0003
,  // measure 16
1000
0001
2000
3000
,  // measure 17
0010
1000
0020
0030
,  // measure 18
0100
0001
0200
0300
,  // measure 19
0010
0100
0020
0030
,  // measure 20
1000
0001
2000
3000
,  // measure 21
0100
0010
0200
0300
,  // measure 22
1000
0100
0010
0100
,  // measure 23
1000
0000
0001
0000
,  // measure 24
0100
0000
0010
0010
,  // measure 25
1000
0000
0001
0000
,  // measure 26
0010
0100
0010
0100
,  // measure 27
1000
1000
0001
0001
,  // measure 28
0100
1000
0100
0001
,  // measure 29
1000
0001
1000
0001
,  // measure 30
0010
0010
0100
0100
,  // measure 31
1001
0100
0010
1001
,  // measure 32
0010
0100
1000
1000
,  // measure 33
0001
1001
1000
1001
,  // measure 34
0010
0100
0010
0000
,  // measure 35
1000
0100
0010
0001
,  // measure 36
0100
0010
1000
1000
,  // measure 37
0001
0010
0200
0300
,  // measure 38
1000
0010
0200
0300
,  // measure 39
0010
1000
0200
0300
,  // measure 40
0010
0001
0200
0300
,  // measure 41
0001
1000
0020
0030
,  // measure 42
1000
0100
0020
0030
,  // measure 43
0001
1000
0020
0030
,  // measure 44
0100
0001
1000
0100
,  // measure 45
1001
0000
0000
0000
;

//---------------dance-single - ----------------
#NOTES:
     dance-single:
     :
     Beginner:
     1:
     0.105585,0.114688,0.025486,0.000000,0.000000,87.000000,84.000000,3.000000,0.000000,0.000000,0.000000,0.105585,0.114688,0.025486,0.000000,0.000000,87.000000,84.000000,3.000000,0.000000,0.000000,0.000000:
// measure 0
0000
0000
0000
0000
,  // measure 1
0100
0000
0010
0000
,  // measure 2
0001
0000
1000
0000
,  // measure 3
0010
0000
0100
0000
,  // measure 4
0001
0000
1000
0000
,  // measure 5
0100
0000
0010
0000
,  // measure 6
0001
0000
1000
0000
,  // measure 7
0010
0000
0100
0000
,  // measure 8
0001
0000
0010
0000
,  // measure 9
0100
0000
1000
0000
,  // measure 10
0010
0000
0100
0000
,  // measure 11
0001
0000
0010
0000
,  // measure 12
0001
0000
1000
0000
,  // measure 13
0010
0000
1000
0000
,  // measure 14
0100
0000
0010
0000
,  // measure 15
0001
0000
1000
0000
,  // measure 16
0010
0000
0100
0000
,  // measure 17
0001
0000
0100
0000
,  // measure 18
0010
0000
1000
0000
,  // measure 19
0100
0000
0010
0000
,  // measure 20
0001
0000
1000
0000
,  // measure 21
0001
0000
0010
0000
,  // measure 22
0100
0000
0000
0000
,  // measure 23
1000
0000
0000
0000
,  // measure 24
0001
0000
0000
0000
,  // measure 25
0100
0000
0000
0000
,  // measure 26
0010
0000
0000
0000
,  // measure 27
1001
0000
0010
0000
,  // measure 28
1000
0000
1000
0000
,  // measure 29
0001
0000
0010
0000
,  // measure 30
0001
0000
0001
0000
,  // measure 31
1001
0000
0001
0000
,  // measure 32
1000
0000
0001
0000
,  // measure 33
1000
0000
0100
0000
,  // measure 34
0010
0000
0100
0000
,  // measure 35
0010
0000
0001
0000
,  // measure 36
1000
0000
0001
0000
,  // measure 37
0100
0000
0010
0000
,  // measure 38
1000
0000
0100
0000
,  // measure 39
0010
0000
0001
0000
,  // measure 40
1000
0000
0001
0000
,  // measure 41
0100
0000
0010
0000
,  // measure 42
1000
0000
0100
0000
,  // measure 43
0010
0000
0001
0000
,  // measure 44
1000
0000
0010
0000
,  // measure 45
1001
0000
0000
0000
;
