#TITLE:Forget;
#SUBTITLE:;
#ARTIST:Pogo;
#TITLETRANSLIT:;
#SUBTITLETRANSLIT:;
#ARTISTTRANSLIT:;
#GENRE:Kindred Shadow;
#CREDIT:[Ness];
#BANNER:Forget.png;
#BACKGROUND:Forget-bg.png;
#LYRICSPATH:;
#CDTITLE:;
#MUSIC:Forget.mp3;
#OFFSET:-0.015000;
#SAMPLESTART:17.804716;
#SAMPLELENGTH:17.777777;
#LASTBEATHINT:228.000000;
#SELECTABLE:YES;
#BPMS:0.000000=108.000000
;
#STOPS:
;
#BGCHANGES:;
#KEYSOUNDS:;
#ATTACKS:;

//---------------dance-single - ----------------
#NOTES:
     dance-single:
     :
     Challenge:
     10:
     0.552842,0.587173,0.728999,0.380010,0.403276,499.000000,405.000000,94.000000,49.000000,0.000000,0.000000,0.552842,0.587173,0.728999,0.380010,0.403276,499.000000,405.000000,94.000000,49.000000,0.000000,0.000000:
0000
0000
0000
0000
,
0000
0000
0000
0000
,
1100
0000
1000
0002
0000
0000
1003
0000
1100
0000
1000
0002
0000
0000
1003
0000
,
1100
0000
1000
0002
0000
0000
1003
0000
1100
0000
1000
0002
0000
0000
1003
0000
,
1100
0000
1000
0010
0000
0100
0000
0110
0000
0001
0010
0000
0002
0000
1003
0000
,
0000
0000
1000
0010
0000
0100
0000
0110
0000
0001
0010
0000
0002
0000
1003
0000
,
0000
0000
0001
0100
0010
0000
0201
0000
1000
0000
0000
0000
0301
0000
0110
0000
,
1000
0000
0001
0100
0010
0000
0201
0000
1000
0000
0000
0000
0301
0000
0110
0000
,
1001
0000
0001
0010
0000
1100
0000
1020
0000
0000
0130
0000
0110
0000
1001
0000
,
0010
0000
0001
1000
0010
1100
0000
1020
0000
0000
0130
0000
2002
0000
0000
0000
,
3003
0000
0200
1000
0310
0000
0020
0001
,
0130
0000
0002
0000
0010
0003
2000
0000
0100
3000
0011
0000
1100
0000
0000
0000
,
1010
0000
0010
0001
0000
1000
0000
1001
0000
0100
0010
0000
0002
0000
0103
0000
,
0000
0000
0010
0001
0000
1000
0000
1001
0000
0100
0010
0000
0002
0000
0103
0000
,
0000
0000
0100
1000
0010
0000
2100
0000
0001
0000
0000
0000
3010
0000
1001
0000
,
1000
0000
0100
1000
0010
0000
2100
0000
0001
0000
0000
0000
3010
0000
1001
0000
,
0101
0000
0001
0010
0000
1100
0000
1020
0000
0000
0130
0000
0110
0000
1001
0000
,
0010
0000
0001
1000
0010
1100
0000
1020
0000
0000
0130
0000
2002
0000
0000
0000
,
3003
0000
0200
0001
0310
0000
0020
1000
,
0130
0000
0002
0000
0010
0003
2000
0000
0100
3000
0011
0000
1100
0000
0000
0000
,
0001
0000
1000
0100
0000
0000
1000
0000
0001
0000
1000
0010
0100
0000
0001
0000
,
0010
0000
0100
1000
0000
0000
0001
0000
1000
0000
0010
1000
0001
0000
0100
0000
,
0001
0000
0010
0100
1000
0000
0000
0001
0100
0000
0010
1000
0100
0000
0010
0000
,
0001
0000
1000
0100
0000
0000
0001
0000
0100
0000
0110
0000
1001
0000
0000
0000
,
0001
0000
1000
0100
0000
0000
1000
0000
0001
0000
1000
0010
0100
0000
0001
0000
,
0010
0000
0100
0010
0000
0000
0001
0000
0100
0000
0010
1000
0001
0000
0100
0000
,
0001
0000
0010
0100
1000
0000
0000
0010
0100
0000
0001
1000
0100
0000
1000
0000
,
0001
0000
0100
0010
0000
0000
1000
0000
0100
0000
0110
0000
1001
0000
0000
0000
,
0000
0000
0100
0100
0001
0000
0000
0010
0100
0000
1010
0000
0011
0000
0000
0000
,
0000
0000
1100
0000
0000
0101
0000
0010
0100
0000
1010
0000
0011
0000
0000
0000
,
0001
0000
0010
0100
1000
0000
0000
0010
0100
0000
0001
1000
0100
0000
0000
0010
,
0100
0000
1010
0000
0011
0000
0100
0100
0010
0000
0101
0000
1100
0000
0000
0000
,
0000
0000
0100
0100
0001
0000
0000
0010
0100
0000
1010
0000
0011
0000
0000
0000
,
0000
0000
1100
0000
0000
0101
0000
0010
0100
0000
1010
0000
0011
0000
0000
0000
,
1000
0000
0010
0100
0001
0000
0000
1000
0010
0000
0001
1000
0100
0000
0000
0010
,
0100
0000
1010
0000
0011
0000
0100
1000
0010
0000
0101
0000
1100
0000
0000
0000
,
0002
0000
0000
0000
0000
0000
0000
0000
0003
1000
0000
0000
2000
0000
0000
0000
0000
0000
0000
0000
3000
0010
0000
0000
,
0020
0000
0000
0000
0000
0000
0000
0000
0000
0001
0000
0000
0000
0000
0000
0000
0030
0000
0100
0000
0000
0000
0000
0000
0200
0000
0000
0000
0000
0000
0000
0000
0000
1000
0000
0000
0000
0000
0000
0000
0300
0000
0010
0000
0000
0000
0000
0000
,
0100
1000
0000
0001
0000
0200
0010
0000
1000
0000
0010
0000
0301
0000
0000
0000
,
0100
1000
0000
0001
0000
0200
0010
0000
1000
0300
0010
0100
0010
0000
0110
0000
,
0000
0000
1001
0000
0100
0000
1010
0000
0001
0000
0011
0000
0100
0000
0101
0010
,
0100
0000
2001
0000
0000
3000
0102
0000
0000
0003
0000
0000
0110
0000
0000
0000
,
0000
0000
0002
0000
0103
0010
0200
0000
1300
0100
0010
0000
1010
0000
0011
0000
,
0000
0000
1002
0000
0010
0000
0103
0000
1000
0100
0010
0000
2000
0000
3100
0000
,
0002
0000
0013
0000
0000
0000
0210
0000
0000
1300
0000
0010
0002
0000
0000
0000
,
0000
0003
0200
0000
0000
0000
1000
0000
0300
0000
0000
0000
0020
0000
0000
0000
,
0030
0000
0100
0100
0001
0000
0000
0010
0100
0000
1010
0000
0011
0000
0000
0000
,
0000
0000
1100
0000
0000
0101
0000
0010
0100
0000
1010
0000
0011
0000
0000
0000
,
0001
0000
0010
0100
1000
0000
0000
0010
0100
0000
0001
1000
0100
0000
0000
0010
,
0100
0000
1010
0000
0011
0000
0100
0100
0010
0000
0101
0000
1100
0000
0000
0000
,
0000
0000
0100
0100
0001
0000
0000
0010
0100
0000
1010
0000
0011
0000
0000
0000
,
0000
0000
1100
0000
0000
0101
0000
0010
0100
0000
1010
0000
0011
0000
0000
0000
,
1000
0000
0010
0100
0001
0000
0000
1000
0010
0000
0001
1000
0100
0000
0000
0010
,
0100
0000
1010
0000
0011
0000
0100
1000
0010
0000
0101
0000
1100
0000
0000
0000
,
0020
0000
0000
0000
0000
0000
0000
0000
0000
0001
0000
0000
0000
0000
0000
0000
0030
0000
0100
0000
0000
0000
0000
0000
0200
0000
0000
0000
0000
0000
0000
0000
0000
0000
0000
0000
0000
0000
0000
0000
0300
0000
1000
0000
0000
0000
0000
0000
,
2000
0000
0000
0000
0000
0000
0000
0000
3000
0100
0000
0000
0200
0000
0000
0000
0000
0000
0000
0000
0000
0001
0000
0000
,
0000
0300
0000
0000
0000
0000
0000
0000
0000
0000
0000
0000
;

//---------------dance-single - ----------------
#NOTES:
     dance-single:
     :
     Hard:
     8:
     0.405492,0.411661,0.209393,0.317967,0.267558,366.000000,339.000000,27.000000,41.000000,0.000000,0.000000,0.405492,0.411661,0.209393,0.317967,0.267558,366.000000,339.000000,27.000000,41.000000,0.000000,0.000000:
0000
0000
0000
0000
,
0000
0000
0000
0000
,
0101
0000
0000
0010
0000
0000
1000
0000
0101
0000
0000
0010
0000
0000
1000
0000
,
0101
0000
0000
0010
0000
0000
1000
0000
0101
0000
0000
0010
0000
0000
1000
0000
,
0100
0000
1000
0001
0000
1000
0000
0001
0000
1000
0010
0000
0100
0000
0010
0000
,
0000
0000
0000
0001
0000
1000
0000
0001
0000
1000
0010
0000
0100
0000
0010
0000
,
0000
1000
0100
0002
0010
0003
1010
1000
,
0000
1000
0100
0002
0010
0003
1010
1000
,
0001
0000
0010
0100
0000
1000
0000
0020
0000
0000
0100
0000
0130
0000
0000
0000
,
0001
0000
0010
0100
0000
0001
0000
1000
0000
0000
0000
0000
2002
0000
0000
0000
,
3003
0000
0001
0100
0020
0000
1000
0100
,
1030
0100
0001
1000
0010
0100
0001
0000
,
0100
0000
0001
1000
0000
0010
0000
1000
0000
0001
0010
0000
0100
0000
1000
0000
,
0000
0000
0000
1000
0000
0010
0000
1000
0000
0001
0010
0000
0100
0000
1000
0000
,
0000
0001
0100
2000
0010
3000
0101
0010
,
0000
0001
0100
2000
0010
3000
0101
0010
,
0001
0000
0010
0100
0000
1000
0000
0020
0000
0000
0100
0000
0130
0000
0000
0000
,
0001
0000
0010
0100
0000
0001
0000
1000
0000
0000
0000
0000
2002
0000
0000
0000
,
3003
0000
0001
0100
0020
0000
1000
0100
,
0030
0100
0001
1000
0010
0100
0001
0000
,
2100
0000
3010
1000
0200
0000
0310
1000
,
0200
0000
0310
1000
0200
0000
0310
1000
,
0100
0000
0010
0000
0101
0000
0000
0001
0010
0000
0100
0000
1010
0000
0000
0000
,
0000
0000
0000
0000
0000
0010
1000
0000
,
0102
0000
0013
0001
0200
0000
0310
0001
,
0200
0000
0310
0001
0200
0000
0310
0001
,
0100
0000
0010
0000
1100
0000
0000
1000
0010
0000
0100
0000
0011
0000
0000
0000
,
0000
0000
0000
0000
0000
0010
1000
0000
,
0000
0000
0001
1000
0001
0000
0000
0001
0010
0000
0100
0000
1000
0000
0000
0000
,
0000
0000
0010
0000
0000
0100
0000
0001
0010
0000
0100
0000
1000
0000
0000
0000
,
0100
0000
0010
0000
0101
0000
0000
0001
0010
0000
0100
0000
1010
0000
0000
0001
,
0010
0000
0100
0000
1000
0000
0001
1000
0001
0000
0100
0000
1000
0000
0000
0000
,
0000
0000
0001
1000
0001
0000
0000
0001
0010
0000
0100
0000
1000
0000
0000
0000
,
0000
0000
0010
0000
0000
0100
0000
1000
0010
0000
0100
0000
0001
0000
0000
0000
,
0100
0000
0010
0000
1100
0000
0000
1000
0010
0000
0100
0000
0011
0000
0000
1000
,
0010
0000
0100
0000
0001
0000
1000
0001
1000
0000
0100
0000
0001
0000
0000
0000
,
0020
0000
0030
0100
0200
0000
0300
0010
,
0020
0000
0030
0100
0200
0000
0300
0010
,
0010
0001
0000
0100
0000
0001
0010
0000
0200
0000
0000
0000
0301
0000
0000
0000
,
0010
1000
0000
0100
0000
1000
0010
0000
0100
0000
0001
1000
0001
0000
1000
0000
,
0000
0020
0130
2000
3010
0002
0103
0020
,
0130
0002
0000
2003
0000
3000
0101
0000
,
0000
1000
0100
0000
1000
0010
0001
0010
,
1000
1000
0100
0000
1000
0010
0002
0100
,
0013
0001
0000
0202
0000
0303
2002
0000
,
3003
0020
0000
1000
0000
0000
0130
0000
,
0000
0000
0001
1000
0001
0000
0000
0001
0010
0000
0100
0000
1000
0000
0000
0000
,
0000
0000
0010
0000
0000
0100
0000
0001
0010
0000
0100
0000
1000
0000
0000
0000
,
0100
0000
0010
0000
0101
0000
0000
0001
0010
0000
0100
0000
1010
0000
0000
0001
,
0010
0000
0100
0000
1000
0000
0001
1000
0001
0000
0100
0000
1000
0000
0000
0000
,
0000
0000
0001
1000
0001
0000
0000
0001
0010
0000
0100
0000
1000
0000
0000
0000
,
0000
0000
0010
0000
0000
0100
0000
1000
0010
0000
0100
0000
0001
0000
0000
0000
,
0100
0000
0010
0000
1100
0000
0000
1000
0010
0000
0100
0000
0011
0000
0000
1000
,
0010
0000
0100
0000
0001
0000
1000
0001
0100
0000
0010
0000
0001
0000
0000
0000
,
0020
0000
0030
1000
2000
0000
3000
0010
,
0020
0000
0030
0001
0002
0000
0003
0001
;

//---------------dance-single - ----------------
#NOTES:
     dance-single:
     :
     Medium:
     6:
     0.313536,0.345887,0.100819,0.193883,0.015511,283.000000,270.000000,13.000000,25.000000,0.000000,0.000000,0.313536,0.345887,0.100819,0.193883,0.015511,283.000000,270.000000,13.000000,25.000000,0.000000,0.000000:
0000
0000
0000
0000
,
0000
0000
0000
0000
,
0002
0013
2000
3010
,
0002
0013
2000
3010
,
0001
1000
0100
0000
1000
0000
0101
0000
,
0001
1000
0100
0000
1000
0000
0101
0000
,
0100
0001
0010
0100
1000
0000
1001
0000
,
0100
0001
0010
0100
1000
0000
1001
0000
,
1000
0000
0001
1000
0010
0000
0110
0000
,
0001
0001
0001
1000
0010
0000
0110
0000
,
0000
0000
0001
0100
1000
0000
1000
0100
,
0001
0001
0100
1000
1000
0100
0001
0000
,
0101
0010
0100
0010
,
0101
0010
0100
0010
,
1000
0100
0010
0000
1000
0000
1001
0000
,
1000
0100
0010
0000
1000
0000
1001
0000
,
1000
0000
0001
1000
0010
0000
0110
0000
,
0001
0001
0001
1000
0010
0000
0110
0000
,
0000
0000
0001
0100
1000
0000
1000
0100
,
0001
0001
0100
1000
1000
0100
0001
0000
,
0200
0310
2000
3010
,
0200
0310
0002
0013
,
1000
0010
1000
0000
0001
0010
0100
0000
,
0010
0000
0010
0000
0010
1000
0100
0000
,
0020
0130
0002
0103
,
0020
0130
2000
3100
,
1000
0010
1000
0000
0001
0010
0100
0000
,
0010
0000
0010
0000
0010
1000
0100
0000
,
0000
0010
0010
0000
0001
0100
1000
0000
,
0000
0000
0010
0000
0000
0010
0000
0000
0001
0000
0100
0000
1000
0000
0000
0000
,
1000
0010
1000
0000
0001
0010
0100
0000
,
0001
0100
1000
0001
0001
0100
1000
0000
,
0000
0010
0010
0000
0001
0100
1000
0000
,
0000
0000
0010
0000
0000
0010
0000
0000
0001
0000
0100
0000
1000
0000
0000
0000
,
1000
0010
1000
0000
0001
0010
0100
0000
,
0001
0100
1000
0001
0001
0100
1000
0000
,
0200
0300
0002
0003
,
0200
0300
2000
3000
,
0002
0000
1003
0001
0010
0100
0010
0000
,
0000
0000
0002
0000
1003
0001
0010
0100
,
0010
0002
0103
2000
,
3010
0200
0310
0110
,
0000
1000
0100
0000
1000
0010
0100
0001
,
0010
0100
1000
0000
1000
0010
0100
0001
,
0010
0100
1000
0000
0001
0000
0010
0000
,
0100
0000
0000
0000
,
0000
0010
0010
0000
0001
0100
1000
0000
,
0000
0000
0010
0000
0000
0010
0000
0000
0001
0000
0100
0000
1000
0000
0000
0000
,
1000
0010
1000
0000
0001
0010
0100
0000
,
0001
0100
1000
0001
0001
0100
1000
0000
,
0000
0010
0010
0000
1000
0100
0001
0000
,
0000
0000
0010
0000
0000
0010
0000
0000
1000
0000
0100
0000
0001
0000
0000
0000
,
0001
0010
0001
0000
1000
0010
0100
0000
,
1000
0100
0001
1000
1000
0100
0001
0000
,
0200
0300
0020
0030
,
2000
3000
0200
0300
;

//---------------dance-single - ----------------
#NOTES:
     dance-single:
     :
     Easy:
     4:
     0.244846,0.237797,0.139595,0.100819,0.000000,221.000000,203.000000,18.000000,13.000000,0.000000,0.000000,0.244846,0.237797,0.139595,0.100819,0.000000,221.000000,203.000000,18.000000,13.000000,0.000000,0.000000:
// measure 0
0000
0000
0000
0000
,  // measure 1
0000
0000
0000
0000
,  // measure 2
0100
1000
0100
0001
,  // measure 3
0100
1000
0100
0001
,  // measure 4
0100
0010
0100
1000
,  // measure 5
0100
0010
0100
1000
,  // measure 6
0010
0001
0100
0100
,  // measure 7
0010
0001
0100
0100
,  // measure 8
0001
1000
0100
0100
,  // measure 9
0001
1000
0100
1100
,  // measure 10
0001
0010
0100
1000
,  // measure 11
0100
0010
0001
1000
,  // measure 12
0100
0010
0100
1000
,  // measure 13
0100
0010
0100
1000
,  // measure 14
0010
0001
0100
0100
,  // measure 15
0010
0001
0100
0100
,  // measure 16
0001
1000
0100
0100
,  // measure 17
0001
1000
0100
1100
,  // measure 18
0001
0100
0010
1000
,  // measure 19
0010
0100
0001
1000
,  // measure 20
0002
0103
1000
1000
,  // measure 21
2000
3100
0001
0001
,  // measure 22
1000
0010
0100
0110
,  // measure 23
0001
1000
0100
0010
,  // measure 24
0002
0103
1000
1000
,  // measure 25
2000
3010
0001
0001
,  // measure 26
1000
0010
0100
0110
,  // measure 27
0001
1000
0100
0010
,  // measure 28
0001
1001
0010
0010
,  // measure 29
1000
1001
0010
0010
,  // measure 30
1000
0010
0100
0110
,  // measure 31
0010
0010
0100
0100
,  // measure 32
0001
1001
0010
0010
,  // measure 33
1000
1001
0010
0010
,  // measure 34
1000
0010
0100
0110
,  // measure 35
0010
0010
0100
0100
,  // measure 36
0002
0003
0002
0003
,  // measure 37
2000
3000
2000
3000
,  // measure 38
0001
0001
2000
3100
,  // measure 39
0001
0001
1000
0001
,  // measure 40
1000
0100
0001
0100
,  // measure 41
1000
1000
0010
0010
,  // measure 42
0000
0100
0010
0110
,  // measure 43
0000
0100
0010
0110
,  // measure 44
0001
0010
1000
0010
,  // measure 45
0001
0000
0000
0000
,  // measure 46
0001
1001
0010
0010
,  // measure 47
1000
1001
0010
0010
,  // measure 48
1000
0100
0001
0101
,  // measure 49
0010
0010
0100
0100
,  // measure 50
0001
1001
0010
0010
,  // measure 51
1000
1001
0010
0010
,  // measure 52
0001
0100
1000
0101
,  // measure 53
0010
0010
0100
0100
,  // measure 54
2000
3000
0020
0030
,  // measure 55
0200
0300
0020
0030
;

//---------------dance-single - ----------------
#NOTES:
     dance-single:
     :
     Beginner:
     1:
     0.129624,0.165964,0.000000,0.031021,0.000000,117.000000,117.000000,0.000000,4.000000,0.000000,0.000000,0.129624,0.165964,0.000000,0.031021,0.000000,117.000000,117.000000,0.000000,4.000000,0.000000,0.000000:
// measure 0
0000
0000
0000
0000
,  // measure 1
0000
0000
0000
0000
,  // measure 2
0100
0000
0100
0000
,  // measure 3
0100
0000
0100
0000
,  // measure 4
0001
0000
0010
0000
,  // measure 5
0001
0000
1000
0000
,  // measure 6
0010
0000
0100
0000
,  // measure 7
0001
0000
1000
0000
,  // measure 8
0010
0010
0010
0000
,  // measure 9
0100
0100
0100
0000
,  // measure 10
0001
0000
0010
0000
,  // measure 11
0100
0100
0100
0000
,  // measure 12
0001
0000
0010
0000
,  // measure 13
0001
0000
1000
0000
,  // measure 14
0010
0000
0100
0000
,  // measure 15
0001
0000
1000
0000
,  // measure 16
0010
0010
0010
0000
,  // measure 17
0100
0100
0100
0000
,  // measure 18
0001
0000
0010
0000
,  // measure 19
0100
0000
0000
0000
,  // measure 20
1000
0000
0010
0000
,  // measure 21
0100
0000
0001
0000
,  // measure 22
0010
0010
0010
0000
,  // measure 23
0100
0000
0010
0000
,  // measure 24
1000
0000
0010
0000
,  // measure 25
0100
0000
0001
0000
,  // measure 26
0010
0010
0010
0000
,  // measure 27
0100
0000
0010
0000
,  // measure 28
1000
0000
0010
0010
,  // measure 29
0000
0000
0010
0010
,  // measure 30
0010
0010
0010
0000
,  // measure 31
0100
0100
0100
0000
,  // measure 32
0001
0000
0010
0010
,  // measure 33
0000
0000
0010
0010
,  // measure 34
0010
0010
0010
0000
,  // measure 35
0100
0100
0100
0000
,  // measure 36
0000
0000
0000
0000
,  // measure 37
0000
0000
0000
0000
,  // measure 38
0001
0000
0020
0030
,  // measure 39
0001
0000
0020
0030
,  // measure 40
1000
0000
0100
0000
,  // measure 41
0010
0000
0001
0000
,  // measure 42
1000
0000
0200
0300
,  // measure 43
1000
0000
0200
0300
,  // measure 44
0010
0000
0001
0000
,  // measure 45
1000
0000
0000
0000
,  // measure 46
1000
0000
0100
0100
,  // measure 47
0000
0000
0100
0100
,  // measure 48
0100
0100
0100
0000
,  // measure 49
0001
0001
0001
0000
,  // measure 50
1000
0000
0010
0010
,  // measure 51
0000
0000
0010
0010
,  // measure 52
0010
0010
0010
0000
,  // measure 53
0100
0100
0100
0000
;
