#TITLE:Footsteps in the Snow (Akh Afah Amphitheatre);
#SUBTITLE:;
#ARTIST:Masayoshi Soken;
#TITLETRANSLIT:;
#SUBTITLETRANSLIT:;
#ARTISTTRANSLIT:;
#GENRE:Before The Fall;
#CREDIT:;
#BANNER:Footsteps in the Snow-bn.jpg;
#BACKGROUND:Footsteps in the Snow-bg.jpg;
#LYRICSPATH:;
#CDTITLE:;
#MUSIC:Footsteps in the Snow.mp3;
#OFFSET:-0.017000;
#SAMPLESTART:79.771675;
#SAMPLELENGTH:20.571434;
#LASTBEATHINT:356.116516;
#SELECTABLE:YES;
#BPMS:0.000000=140.000000
;
#STOPS:
;
#BGCHANGES:;
#KEYSOUNDS:;
#ATTACKS:;

//---------------dance-single - ----------------
#NOTES:
     dance-single:
     :
     Hard:
     8:
     0.477037,0.503279,0.274023,0.223042,0.133825,524.000000,481.000000,43.000000,35.000000,0.000000,0.000000,0.477037,0.503279,0.274023,0.223042,0.133825,524.000000,481.000000,43.000000,35.000000,0.000000,0.000000:
0000
0000
0000
0000
,
0000
0000
1001
1000
,
0100
0010
0001
0100
,
1100
0010
0100
0001
,
0010
0100
0110
1000
,
0010
0100
0001
1000
,
0011
0100
0010
1000
,
0001
0100
1002
0010
,
0103
2001
0100
3010
,
0120
0001
1030
0210
,
0320
0230
0301
1010
,
1100
1000
0101
0011
,
1000
0001
1001
0010
,
0001
1100
0100
0010
,
1001
0010
1000
0101
,
0001
1100
1001
1000
,
0010
0000
0100
0001
1001
0000
0100
0000
,
0010
1010
0001
1000
,
1001
0101
1001
0110
,
1100
0000
0110
0000
0010
1000
0100
0000
,
0010
0000
0001
0000
1000
0000
0001
0100
0001
0000
0100
0000
0010
0000
0000
0000
,
0001
1000
0100
0000
0010
0001
1000
0000
,
0010
0000
0100
0000
0001
0000
1000
0010
1000
0000
0001
0000
0100
0000
0000
0000
,
0010
0100
0001
0000
1000
0100
0010
0000
,
0001
0000
0100
0000
0001
0000
0010
0001
0010
0000
0100
0000
1000
0000
0000
0000
,
0001
1000
0010
0000
1000
0010
0100
0000
,
0001
0000
0100
0000
0001
0000
1000
0001
1000
0000
0100
0000
0010
0000
0000
0000
,
0001
0010
0100
0000
1000
0001
0100
0000
,
0010
0000
1000
0000
0001
0000
0100
0001
0100
0000
0010
0000
0100
0000
0000
0000
,
0010
1000
0001
0000
0010
0001
0100
0000
,
0010
1000
0010
0000
0100
0001
0100
0000
,
0010
0000
1000
0000
0001
0000
0000
0000
1010
0000
0000
1000
0100
0000
0000
0100
,
1000
0000
0000
1000
0001
0000
0000
0001
0100
0000
0000
0100
0001
0000
0000
0001
,
1000
0000
0000
1000
0010
0000
0000
0010
1000
0000
0000
1000
0001
0000
0000
0001
,
0010
0000
0000
0010
0001
0000
0000
0001
1000
0000
0000
1000
0010
0000
0000
0010
,
0100
0000
0001
0000
1000
0000
0000
1000
0001
0000
0000
0001
0010
0000
0000
0010
,
0100
0000
0000
0100
1000
0000
0000
1000
0010
0000
0100
0000
0001
0000
0000
0001
,
0010
0000
0000
0010
0100
0000
0000
0100
1000
0000
0000
1000
0001
0000
0000
0001
,
0100
0010
1000
0000
0001
0100
0000
1000
,
0100
0000
0000
0000
0001
0000
0010
0000
0000
0000
1000
0000
0010
0000
0000
0010
,
1000
0000
0000
1000
0001
0000
0000
0001
0100
0000
0000
0100
0001
0000
0000
0001
,
0010
0000
0100
0000
1000
0000
0000
1000
0100
0000
0000
0100
1000
0000
0000
1000
,
0001
0000
0000
0001
0010
0000
0000
0010
0001
0000
1000
0000
0010
0000
0000
0010
,
1000
0000
0000
1000
0001
0000
0000
0001
0010
0000
0000
0000
0001
0000
0100
0000
,
0000
1000
0100
0010
0100
0010
0000
1000
,
0001
0000
1000
0100
0000
0010
0001
0000
,
0001
0010
0000
0100
1000
0000
0002
0100
,
0003
1000
0100
1000
0010
0000
1001
0000
,
0101
0000
0002
0010
0003
2000
0010
3000
,
0100
0000
1001
0000
0100
0000
0002
0100
,
0003
0010
1000
0010
0100
0000
0101
0000
,
1100
0000
0020
0100
0030
1000
0100
0000
,
0001
0100
0010
0000
1001
0000
2000
0100
,
3000
0001
1000
0001
0010
0000
0100
0000
,
1000
0000
1000
0001
0000
0100
0010
0000
,
1000
0000
0001
0100
0001
0000
0020
0100
,
0030
0100
1000
0100
0010
0001
0010
0100
,
1000
0000
0000
0101
0000
0000
1010
0000
,
0000
0110
0000
0000
1002
0000
0000
2003
,
0000
0000
3020
0000
0000
0230
0000
0000
,
0302
0000
0000
0023
0000
0000
0230
0000
,
0000
2300
0000
0000
3002
0000
0000
0023
,
0000
0000
2030
0000
0000
3020
0000
0001
,
0032
0000
0000
0203
0000
0000
0320
0000
,
0000
2030
0000
0000
3200
0000
0000
0302
,
0000
0000
0203
0000
0000
2300
0000
0000
,
3001
0000
0000
0000
1000
0010
1010
0000
,
0001
1000
0001
0001
0010
0000
1000
0001
,
1000
1000
0100
0000
0001
1000
0001
0001
,
0100
0000
1000
0010
0001
0010
1000
0000
,
0001
0100
0001
1000
1000
0000
1000
0100
,
1000
0001
0001
0000
0100
1000
0100
0100
,
0001
0000
1000
0000
0010
1000
0001
0000
,
0001
0010
0001
1000
0010
0000
0010
0100
,
0010
1000
0001
0000
1000
0100
1000
0010
,
0100
0000
0100
0010
0100
1000
0001
0000
,
0100
1000
0100
0001
1000
0000
0001
0010
,
0001
1000
0010
0000
0010
0001
0010
1000
,
0001
0000
1000
0010
1000
0001
0010
0000
,
0100
1000
0100
1000
0001
0100
0001
0100
,
0010
1000
0001
0100
0010
1000
0001
0010
,
0100
1000
0010
0100
0001
1000
1001
0000
,
1100
0000
0001
1000
0000
0000
0001
0100
,
0010
0000
0001
1000
0100
0000
0010
0001
,
1000
0000
0010
1000
0100
0000
0001
0000
,
1000
0000
0010
0001
0100
0000
1000
0100
,
0001
0000
1000
0010
0000
0000
0100
0000
,
2002
3003
0110
1001
;

//---------------dance-single - ----------------
#NOTES:
     dance-single:
     :
     Challenge:
     9:
     0.603579,0.559199,0.694617,0.216670,0.372799,663.000000,554.000000,109.000000,34.000000,0.000000,0.000000,0.603579,0.559199,0.694617,0.216670,0.372799,663.000000,554.000000,109.000000,34.000000,0.000000,0.000000:
// measure 0
0000
0000
0000
0000
,  // measure 1
0000
0000
1001
1100
,  // measure 2
0110
1010
0101
0110
,  // measure 3
1001
1010
0110
0101
,  // measure 4
1010
0110
1001
1010
,  // measure 5
0110
0101
0011
1100
,  // measure 6
0011
0101
0110
1001
,  // measure 7
1100
0110
1002
0010
,  // measure 8
0103
0000
0000
0000
1001
0000
0000
0000
0100
1000
0000
0000
0100
0001
0000
0000
,  // measure 9
0110
0000
0000
0000
0010
1000
0000
0000
0010
0001
0000
0000
1010
0000
0000
0000
,  // measure 10
0100
0001
0000
0000
0010
0100
0000
0000
0011
0000
0000
0000
0001
1000
0000
0000
,  // measure 11
0100
0001
0000
0000
1100
0000
0000
0000
0001
0010
0000
0000
1000
0001
0000
0000
,  // measure 12
1100
0000
0000
0000
0100
0010
0000
0000
0001
1000
0000
0000
0011
0000
0000
0000
,  // measure 13
0100
0001
0000
0000
0100
1000
0000
0000
0110
0000
0000
0000
0010
1000
0000
0000
,  // measure 14
0010
0001
0000
0000
0110
0000
0000
0000
0001
0100
0000
0000
0100
1000
0000
0000
,  // measure 15
0101
0000
0000
0000
1000
0100
0000
0000
0001
0100
0000
0000
1010
0000
0000
0000
,  // measure 16
0001
0010
0000
0000
1000
0000
0001
0000
1001
0000
0000
0000
0100
0010
0000
0000
,  // measure 17
0010
1000
0000
0000
1010
0000
0000
0000
0001
1000
0000
0000
1000
0100
0000
0000
,  // measure 18
1001
0101
1001
0110
,  // measure 19
1100
0000
0110
0000
1010
1000
0100
0000
,  // measure 20
0011
0000
0001
0000
1000
0000
0001
0100
0001
0000
0100
0000
0110
0000
0000
0000
,  // measure 21
0001
1000
0110
0000
0101
0001
1000
0000
,  // measure 22
1010
0000
0100
0000
0001
0000
1000
0010
1000
0000
0001
0000
0101
0000
0000
0000
,  // measure 23
0010
0100
1001
0000
1100
0100
0010
0000
,  // measure 24
0001
0000
0100
0000
0001
0000
0010
0001
0010
0000
0100
0000
1100
0000
0000
0000
,  // measure 25
0001
1000
0110
0000
1001
0010
0100
0000
,  // measure 26
1001
0000
0010
0000
0100
0000
0001
0100
0010
0000
1000
0000
0110
0000
0000
0000
,  // measure 27
0001
0010
0110
0000
1010
0001
0100
0000
,  // measure 28
0011
0000
1000
0000
0001
0000
0100
0001
1000
0000
0010
0000
0110
0000
0000
0000
,  // measure 29
0010
1000
1001
0000
1100
0001
0100
0000
,  // measure 30
1010
1000
0010
0000
0110
0001
0100
0000
,  // measure 31
0110
0000
1000
0000
0001
0000
0000
0000
1010
0000
0000
1000
0100
0000
0000
0100
,  // measure 32
1000
0000
0001
1000
0001
0000
0000
0001
0100
0000
0000
0100
0001
0000
1000
0001
,  // measure 33
1000
0000
0000
1000
0010
0000
0000
0010
1000
0000
0001
1000
0001
0000
0000
0001
,  // measure 34
0010
0000
0000
0010
0001
0000
1000
0001
1000
0000
0000
0010
0100
0000
0000
0001
,  // measure 35
1000
0000
0100
0000
0010
0000
0000
0001
0100
0000
0000
0010
1000
0000
0000
0001
,  // measure 36
0100
0000
0000
0010
0100
0000
0000
0001
0010
0000
0100
0000
1000
0000
0000
0010
,  // measure 37
0100
0000
0000
0001
0010
0000
0000
0100
1000
0000
0000
0010
0100
0000
0000
0001
,  // measure 38
0010
0100
1000
0000
0002
0100
0103
2000
,  // measure 39
0100
0000
3100
0000
0002
0000
0010
0000
0013
0000
1000
0000
0010
0000
0000
0010
,  // measure 40
1000
0000
0000
1000
0001
0000
0000
0001
0100
0000
0000
0001
0010
0000
0000
0100
,  // measure 41
1000
0000
0011
0000
1000
0000
0000
0010
0100
0000
0000
0001
0010
0000
0000
0100
,  // measure 42
1000
0000
0000
0001
0010
0000
0000
0100
1000
0000
0110
0000
0001
0000
0000
0010
,  // measure 43
1000
0000
0000
0010
0001
0000
0000
0010
0100
0000
0000
0000
0002
0000
0100
0000
,  // measure 44
0103
1000
0100
0010
0100
0020
0000
2030
,  // measure 45
0001
3001
2000
0100
3100
0010
0001
0000
,  // measure 46
0001
0010
0000
0100
1001
0000
0001
0101
,  // measure 47
0000
1000
0100
1000
1010
0000
1001
0000
,  // measure 48
0101
0000
0001
0011
0000
2010
0100
3000
,  // measure 49
0010
0000
1001
0000
0100
0000
0001
0110
,  // measure 50
0000
0001
1100
0010
0100
0000
0011
0000
,  // measure 51
1010
0000
0101
0100
0000
1000
0100
0000
,  // measure 52
0001
0100
0010
0000
1001
0000
2001
0100
,  // measure 53
3000
0001
1000
0001
0010
0000
0100
0000
,  // measure 54
1001
0000
2001
0001
3000
0100
0010
0000
,  // measure 55
1000
0000
0001
0100
0001
0000
0020
0100
,  // measure 56
0030
0100
1000
0100
0010
0001
0010
0100
,  // measure 57
1000
0000
0000
0101
0000
0000
1010
0000
,  // measure 58
0000
0110
0000
0000
1002
0000
0000
2003
,  // measure 59
0000
0000
3020
0000
0000
0230
0000
0000
,  // measure 60
0302
0000
0000
0023
0000
0000
2030
0000
,  // measure 61
0000
3200
0000
0000
0302
0000
0000
0023
,  // measure 62
0000
0000
0230
0000
0000
0320
0000
1000
,  // measure 63
2030
0000
0000
3020
0000
0000
0230
0000
,  // measure 64
0000
2300
0000
0000
3200
0000
0000
0302
,  // measure 65
0000
0000
0203
0000
0000
2300
0000
0000
,  // measure 66
3001
0000
0000
0000
0000
0000
0000
0000
1000
0000
0010
0000
1010
0000
0000
1000
,  // measure 67
0001
0000
0000
0001
0010
0000
0100
1000
0010
0000
0000
0010
0100
0000
0000
0100
,  // measure 68
0001
0000
1000
0100
0010
0000
0000
0010
0001
0000
0000
0001
1000
0000
0010
0100
,  // measure 69
0001
0000
0000
0001
1000
0000
0000
1000
0001
0000
0010
0000
1000
0000
0000
1000
,  // measure 70
0001
0000
0000
0001
0100
0000
0010
1000
0100
0000
0000
0100
0010
0000
0000
0010
,  // measure 71
0001
0000
1000
0100
0010
0000
0000
0010
0001
0000
0000
1000
0010
0000
0100
0001
,  // measure 72
0010
0000
0000
0010
0100
0000
0000
0100
1000
0000
0010
0100
0001
0000
0000
0001
,  // measure 73
0010
0000
0000
0010
0001
0000
1000
0100
0010
0000
0000
0010
0001
0000
0000
1000
,  // measure 74
0010
0000
0100
0001
1000
0000
0000
1000
0100
0000
0000
0010
0001
0000
1000
0010
,  // measure 75
0100
0000
0000
0100
0001
0000
0000
1000
0010
0000
1000
0001
0100
0000
0000
0100
,  // measure 76
0010
0000
0000
1000
0100
0000
0010
0001
1000
0000
0000
1000
0001
0000
0000
0010
,  // measure 77
0100
0000
1000
0010
0100
0000
0000
0100
0001
0000
0000
1000
0010
0000
0100
0001
,  // measure 78
1000
0000
0000
1000
0100
0000
0000
0010
0001
0000
1000
0100
0010
0000
0001
0000
,  // measure 79
0100
1000
0010
1000
0110
0001
0100
1000
,  // measure 80
0010
1000
0101
0100
0010
1000
0001
0010
,  // measure 81
1010
1000
0010
0100
0001
1000
1001
0000
,  // measure 82
1100
0000
0101
1100
0000
0000
0101
0100
,  // measure 83
0010
0000
0011
1000
0100
0000
1010
0001
,  // measure 84
1000
0000
0110
1000
0100
0000
0011
0000
,  // measure 85
1100
0000
0011
0001
0100
0000
1010
0100
,  // measure 86
0001
0000
0000
0000
1100
0000
0010
0000
0000
0000
0010
0100
0010
0000
0000
0000
,  // measure 87
2002
0000
0000
0000
3003
0000
0000
0000
0100
0001
1000
0010
0100
0000
0000
0000
;

//---------------dance-single - ----------------
#NOTES:
     dance-single:
     :
     Medium:
     6:
     0.378716,0.447359,0.210297,0.057354,0.000000,416.000000,383.000000,33.000000,9.000000,0.000000,0.000000,0.378716,0.447359,0.210297,0.057354,0.000000,416.000000,383.000000,33.000000,9.000000,0.000000,0.000000:
0000
0000
0000
0000
,
0000
0000
1000
0100
,
1000
0100
0010
0001
,
0100
0010
1000
0001
,
0010
0100
1000
0100
,
0001
0100
1000
0010
,
0100
0001
0010
0100
,
0010
0001
1001
0010
,
1000
1001
0010
0001
,
1001
0010
1000
1001
,
0010
0100
0101
1000
,
0001
1010
0001
1000
,
0110
1000
0001
0011
,
0100
1000
0110
1000
,
0010
0110
0001
0100
,
1010
1000
0100
0110
,
0001
1000
1001
0001
,
0010
1100
0001
0100
,
0110
0110
0110
1001
,
0110
0000
1001
0000
0010
1000
0010
0000
,
1000
0001
1000
0000
0001
0100
0001
0000
,
0010
0001
0010
0000
0100
1000
0100
0000
,
0010
0001
0100
0000
0010
1000
0010
0000
,
0100
0001
0100
0000
0010
1000
0001
0000
,
0010
0001
0010
0000
0100
1000
0100
0000
,
0010
0100
1000
0000
0100
0010
0001
0000
,
1000
0010
1000
0000
0001
0100
0010
0000
,
0100
0001
0100
0000
0010
1000
0010
0000
,
1000
0001
1000
0000
0010
0001
0010
0000
,
1000
0001
1000
0000
0010
1000
0010
0000
,
0001
1000
0001
0000
0100
0001
0100
0000
,
0010
0100
0010
0000
1001
0000
0010
0000
,
1000
0100
0010
0100
,
1000
0010
0001
0010
,
1000
0001
0010
0100
,
1000
0100
2000
0000
0000
0000
0000
0000
,
3010
0000
0100
0000
0001
0100
0002
0000
,
0000
0000
0013
0100
,
1000
0001
2000
0000
0000
3020
0000
0000
,
0230
0000
0000
0302
0000
0000
1003
0000
,
0001
1001
0010
1000
,
0001
1000
0002
0000
0010
0000
0013
0000
,
0100
0000
1000
0000
0001
1000
0002
0000
,
0100
0000
0103
0000
0010
0000
1000
0010
,
0000
1000
0010
0000
0100
0000
0001
0000
,
1000
0100
0100
0010
,
0100
0000
0010
0000
1001
0000
1000
0010
,
0000
1000
0010
0000
0100
0000
0001
0000
,
1001
0000
0001
0010
0000
0001
0010
0000
,
0100
0000
1000
0000
1001
0000
0001
0100
,
0000
1000
0100
0000
0010
0000
0100
0000
,
1001
0000
0100
0001
0000
0100
1000
0000
,
0100
0000
0010
0000
1001
0000
0010
0001
,
0000
0010
0100
0000
1000
0000
0001
0000
,
1001
0000
0010
1000
0000
0010
0100
0000
,
0001
0000
1000
0000
1001
0000
0001
1000
,
0000
1000
0001
0000
0010
0000
0100
0000
,
1000
0010
1000
0000
0001
0000
0010
0001
,
0010
0000
0100
0000
1000
0000
0000
0100
,
0000
0000
0001
0000
0000
1000
0000
0000
,
0010
0000
0000
0001
0000
0000
0100
0000
,
0000
1000
0000
0000
0001
0000
0000
1000
,
0000
0000
0001
0000
0000
0010
0000
0000
,
0110
0000
0000
0100
0000
0000
1000
0000
,
0000
0100
0000
0000
0010
0000
0000
0010
,
0000
0000
0001
0000
0000
0001
0000
0000
,
1000
0000
0000
1001
,
0010
0000
0001
0000
0100
0000
0010
1000
,
0000
0001
0100
0000
0010
0000
1000
0000
,
0100
0000
0010
0000
0001
1000
0100
0000
,
0010
0000
0001
0000
1000
0000
0010
0100
,
0000
0001
1000
0000
0010
0000
1000
0000
,
0100
0000
0010
0000
0001
1000
0010
0000
,
0100
0001
0010
0100
,
1000
0001
0100
0000
0010
0000
1000
0000
,
0001
0000
0010
0100
0000
1000
0010
0000
,
1000
0100
0010
0001
,
1000
0001
0100
0000
0010
0000
1000
0000
,
0001
0000
0010
0000
0100
0000
1000
0100
,
1000
0000
0010
1000
0010
0000
0100
0000
,
0001
0000
0010
0001
0010
0000
0100
1000
,
0100
0010
0001
1001
,
0100
0000
0001
0100
0000
0000
0001
1000
,
0001
0000
1000
0100
1000
0000
0001
0010
,
0001
0000
1000
0010
1000
0000
0001
0000
,
1000
0000
0010
0100
0010
0000
1000
0001
,
1000
0000
0100
0010
0000
0000
0100
0000
,
0020
0030
0001
1001
;

//---------------dance-single - ----------------
#NOTES:
     dance-single:
     :
     Easy:
     4:
     0.273113,0.307559,0.044608,0.127453,0.000000,300.000000,293.000000,7.000000,20.000000,0.000000,0.000000,0.273113,0.307559,0.044608,0.127453,0.000000,300.000000,293.000000,7.000000,20.000000,0.000000,0.000000:
0000
0000
0000
0000
,
0000
0000
1000
1000
,
1000
0000
0001
0010
,
0001
0000
1000
0010
,
0100
0000
0010
1000
,
0001
0000
0010
0001
,
0100
0000
0010
1000
,
0010
0000
1001
0000
,
0000
0010
1000
0100
,
0010
0000
0000
0001
,
1000
0001
0100
0000
,
0000
0010
1000
0100
,
0010
0000
0000
0001
,
1000
0010
0100
0100
,
0001
0010
0010
0100
,
1000
1000
0001
0100
,
0100
0010
1000
0010
,
1000
0001
1000
0001
,
0010
0001
0010
0001
,
1000
0001
0200
0000
,
0310
1000
0200
0000
,
0320
0000
0032
0000
,
1003
0001
0200
0000
,
0320
0000
2030
0000
,
3001
1000
0200
0000
,
0320
0000
0032
0000
,
1003
0010
0200
0000
,
0320
0000
2030
0000
,
3100
0010
0200
0000
,
2300
0000
3002
0000
,
0103
0010
0100
0000
,
0001
0000
1001
0001
,
0001
0001
0001
0001
,
1000
1000
1000
1000
,
1000
1000
1000
0010
,
0100
0010
0010
0010
,
0010
0100
0001
0100
,
0100
0100
0100
0001
,
1000
0001
0001
0010
,
0010
1000
1000
0100
,
0100
0001
0001
0010
,
0100
0010
0010
0010
,
0010
0100
1000
0100
,
0100
0100
0100
1000
,
0001
0010
0001
1000
,
0010
1000
0001
0100
,
0001
1000
0010
0010
,
0010
1000
0100
0010
,
0001
0001
0001
0100
,
0000
0000
0001
0001
,
0001
0010
0100
1000
,
1000
1000
1000
0010
,
0000
0000
1000
0100
,
0001
0100
0100
0000
,
0001
0010
1000
0010
,
0010
0000
1000
0100
,
0010
0001
0001
0010
,
0100
0100
1000
1000
,
0010
0000
0001
0000
1001
0000
0000
0010
,
0000
0000
0001
0000
0000
0010
0000
0000
,
1000
0000
0000
0100
0000
0000
0010
0000
,
0000
0001
0000
0000
1000
0000
0000
0001
,
0000
0000
0100
0000
0000
0010
0000
0000
,
0110
0000
0000
0010
0000
0000
0100
0000
,
0000
0010
0000
0000
1000
0000
0000
1000
,
0000
0000
0100
0000
0000
0100
0000
0000
,
0010
0000
0000
0001
,
0100
0001
0001
1000
,
0001
1000
0010
1000
,
1000
0001
1000
0100
,
0010
0100
0100
1000
,
0001
0100
0010
0100
,
0100
0001
0010
0010
,
0001
1000
0010
1000
,
0001
0010
0100
0010
,
0001
1000
0001
0100
,
1000
0100
0001
1000
,
0001
0010
0100
1000
,
0001
1000
0010
0100
,
0010
1000
0001
0010
,
0001
1000
0100
0010
,
0001
0100
0010
1001
,
0100
2002
3003
0001
,
0001
1000
1000
0010
,
0010
0100
0100
0001
,
1000
0010
0010
0100
,
0100
0002
0003
0010
,
0200
0300
1000
1001
;

//---------------dance-single - ----------------
#NOTES:
     dance-single:
     :
     Beginner:
     2:
     0.161137,0.195719,0.012745,0.012745,0.000000,177.000000,175.000000,2.000000,2.000000,0.000000,0.000000,0.161137,0.195719,0.012745,0.012745,0.000000,177.000000,175.000000,2.000000,2.000000,0.000000,0.000000:
0000
0000
0000
0000
,
0000
0000
0001
0000
,
0010
0000
0100
0000
,
0100
0000
1000
0000
,
0010
0000
1000
0000
,
0100
0000
0010
0000
,
0001
0000
1000
0000
,
0010
0000
0100
0000
,
0000
0001
0000
0000
,
1000
0000
0000
0010
,
0000
0000
1000
0000
,
0000
0100
0000
0000
,
0010
0000
0000
0001
,
0000
0000
1000
0000
,
0000
0010
0000
0000
,
0100
0000
0000
0001
,
0000
0000
0010
0000
,
0000
0100
0000
0000
,
1000
0000
0000
0001
,
0000
0000
1001
0000
,
0010
0000
0002
0000
,
0003
0000
1000
0000
,
0010
0000
0200
0000
,
0300
0000
0010
0000
,
1000
0000
0100
0000
,
0010
0000
0001
0000
,
1000
0000
0010
0000
,
0100
0000
0001
0000
,
1000
0000
0010
0000
,
1000
0000
0100
0000
,
0001
0000
0100
0000
,
1000
0000
0010
0000
,
0000
0100
0000
0000
,
0001
0000
0000
1000
,
0000
0000
0010
0010
,
0010
0010
0000
0000
,
0000
0100
0100
0100
,
0000
0000
0000
0001
,
0001
0001
0000
0010
,
0000
1000
0000
0010
,
0000
0000
0001
0001
,
0001
0001
0000
0000
,
0000
1000
1000
1000
,
0000
0000
0000
0100
,
0000
0100
0100
0100
,
0100
0000
0010
0010
,
0000
0000
0001
0000
,
0001
0001
0000
0000
,
1000
0000
1000
1000
,
0000
0000
0010
0000
,
0010
0010
0000
0000
,
0100
0000
0100
0100
,
0000
0000
0001
0000
,
0010
0010
0000
0100
,
0100
0000
1000
1000
,
0000
0010
0010
0000
,
0100
0100
0000
0001
,
0001
0000
0010
0010
,
0000
0100
0100
0000
,
0000
1000
0000
0000
,
1000
0000
0000
0001
,
0000
0000
0100
0000
,
0000
0001
0000
0000
,
0001
0000
0000
1000
,
0000
0000
0010
0000
,
0000
0100
0000
0000
,
0010
0000
0000
1000
,
1000
1000
1000
0000
,
0000
0100
0100
0100
,
0100
0000
0000
0001
,
0001
0001
0001
0000
,
0000
0010
0010
0010
,
0010
0000
0000
0100
,
0100
0100
0100
0000
,
0000
1000
1000
1000
,
1000
0000
0000
0001
,
0001
0001
0001
0000
,
0000
0100
0100
0100
,
0100
0000
0000
0010
,
0010
0010
0010
0000
,
0000
1000
1000
1000
,
1000
0000
0000
0001
,
0001
0001
0000
0010
,
0000
1000
0000
0100
,
0000
0010
0000
0001
,
0001
0001
0000
0100
,
0000
1000
0000
0010
,
0010
0000
0000
1001
;
