#TITLE:Empress of the Damned;
#SUBTITLE:;
#ARTIST:Gunship feat. Lights;
#TITLETRANSLIT:;
#SUBTITLETRANSLIT:;
#ARTISTTRANSLIT:;
#GENRE:Unicorn;
#CREDIT:[Ness];
#BANNER:Empress of the Damned.png;
#BACKGROUND:Empress of the Damned-bg.png;
#LYRICSPATH:;
#CDTITLE:;
#MUSIC:Empress of the Damned.mp3;
#OFFSET:-0.015000;
#SAMPLESTART:129.570755;
#SAMPLELENGTH:16.190475;
#LASTBEATHINT:308.000000;
#SELECTABLE:YES;
#BPMS:0.000000=125.999992
;
#STOPS:
;
#BGCHANGES:;
#KEYSOUNDS:;
#ATTACKS:;

//---------------dance-single - ----------------
#NOTES:
     dance-single:
     :
     Challenge:
     11:
     0.743362,0.845827,0.221856,0.168073,1.068944,774.000000,741.000000,33.000000,25.000000,200.000000,0.000000,0.743362,0.845827,0.221856,0.168073,1.068944,774.000000,741.000000,33.000000,25.000000,200.000000,0.000000:
0000
0000
0000
0000
,
0000
0000
0000
0000
0000
0000
0100
1000
,
0001
0000
0000
0100
0000
0000
0000
0000
M000
0000
0000
0000
0101
0000
0000
0000
0000
0000
0000
0000
0000
0000
0000
0000
0010
0000
0000
0000
0000
0000
1000
0000
000M
0000
0000
0000
1000
0000
0000
0100
0000
0000
0000
0000
0000
0010
0000
0000
,
0000
0000
0000
0100
0000
0000
1000
0000
00M0
0000
0000
0000
0001
0000
0000
0000
0000
0000
0100
0000
0000
0000
0000
0000
0000
0000
0000
0000
M000
0000
0010
0000
0000
0000
0000
0000
1000
0000
0000
0000
0000
0000
0001
0000
0M00
0000
0000
0000
,
0010
0000
0000
0001
0000
0000
0000
0000
0000
0000
0000
0000
0011
0000
0000
0000
M000
0000
0100
0000
0000
0000
0000
0000
0010
0000
0000
0000
0000
0000
0100
0000
000M
0000
0000
0000
1000
0000
0000
0100
0000
0000
0000
0000
0000
0010
0000
0000
,
0000
0000
0000
0100
0000
0000
1000
0000
0000
0000
0000
0000
00M1
0000
0000
0000
0000
0000
0000
0000
0000
0000
0000
0000
0000
0000
0000
0000
M000
0000
0001
0000
0000
0000
0000
0000
0100
0000
0000
0000
0000
0000
0010
0000
0000
0000
0000
0000
,
1000
0000
0000
0100
000M
0000
0000
0000
0000
0000
0000
0000
1010
0000
0000
0000
0000
0000
0000
0000
0M00
0000
0000
0000
0001
0000
0000
0000
0000
0000
0100
0000
0000
0000
0000
0000
0010
0000
0000
0100
M000
0000
0000
0000
0000
0001
0000
0000
,
0000
0000
0000
0100
0000
0000
0010
0000
0000
0000
0000
0000
1000
0000
0000
0000
000M
0000
0100
0000
0000
0000
0000
0000
0000
0000
0000
0000
0000
0000
0001
0000
00M0
0000
0000
0000
0100
0000
0000
0000
0000
0000
1000
0000
0000
0000
0000
0000
,
0010
0000
0000
1000
0M00
0000
0000
0000
0000
0000
0000
0000
1001
0000
0000
0000
0000
0000
0001
0000
0000
0000
0000
0000
0100
0000
0000
0000
M000
0000
0010
0000
0000
0000
0000
0000
0100
0000
0000
0001
0000
0000
0000
0000
00M0
1000
0000
0000
,
0000
0000
0000
0001
0000
0000
0100
0000
0000
0000
0000
0000
0001
0000
0000
0000
M000
0000
0010
0000
0000
0000
0000
0000
1000
0000
0000
0000
0000
0000
0010
0000
0000
0000
0000
0000
0110
0000
0000
0000
000M
0000
0000
0000
0000
0000
0000
0000
,
0100
0000
0000
1000
0000
0000
0000
0000
0000
0000
0000
0000
1010
0000
0000
0000
0000
0000
0000
0000
0M00
0000
0000
0000
1000
0000
0000
0000
0000
0000
0001
0000
0000
0000
0000
0000
0001
0000
0000
0100
0000
0000
0000
0000
M000
0010
0000
0000
,
0000
0000
0000
0100
0000
0000
0001
0000
0000
0000
0000
0000
0010
0000
0000
0000
0000
0000
0012
0000
0M00
0000
0000
0000
0000
0000
0000
0000
0000
0000
0013
0000
0000
0000
0000
0000
0001
0000
0000
1000
0000
0000
0010
0000
0000
0100
0000
0000
,
0001
0000
0000
0100
0000
0000
0001
0000
0000
0000
0000
0000
1001
0000
0000
0000
00M0
0000
0000
0000
0000
0000
0000
0000
0001
0000
0000
0000
0000
0000
1000
0000
0000
0000
0000
0000
1000
0000
0000
0100
000M
0000
0000
0000
0000
0010
0000
0000
,
0000
0000
0000
0001
0000
0000
0100
0000
0000
0000
0000
0000
0110
0000
0000
0000
0000
0000
1000
0000
0000
0000
0000
0000
0010
0000
0000
0000
0M00
0000
0001
0000
0000
0000
0000
0000
0100
0000
0000
0000
00M0
0000
0000
0000
0000
0000
0000
0000
,
0010
1000
0100
1000
0001
0100
00M1
1000
0001
0100
0010
0100
0001
1000
0001
0010
,
0100
1000
010M
0010
0100
1000
0001
1000
0100
1000
00M1
0100
0001
1000
0100
0010
,
M001
0100
0001
1000
0001
0100
0010
1000
0010
0100
0001
1000
00M1
0100
0001
0010
,
0100
1000
0010
1000
010M
0010
0100
1000
0010
0100
0010
1000
0M01
1000
0010
0100
,
0001
0010
0000
0100
100M
0000
0100
0000
0010
0000
0001
0100
0000
0010
1000
0001
,
0100
0001
1000
0010
1000
0000
0100
0000
00M1
0000
0100
0000
1000
0001
1000
0100
,
0010
0001
0010
0000
M011
0000
0001
0000
1000
0000
0M10
0000
0010
0100
0001
0100
,
0010
1000
0100
1000
0001
0000
01M0
0000
1000
0000
0100
0000
00M1
0000
0000
0000
,
1000
0010
1000
0100
1000
0001
01M0
0001
1000
0100
0010
0100
1000
0001
0100
0010
,
M100
0001
01M0
1000
0100
0010
0100
0001
1000
0010
0100
0001
1000
0100
10M0
0001
,
1000
0010
0100
0001
M010
0001
0010
0100
001M
1000
0010
0100
0010
0001
1000
0001
,
0100
0010
M100
0001
1000
0010
0100
0001
0100
0010
100M
0100
1000
0001
1000
0100
,
0020
0000
0000
0000
0000
0000
0001
0000
0031
0000
0000
0001
0100
0000
0010
0000
,
2000
0100
0000
3100
0020
0000
0031
1000
,
1MM1
0000
0001
1000
0010
0100
0001
0010
0M01
0000
1000
0001
0100
0010
1000
0100
,
10M0
0000
0010
0100
0001
0010
0100
1000
001M
0000
1000
0001
0100
0010
0100
0001
,
2000
0000
0MM0
0000
3100
0010
0002
0000
00M0
0000
1003
0001
0200
0000
M000
0000
,
0301
1000
0020
0000
000M
0000
0130
0001
1000
0000
0M00
0000
1001
0000
0010
0000
,
101M
0000
0010
1000
0100
1000
0001
0100
M010
0000
0100
0001
1000
0100
0010
0001
,
1M00
0000
0001
0010
0100
1000
0010
0100
00M1
0000
1000
0100
1000
0001
0010
0100
,
2000
0000
0M0M
0000
3010
1000
0200
0000
00MM
0000
1300
0100
0020
0000
M00M
0000
,
0130
0010
0002
0000
0MM0
0000
1003
0001
0100
0000
0010
0000
MMMM
0000
0102
0000
,
0000
1003
0100
0001
0100
1000
0100
0001
,
0100
1000
0100
0001
0100
1000
0001
1000
,
0M01
10M0
010M
0000
M100
00M1
1M00
001M
,
0000
M001
0M10
M001
0000
010M
10M0
0M01
,
M010
0000
00M1
1M00
00M1
M100
0000
001M
,
0000
1M00
00M1
0000
M101
0000
1M10
0000
,
110M
0000
1000
0100
10M0
0000
0001
0000
0010
0000
0001
0100
M001
0000
1000
0000
,
0010
0000
0100
0001
10M0
0000
0010
0000
0100
0000
0101
0000
101M
0000
1001
0000
,
0100
0000
0000
0000
0000
0000
1000
0000
0000
0001
0000
0000
10M0
0000
0000
0000
0000
0000
0100
0000
0000
0000
0000
0000
0010
0000
0000
0000
0000
0000
0001
0000
0000
1000
0000
0000
0M01
0000
0000
0000
0000
0000
1000
0000
0000
0000
0010
0000
,
0000
0000
0100
0000
0000
0000
0001
0000
0000
1000
0000
0000
000M
0010
0000
0000
0000
0100
0000
0000
0000
0001
0000
0000
1000
0000
0000
0000
0010
0000
0000
0000
1000
0000
0000
0000
0M10
0000
0000
0000
1000
0000
0000
0000
0010
0000
0000
0000
,
0010
1000
0001
01M0
0001
0001
1000
0100
0010
M010
0001
0100
,
0001
0010
0100
1000
000M
0000
0000
0000
0000
0000
0001
0000
M001
0100
0010
1000
,
0000
1000
0100
0000
M000
0000
0000
0000
0000
0000
0100
0010
010M
0000
1000
0000
,
0001
0000
0010
0010
M100
0000
1000
1000
0001
0000
0001
0001
01M0
0000
0010
1000
,
0100
1000
0100
1000
010M
0010
0100
0010
0001
0100
0010
1000
010M
0010
0001
1000
,
0010
0100
0001
1000
01M0
1000
0100
1000
0100
0010
0100
0010
M001
0010
0100
1000
,
0001
0100
0001
1000
001M
0100
0001
1000
0100
0000
0010
0000
M010
0001
0010
0001
,
0100
0001
0100
0001
10M0
0100
1000
0000
0001
1000
0001
0000
M101
0000
0000
0000
,
1001
0000
0000
0000
0000
0000
0MM0
0000
0000
1000
0000
1000
0000
0001
0000
0001
0000
0020
MM00
0000
0000
0000
0M00
0000
,
0000
0000
0M0M
0000
0000
0000
000M
0000
0000
0000
M000
0000
0130
0000
0000
1000
0000
0000
0010
0000
M000
0001
0000
0000
,
01M0
0000
000M
1100
00M0
0000
M100
0000
00M0
0101
0000
0000
,
0100
0001
1000
1000
0010
0100
0001
0001
0010
0100
1000
1000
0100
0010
0001
0001
,
1000
0000
0000
0000
0M00
0000
0010
0000
0000
0100
0000
0000
0001
0000
0000
0000
0000
0000
1000
0000
00M0
0000
0000
0000
0100
0000
0000
0000
M000
0000
0010
0000
0000
0001
0000
0000
1000
0000
0000
0000
0000
0000
0100
0000
000M
0000
0000
0000
,
0100
0000
0000
0000
M000
0000
0010
0000
0000
0100
0000
0000
1000
0000
0000
0000
00M0
0000
0001
0000
0000
0000
0000
0000
M100
0000
0000
0000
0000
0000
0010
0000
0000
1000
0000
0000
0001
0000
0000
0000
0M00
0000
0000
0000
0000
0000
0000
0000
,
00M0
0000
0000
0000
000M
0000
0010
0000
0000
0100
0000
0000
1000
0000
0000
0000
00M0
0000
0001
0000
0000
0000
0000
0000
0100
0000
0000
0000
000M
0000
0010
0000
0000
1000
0000
0000
0100
0000
0000
0000
0000
0000
1000
0000
0M00
0000
0000
0000
,
0010
0000
0000
0000
0000
0000
0100
0000
M000
0001
0000
0000
0000
0000
0000
0000
0000
0000
1000
0000
0M00
0000
0000
0000
0001
0000
0000
0000
0000
0000
0010
0000
0000
0100
0000
0000
1000
0000
0000
0000
000M
0000
0000
0000
0000
0000
0000
0000
,
1100
0000
0000
0000
00M0
0000
1000
0000
0000
0100
0000
0000
0010
0000
0000
0000
0000
0000
0001
0000
M000
0000
0000
0000
0001
0000
0000
0000
0000
0000
0100
0000
0000
0010
0000
0000
100M
0000
0000
0000
0000
0000
1000
0000
0000
0000
0000
0000
,
0100
0000
0000
0000
M000
0000
0010
0000
0000
0001
0000
0000
0100
0000
0000
0000
0000
0000
0001
0000
00M0
0000
0000
0000
0001
0000
0000
0000
0000
0000
1000
0000
0000
0010
0000
0000
0100
0000
0000
0000
000M
0000
0000
0000
0000
0000
0000
0000
,
0000
0000
0000
0000
00M0
0000
0001
0000
0000
1000
0000
0000
0100
0000
0000
0000
0000
0000
1000
0000
00M0
0000
0000
0000
0001
0000
0000
0000
M000
0000
0100
0000
0000
0010
0000
0000
1000
0000
0000
0000
000M
0000
1010
0000
0000
0000
0000
0000
,
0000
0000
0000
0000
0M00
0000
0010
0000
0000
1000
0000
0000
0001
0000
0000
0000
0000
0000
0100
0000
M000
0100
0000
0000
0010
0000
0000
0010
000M
0000
0000
0000
0000
0000
0000
0000
1M00
0000
0000
1000
0000
0000
0001
0000
00M0
0001
0000
0000
,
0000
0000
0000
0000
0000
0000
1000
0000
0020
0000
0000
0001
0000
0000
0130
0000
,
0002
0013
1M1M
MM11
,
1001
0000
1000
0100
0010
0001
0100
0001
M010
0000
0001
1000
0100
0010
0100
1000
,
001M
0000
1000
0100
0010
0001
0100
0010
1M00
0000
0001
1000
0100
0010
0001
1000
,
0020
0000
0M0M
0000
1030
0001
0200
0000
M0M0
0000
0301
0010
0002
0000
MM00
0000
,
0013
0100
2000
0000
00MM
0000
3100
0010
0001
0000
0000
0000
1M1M
0000
0010
0000
,
0011
0000
0001
1000
0010
0100
0001
0100
M010
0000
1000
0100
0010
0001
1000
0100
,
10M0
0000
0100
0010
0001
0100
0001
0010
M100
0000
0010
0001
1000
0010
0100
0001
,
2000
0000
0MM0
0000
3001
1000
0200
0000
00MM
0000
1300
0001
0020
0000
M00M
0000
,
0130
0010
0002
0000
0MM0
0000
1003
0010
0100
0000
0101
0000
MMMM
0000
1200
0000
,
0000
0001
0300
0000
0000
0000
0000
0000
;

//---------------dance-single - ----------------
#NOTES:
     dance-single:
     :
     Hard:
     7:
     0.464842,0.512622,0.302531,0.208410,0.097482,484.000000,439.000000,45.000000,31.000000,0.000000,0.000000,0.464842,0.512622,0.302531,0.208410,0.097482,484.000000,439.000000,45.000000,31.000000,0.000000,0.000000:
0000
0000
0000
0000
,
0000
0000
0000
0000
0000
0000
0100
0001
,
1000
0000
0110
0000
0001
1000
0000
1100
,
0000
1000
0001
0010
0000
0001
0100
1000
,
0100
0000
0010
1000
0001
0202
0000
0000
,
0303
0000
0000
0000
0000
1000
0100
0010
,
0001
0000
1100
0000
0100
0010
0000
1001
,
0000
1000
0010
0001
0000
0001
0010
1000
,
0100
0000
0010
0100
1000
0001
0000
2200
,
0000
3300
0000
0000
,
0010
0001
0101
0000
0001
1000
1100
0000
,
0100
1000
0001
0200
0000
0310
0110
0000
,
0010
1000
0100
0001
0010
0000
0110
0000
,
0001
0001
1000
0001
0100
0100
0010
0000
,
1000
0100
1000
0000
0001
0000
1000
0000
0010
0000
1000
0000
0100
0000
1000
0000
,
0001
0100
0001
0000
0010
0000
0200
0000
0000
0000
0310
0000
0110
0000
0000
0000
,
0001
1000
0001
0000
0010
0000
0000
0000
1010
0000
0000
0000
0011
0000
0000
0000
,
1000
0001
1000
0000
0100
0000
0001
0000
0000
0000
1000
0000
0000
0000
0000
0000
,
1010
0000
0000
0010
0000
0000
0010
0000
0100
0000
0000
0100
0000
0000
0100
0000
,
0001
0000
0000
1000
0000
0000
0001
0000
0010
0000
0100
0000
1000
0000
0000
0000
,
0001
0200
0000
0310
1000
0001
1000
0100
,
0010
0000
0000
0001
1000
0000
0010
0000
0100
0000
0010
0000
0100
0000
0000
0000
,
0001
0000
0100
0001
0000
0100
0001
0000
1000
0000
0010
1000
0000
0010
1000
0000
,
0001
0000
0010
0001
0000
0010
0001
0000
1000
0000
0001
0000
0100
0000
0000
0000
,
0010
1000
0010
0000
0100
0000
0001
0000
1000
0000
0100
0000
0010
0000
0001
0000
,
1000
0001
1000
0000
0001
0000
0100
0000
0010
0000
1000
0000
0100
0000
0010
0000
,
0002
0000
0000
0000
0000
0000
1003
0000
2000
0000
0000
0010
0000
0000
3010
0000
,
0200
0000
0001
0000
0310
0000
1000
0100
,
1001
0000
1000
0100
0010
0000
1000
0100
,
0001
0000
1000
0100
0001
0010
0100
0000
,
0110
0000
0002
2000
0003
3001
0001
0010
,
0100
1100
0000
1000
0101
0000
0001
1000
,
0100
0000
0001
0010
1000
0000
0001
0010
,
0100
0000
0001
0100
1000
0010
0100
0000
,
0110
0000
2000
0002
3000
1003
1000
0001
,
0100
0020
0000
1030
1000
0100
0000
0201
,
0000
1000
0300
0000
0000
0000
0000
0000
,
0000
0000
0000
0000
,
0001
0000
1000
0000
0001
0100
0000
1000
,
0000
1100
0000
1000
0000
1000
0010
0000
,
0011
0000
0001
1000
0001
0100
0000
1100
,
0000
0001
0101
0000
1001
0000
1100
0000
,
2002
0000
0000
0000
0000
0000
0000
0000
3003
0000
0000
0000
0100
0001
0100
0000
,
0001
0000
1000
0000
0100
1000
0001
0100
,
0010
1010
0100
1100
,
0010
0000
1001
0000
0010
0001
0100
0100
,
0001
0000
0101
0100
0010
0000
0011
0000
,
0010
0000
0101
0000
1000
0001
0100
0100
,
1000
0100
0001
0100
0000
0100
0010
0000
,
0001
0100
0001
1000
0100
0000
1100
0000
,
1000
1000
0100
0100
0001
0001
0100
0100
,
0010
0010
0001
0001
1000
1000
0010
0100
,
0001
0100
0001
1000
0010
1000
0010
0010
,
0100
0001
1000
0100
1000
0001
1000
0001
,
0202
0000
0303
0001
1000
0100
0200
0000
,
0010
0000
1300
0000
0001
1000
0010
0100
,
0001
0101
1000
1100
,
0100
0000
0000
0100
1000
0000
0000
1000
0001
0000
0000
0001
0100
0000
0000
0000
,
0101
0000
0000
0001
0000
0000
0010
0000
0100
0000
0000
1000
0000
0000
0010
0000
,
1000
0000
0000
0001
0000
0000
0100
0000
0010
0000
1000
0000
0100
0000
0000
0000
,
1000
0002
0000
0103
0010
1000
0100
1000
,
0010
0000
0100
0001
0000
0000
0011
0000
0001
0000
1000
0000
0000
0000
0000
0000
,
1001
0000
0000
0001
0000
0000
0100
0000
0010
0000
0000
0100
0000
0000
0001
0000
,
1000
0000
0000
0100
0000
0000
0010
0000
0001
0000
1000
0000
0100
0000
0000
0000
,
1000
0001
0100
0010
2000
0000
3001
1000
,
0100
0000
0010
0001
0100
0001
0010
0000
,
0200
0000
0000
0000
0000
0000
1000
0000
1300
0000
0000
1000
0000
0000
1000
0000
,
0002
0100
0010
1003
,
1001
0000
0001
0100
0010
0000
0001
0100
,
1000
0000
0001
0010
1000
0100
0010
0001
,
1001
0000
0200
0020
0300
1030
0100
0001
,
0100
1000
0000
0001
0100
1000
0100
0001
,
0000
0110
1000
0010
0100
0000
0001
0010
,
1000
0000
0001
0100
1000
0010
0100
0001
,
1001
0000
0002
2000
0003
3001
0010
1000
,
0100
0020
0000
0130
1000
0001
0000
1200
,
0000
0001
0300
0000
0000
0000
0000
0000
;

//---------------dance-single - ----------------
#NOTES:
     dance-single:
     :
     Medium:
     6:
     0.353433,0.358247,0.215133,0.060506,0.020169,368.000000,336.000000,32.000000,9.000000,0.000000,0.000000,0.353433,0.358247,0.215133,0.060506,0.020169,368.000000,336.000000,32.000000,9.000000,0.000000,0.000000:
0000
0000
0000
0000
,
0000
0000
0000
0000
0000
0000
1000
0100
,
1000
0000
1001
0000
0001
0100
0000
0001
,
0000
1000
0001
0100
0000
0010
0100
0010
,
0100
0000
0001
1000
0001
0100
0000
0000
,
0000
0000
0000
0000
0000
0001
0010
0100
,
1000
0000
1100
0000
1000
0100
0000
1000
,
0000
0001
0100
0001
0000
1000
0010
1000
,
0010
0000
0000
0100
0001
1000
0000
0001
,
0000
0000
0000
0000
,
0010
0001
0010
0000
0100
0000
1100
0000
,
1000
0100
1000
0001
0000
0001
0000
0000
,
0100
0001
0010
0000
0100
0000
0110
0000
,
1000
0000
0001
0100
0000
0100
0010
0000
,
1000
0010
1000
0000
0001
0000
1001
0000
,
0001
0010
0001
0010
0000
0100
0000
0000
,
0010
0001
0010
0000
0100
0000
0110
0000
,
1000
0100
1000
0100
0000
0100
0000
0000
,
1000
0101
0001
1000
,
0001
0000
0010
0000
0100
1000
0001
0000
,
1000
0000
0010
0000
0100
0010
1000
0000
,
0001
0010
0100
1000
,
0001
0000
1010
0000
0001
1000
0100
0000
,
0010
0000
0100
0000
1000
0001
0100
0000
,
0010
0100
0001
0000
1000
0010
0100
0000
,
0001
0000
0001
1000
0100
0000
0010
0000
,
0002
0000
0003
2000
0000
3000
0020
0000
,
0030
0200
0000
0300
0001
0000
1000
0000
,
2002
3003
0010
1001
,
0100
1100
0010
0110
,
0001
0000
0000
1000
0000
0100
0010
0100
,
0010
0001
0000
1000
0001
0000
0100
0010
,
0000
1000
0000
0000
0001
0000
1001
0000
,
0010
0110
1000
1001
,
0100
0000
0000
0010
0000
0001
0100
0001
,
0100
0010
0000
1000
0100
1000
0000
0001
,
0000
0100
0000
0000
0000
0000
0000
0000
,
0000
0000
0000
0000
,
0001
1000
0100
0000
,
0010
0000
0100
0000
1000
0001
1000
0000
,
0010
1000
0001
0100
,
0001
1000
0100
0000
,
2002
0000
0000
0000
3003
0000
0001
1000
,
0100
0000
0100
0000
0010
0100
1000
0000
,
0010
1000
0100
1000
,
0001
0000
0100
0000
0010
1000
0100
0000
,
0010
0001
0100
0000
0001
0000
0001
0000
,
1000
0001
0100
0000
0010
1000
0010
0000
,
0100
0100
0001
0010
,
0100
1000
0001
0010
,
1001
0000
0100
0000
0001
1000
0001
0000
,
0100
0010
1000
0100
,
0010
0100
1000
0000
0001
0010
0100
0000
,
1000
0100
0010
0000
0100
0010
0001
0000
,
0010
0001
0100
0000
0001
0100
0010
0000
,
0100
0010
1000
0000
0001
1000
0010
0100
,
0001
1000
0100
0010
,
0001
0010
1000
0010
,
0100
0000
0000
0100
0000
0000
0100
0000
0001
0000
0000
0001
0000
0000
0001
0000
,
1000
0000
0000
1000
0000
0000
1000
0000
0100
0000
0010
0000
0100
0000
0000
0000
,
0000
1001
0000
1000
0001
0000
0100
0010
,
1000
0000
0000
0100
0000
0010
0000
0000
,
0001
0000
0000
0001
0000
0000
0001
0000
1000
0000
0000
1000
0000
0000
1000
0000
,
0010
0000
0000
0100
0000
0000
0001
0000
1000
0000
0001
0000
1000
0000
0000
0000
,
0000
0001
0010
0000
0110
0000
1000
0100
,
0000
0000
0110
1001
,
0000
0000
0010
1000
,
0100
0001
0020
0030
,
0100
1100
0001
0101
,
0010
0011
1000
1010
,
1001
0000
0000
0010
0000
1000
0100
1000
,
0100
0010
0000
0001
0100
0000
0010
1000
,
0100
0101
0010
0011
,
1000
1010
0100
1100
,
1001
0000
1000
0010
0000
0100
0001
1000
,
0100
0010
0000
0100
1000
0001
0000
0100
,
0000
0101
0000
0000
0000
0000
0000
0000
;

//---------------dance-single - ----------------
#NOTES:
     dance-single:
     :
     Easy:
     4:
     0.254510,0.281018,0.114290,0.141181,0.000000,265.000000,248.000000,17.000000,21.000000,0.000000,0.000000,0.254510,0.281018,0.114290,0.141181,0.000000,265.000000,248.000000,17.000000,21.000000,0.000000,0.000000:
// measure 0
0000
0000
0000
0000
,  // measure 1
0000
0000
0000
0000
,  // measure 2
1000
1100
1000
0010
,  // measure 3
1000
0100
0010
0100
,  // measure 4
1000
0010
0100
0010
,  // measure 5
0000
0000
0000
0000
,  // measure 6
0001
0101
0001
0010
,  // measure 7
0100
0010
0001
0100
,  // measure 8
0010
0100
0001
0010
,  // measure 9
0100
0000
0000
0000
,  // measure 10
0010
0100
0010
0001
,  // measure 11
0010
0100
0010
1000
,  // measure 12
0100
0010
0100
0001
,  // measure 13
0100
0010
0100
1000
,  // measure 14
0001
1000
0010
0001
,  // measure 15
1000
0001
0010
1000
,  // measure 16
0001
0010
1000
0010
,  // measure 17
0001
1000
0010
0100
,  // measure 18
0001
0101
0000
1000
,  // measure 19
0001
1100
0000
1000
,  // measure 20
0010
1010
0000
0001
,  // measure 21
1000
0011
0000
0100
,  // measure 22
1100
0100
0010
0001
,  // measure 23
0100
0001
1000
0010
,  // measure 24
0200
0301
0002
0013
,  // measure 25
0010
1000
0010
0001
,  // measure 26
0100
0000
0001
0001
,  // measure 27
1000
0010
0100
0000
,  // measure 28
1001
0000
2000
3010
,  // measure 29
0002
0103
2000
3100
,  // measure 30
0002
0000
0000
0013
,  // measure 31
0100
1000
0100
0010
,  // measure 32
1001
0000
0002
0103
,  // measure 33
2000
3010
0002
0103
,  // measure 34
1000
0000
0100
0100
,  // measure 35
0010
0001
0100
1000
,  // measure 36
0100
0100
0000
0000
,  // measure 37
0000
0000
0000
0000
,  // measure 38
1000
0010
1000
0000
,  // measure 39
0001
0000
1000
0000
,  // measure 40
0001
0100
0001
0000
,  // measure 41
0010
0000
0100
0000
,  // measure 42
2002
0000
3003
0001
,  // measure 43
0010
0000
1000
0100
,  // measure 44
0010
0001
0000
0000
,  // measure 45
1000
1000
0001
0100
,  // measure 46
0001
0001
0010
1000
,  // measure 47
0100
0010
0000
0100
,  // measure 48
1000
0100
0000
0001
,  // measure 49
1000
0001
0100
0000
,  // measure 50
0001
0001
0010
0010
,  // measure 51
0100
0100
1000
0010
,  // measure 52
1000
1000
0100
0100
,  // measure 53
0010
0010
0001
0100
,  // measure 54
0001
0000
1000
0001
,  // measure 55
1000
0000
0100
0010
,  // measure 56
0001
0000
1000
0000
,  // measure 57
0010
0100
0001
1000
,  // measure 58
1001
0010
0001
0010
,  // measure 59
0100
0010
0001
0100
,  // measure 60
1000
0100
0001
1000
,  // measure 61
0100
0001
0100
1000
,  // measure 62
1001
1000
0010
1000
,  // measure 63
0100
1000
0010
0100
,  // measure 64
0110
0001
0010
1000
,  // measure 65
0010
0001
1000
0001
,  // measure 66
0100
0000
1000
1000
,  // measure 67
0100
0010
0001
0000
,  // measure 68
2002
3003
0020
1030
,  // measure 69
0200
0301
0020
1030
,  // measure 70
1100
0000
1000
0001
,  // measure 71
0100
0001
0010
0000
,  // measure 72
2002
3003
0020
0031
,  // measure 73
2000
3010
0200
1300
,  // measure 74
0110
0000
0001
0100
,  // measure 75
1000
0010
0100
0001
,  // measure 76
0010
0000
0000
0000
;

//---------------dance-single - ----------------
#NOTES:
     dance-single:
     :
     Beginner:
     2:
     0.158469,0.178830,0.020169,0.107567,0.000000,165.000000,162.000000,3.000000,16.000000,0.000000,0.000000,0.158469,0.178830,0.020169,0.107567,0.000000,165.000000,162.000000,3.000000,16.000000,0.000000,0.000000:
// measure 0
0000
0000
0000
0000
,  // measure 1
0000
0000
0000
0000
,  // measure 2
1000
1000
0000
0001
,  // measure 3
0000
0100
0000
0010
,  // measure 4
0010
0010
0000
0100
,  // measure 5
0000
0001
0000
1000
,  // measure 6
1000
1000
0000
0100
,  // measure 7
0000
0010
0000
0001
,  // measure 8
0001
0001
0000
0010
,  // measure 9
0000
0100
0000
1000
,  // measure 10
1000
0000
0010
0000
,  // measure 11
0100
0000
0001
0000
,  // measure 12
1000
1000
1000
0000
,  // measure 13
0001
0001
0001
0000
,  // measure 14
0010
0000
0100
0000
,  // measure 15
0010
0000
0100
0000
,  // measure 16
1000
0000
0001
0000
,  // measure 17
0100
0000
0010
0000
,  // measure 18
1000
1000
0000
1000
,  // measure 19
1000
1000
0000
0001
,  // measure 20
0001
0001
0000
0001
,  // measure 21
0001
0001
0000
0000
,  // measure 22
0010
0010
0010
0000
,  // measure 23
0100
0100
0100
0000
,  // measure 24
1000
0000
0001
0000
,  // measure 25
0100
0000
0010
0000
,  // measure 26
1000
0000
1000
0000
,  // measure 27
0001
0000
0001
0000
,  // measure 28
1001
0000
0020
0030
,  // measure 29
0020
0030
0020
0030
,  // measure 30
0200
0000
0300
0001
,  // measure 31
0001
0000
1000
1000
,  // measure 32
1000
0000
0200
0300
,  // measure 33
0200
0300
0200
0300
,  // measure 34
0020
0030
0000
0001
,  // measure 35
0001
0000
1000
1000
,  // measure 36
1000
0000
0000
0000
,  // measure 37
0000
0000
0000
0000
,  // measure 38
0010
0000
0100
0000
,  // measure 39
0010
0000
0100
0000
,  // measure 40
0001
0000
0010
0000
,  // measure 41
0100
0000
1000
0000
,  // measure 42
1001
0000
0000
0001
,  // measure 43
0000
0000
1000
1000
,  // measure 44
1000
0000
0000
0000
,  // measure 45
0010
0000
0100
0000
,  // measure 46
0001
0000
0010
0000
,  // measure 47
1000
0000
0100
0000
,  // measure 48
0010
0000
0000
0001
,  // measure 49
0001
0000
0100
0000
,  // measure 50
1001
0000
0100
0000
,  // measure 51
0001
0000
0100
0000
,  // measure 52
1000
0000
0100
0000
,  // measure 53
0001
0000
1000
0000
,  // measure 54
0010
0000
0001
0000
,  // measure 55
0010
0000
1000
1000
,  // measure 56
1000
0000
0100
0000
,  // measure 57
0010
0010
0010
0010
,  // measure 58
0010
0000
0001
0000
,  // measure 59
0100
0000
0001
0000
,  // measure 60
1000
0000
0010
0000
,  // measure 61
1000
0000
0100
0000
,  // measure 62
0010
0000
0100
0000
,  // measure 63
0010
0000
0100
0000
,  // measure 64
1000
0000
0001
0000
,  // measure 65
0100
0000
0010
0000
,  // measure 66
0100
0000
0000
0000
,  // measure 67
0000
0000
0001
0001
,  // measure 68
0001
0000
0020
0030
,  // measure 69
0200
0300
0020
0030
,  // measure 70
0200
0000
0300
1000
,  // measure 71
1000
0000
0001
0001
,  // measure 72
0001
0000
2000
3000
,  // measure 73
0020
0030
0200
0300
,  // measure 74
0002
0003
0000
0010
,  // measure 75
0010
0000
0100
0100
,  // measure 76
0100
0000
0000
0000
;
