#TITLE:Dig Your Own Hole;
#SUBTITLE:;
#ARTIST:Gotye;
#TITLETRANSLIT:;
#SUBTITLETRANSLIT:;
#ARTISTTRANSLIT:;
#GENRE:Making Mirrors;
#CREDIT:;
#BANNER:Dig Your Own Hole-bn.jpg;
#BACKGROUND:Dig Your Own Hole-bg.jpg;
#LYRICSPATH:;
#CDTITLE:;
#MUSIC:Dig Your Own Hole.mp3;
#OFFSET:-0.024000;
#SAMPLESTART:50.933998;
#SAMPLELENGTH:17.679001;
#LASTBEATHINT:239.000320;
#SELECTABLE:YES;
#BPMS:0.000000=112.000000
;
#STOPS:
;
#BGCHANGES:;
#KEYSOUNDS:;
#ATTACKS:;

//---------------dance-single - ----------------
#NOTES:
     dance-single:
     :
     Challenge:
     10:
     0.637918,0.642194,0.409459,0.494441,0.529207,461.000000,53.000000,64.000000,0.000000,0.000000,0.000000,0.637918,0.642194,0.409459,0.494441,0.529207,461.000000,53.000000,64.000000,0.000000,0.000000,0.000000:
0000
0000
0000
0000
,
0000
0000
0000
0000
,
0000
0000
0000
0000
,
0000
0000
0000
0000
,
1000
0000
0010
0100
0001
0000
0010
0100
1000
0000
0010
0100
0001
0000
0010
0000
,
0100
0000
1000
0010
1000
0000
0001
0100
0001
0000
1000
0010
1000
0000
0001
0000
,
0010
0000
0100
0010
0001
0000
0100
0010
1000
0000
0100
0010
0001
0000
1000
0000
,
0010
0000
1000
0100
0010
0000
0001
0000
1000
0000
0010
0000
0110
0000
0101
0000
,
0100
0001
2000
0100
0100
3100
0210
0010
,
0000
0300
0210
0010
0301
0000
0101
0000
,
0001
1000
0010
1000
0000
0002
0100
0010
,
0103
0000
0120
0100
1030
0000
1100
0000
,
0001
0000
1000
0010
1000
0000
0001
0000
2000
0000
0010
3000
0210
0000
0010
0000
,
0000
0300
1020
0100
1030
0000
1001
0000
,
1000
0001
0010
0200
0000
1300
0001
1000
,
0010
0000
0010
0000
0100
0000
0100
0000
0001
0000
1000
0000
0022
0033
2200
0000
,
0000
3300
0001
0010
0001
1000
0020
0001
,
0000
0000
0000
0000
0000
0000
1030
0000
0000
0000
2002
3003
2020
3030
2002
0000
,
0000
0000
3003
0000
0202
0303
2002
0000
3003
0000
0001
0000
0020
0000
1000
0000
,
0000
0000
0000
0031
0000
0000
2000
0002
,
3003
0000
0000
0000
0200
0000
0002
0300
2000
0003
0200
3000
0020
0300
0002
0030
,
0000
0000
0000
0000
2003
0000
0020
3000
0000
0000
1030
0000
0200
0000
0001
0000
,
0300
0000
0200
1000
0300
0000
0020
0001
,
0130
0000
0100
0000
0001
0000
0001
0000
1000
0000
1000
0000
0101
0000
1000
0100
,
0000
0000
1010
0110
0101
0000
0000
1001
,
1100
0000
0010
0100
0000
0100
0000
0001
0000
0000
1000
0100
0000
0000
0001
0100
,
0000
0000
0101
0110
1100
0000
0000
1010
,
1001
0101
0100
0010
1000
0100
0010
0001
,
0100
0000
0000
0000
0000
0000
0011
0000
0000
1001
0000
0000
0101
0000
0000
1000
0010
0100
0001
0100
0010
1000
0000
0000
,
0000
0000
0100
0001
0000
1000
0000
1000
0000
0000
0010
1000
0000
0000
0010
0001
,
0000
0000
1010
1001
1100
0000
0000
0000
,
0010
1000
0100
0001
0100
1000
0100
0001
,
0200
0000
1000
2300
0020
3000
0032
0000
,
0203
0000
0000
0000
0320
0000
0000
0000
0031
0000
0000
0000
2020
0000
0000
3030
,
2002
0000
0000
0000
0000
0000
0000
0000
0000
0000
3003
0000
0202
0000
0000
0303
1000
0000
0000
0000
0010
0000
0100
0000
0000
0000
0100
0000
0000
0000
0001
0000
,
0000
0000
1000
0000
0100
0000
0001
0000
0100
0000
1000
0000
0220
0000
0000
0330
,
2002
0000
0000
0000
0000
3003
2020
0000
0000
3030
1000
0000
0020
0000
0001
0000
,
0030
0000
0001
0000
0020
0000
1000
0000
0030
0000
1000
0000
0200
0000
0001
0300
,
0200
0000
1000
0000
0310
0001
0100
0010
,
1000
0000
0001
0010
0000
0100
0000
0010
0000
0001
0000
1000
0000
0000
0010
0100
,
0001
0010
0100
1000
0000
0010
1000
0001
0000
0010
0001
0100
0010
1000
0100
0010
,
0001
1000
0100
0010
0000
0010
0001
0100
0000
0001
1000
0010
0100
0001
0100
0010
,
1000
0001
0010
0100
0000
0010
0001
1000
0000
0100
0010
0001
1000
0010
0100
0001
,
1000
0010
0100
0010
0000
1000
0010
0100
0000
0001
0100
0010
1000
0001
0100
0010
,
1000
0100
0010
0001
0000
1000
0010
0100
0000
0001
0010
0100
1000
0001
0010
0100
,
0010
0001
1000
0010
0000
0010
1000
0100
0000
0100
1000
0001
0100
0010
1000
0100
,
0010
0001
1000
0100
0000
1000
0010
0100
0000
0001
0010
0100
1000
0001
0100
0010
,
1000
0100
0010
0001
0000
1000
0010
1000
0000
0001
0100
0010
1000
0001
0100
0010
,
0200
0000
0301
1000
0001
1000
0200
0000
0010
0000
0000
0000
1300
0000
1000
0010
,
1000
0000
0001
0010
0001
0000
1000
0010
1000
0000
0001
0010
0001
0000
1000
0010
,
0200
0000
0301
1000
0001
1000
0200
0000
0010
0000
0000
0000
1300
0000
0001
1000
,
0001
0000
0010
0000
0100
0000
0001
1000
0001
0000
0010
0000
0110
0000
1100
0000
,
0100
0000
0000
0000
0000
0000
1010
0000
0000
0110
0000
0000
0101
0000
0000
0001
0100
0010
1000
0010
0100
0001
0000
0000
,
0000
0000
1000
0010
0000
0010
0000
0100
0000
0001
0000
1000
0000
0000
0100
1000
,
0000
0000
0000
0000
0001
0000
1000
0010
0100
0010
0100
0010
1000
0001
0100
0000
,
0100
0000
0001
0100
0010
0000
1000
0010
0100
0000
0010
1000
0100
0000
0010
0001
,
0100
0000
0000
0000
0000
0000
0011
0000
0000
1001
0000
0000
1100
0000
0000
1000
0100
0010
0001
0010
0100
1000
0000
0000
,
0001
0000
1000
0010
0000
0010
0000
0100
0000
0000
0010
1000
0000
0000
0100
0001
,
0000
0000
1010
0101
1100
0000
0000
1001
,
0010
0010
0001
0100
0000
0000
0000
0000
;

//---------------dance-single - ----------------
#NOTES:
     dance-single:
     :
     Hard:
     8:
     0.413874,0.389904,0.185416,0.177690,0.208592,328.000000,24.000000,23.000000,0.000000,0.000000,0.000000,0.413874,0.389904,0.185416,0.177690,0.208592,328.000000,24.000000,23.000000,0.000000,0.000000,0.000000:
0000
0000
0000
0000
,
0000
0000
0000
0000
,
0000
0000
0000
0000
,
0000
0000
0000
0000
,
1000
0000
0010
1000
0100
0000
0000
1000
,
0010
0001
0000
0000
0101
0000
0011
0000
,
0000
0000
0001
1000
0010
0000
0000
1000
,
0100
0001
0000
0000
1000
0010
0100
0001
,
1000
0000
0010
1000
0100
0010
0001
2000
,
0000
3100
0101
0000
,
0100
0010
0001
0100
0000
0010
1000
0002
,
0000
1003
1001
0000
,
0010
1000
0100
0010
0000
0001
1000
0020
,
0000
1030
0110
0000
,
1000
0100
0010
0002
0000
0000
1003
0000
,
0101
0000
1010
0000
1100
0000
0010
0100
,
0001
0000
0010
0001
1000
0100
0010
0002
,
0000
0000
0000
1003
0000
0001
0010
0100
,
2000
0000
3010
0100
0002
0000
1003
0020
,
0000
0000
0000
1030
0000
0100
0001
0100
,
0020
0000
1030
0100
0010
0001
1000
0002
,
0000
0000
1003
0010
0000
1000
0100
0020
,
0000
0000
1030
0020
0000
0000
0031
0020
,
0000
0000
0000
0000
0000
0000
0000
0000
0000
0000
0000
0000
0130
0000
1000
0001
,
0000
0000
0000
0001
0100
0000
0000
0100
1000
0000
0000
1000
0100
0000
0000
0100
,
0001
0000
1000
0010
0000
1000
0000
0100
0000
0000
0100
0010
0000
0000
0001
1000
,
0000
0000
0000
0001
0100
0000
0000
0100
1000
0000
0000
1000
0100
0000
0000
0100
,
0001
1000
0010
0100
0001
0010
0100
1000
,
0010
0000
0000
0010
1000
0000
0000
1000
0100
0000
0000
0100
0010
0000
0000
0010
,
0001
0000
1000
0010
0000
1000
0000
0100
0000
0000
0100
0001
0000
0000
0001
0100
,
0000
0000
0000
0100
0010
0000
0000
0010
1000
0000
0000
1000
0100
0000
0000
0100
,
0010
0000
0000
0010
0001
0000
0000
0001
1000
0000
0000
1000
0100
0000
0000
0100
,
0010
0010
0100
0100
,
1000
1000
1000
2010
,
0002
0000
0000
0000
3003
0000
0100
0000
0001
0000
1000
0100
0000
1000
0000
0100
,
0000
0000
0000
0012
,
2000
0000
3003
0100
0000
1000
0010
1000
,
0000
0000
0001
0010
0000
0000
0001
0100
,
0010
0010
0100
0100
,
0001
1000
0001
1000
0001
1000
0001
1000
,
0010
1000
0100
0000
1000
0001
0101
0000
,
0100
0001
0010
0100
1000
0010
0100
0001
,
1000
0010
0100
0000
0010
1000
1100
0000
,
1000
0001
0010
0100
0010
0001
1000
0010
,
0100
0001
1000
0000
0001
0010
0110
0000
,
0100
1000
0010
1000
0001
0100
0010
1000
,
0001
1000
0100
0000
0010
0001
1001
0000
,
1000
0010
0100
0001
1000
0001
0100
0010
,
2010
0000
0000
0000
3100
0000
0010
0000
0001
0000
0000
0000
1001
0000
0000
1000
,
0001
0000
0000
0001
1000
0000
0000
1000
0001
0000
0000
1000
0001
0000
0000
0000
,
0012
0000
0000
0000
0103
0000
0010
0000
1000
0000
0000
0000
1001
0000
0000
0001
,
1000
0000
0000
1000
0001
0000
0000
0001
1000
0000
0000
0001
1000
0000
0000
0000
,
0210
0000
0000
0000
0310
0000
0001
0000
0100
0000
0001
0000
1000
0000
0000
0001
,
0100
0000
0000
0001
0010
0000
0000
0001
1000
0000
0000
0001
1000
0000
0000
0000
,
0120
0000
0000
0000
0130
0000
1000
0000
0010
0000
1000
0000
0001
0000
0000
1000
,
0100
0000
0000
1000
0010
0000
0000
1000
0001
0000
0000
1000
0001
0000
0000
0000
,
0021
0000
0000
0000
0130
0000
1000
0000
0010
0000
0000
0000
1010
0000
0000
1000
,
0100
0000
0000
0001
0100
0000
0000
1000
0100
0000
0000
0001
0100
0000
0000
0000
,
1020
0000
0130
0001
0010
0000
0011
0000
,
0010
0010
0001
0100
0000
0000
0000
0000
;

//---------------dance-single - ----------------
#NOTES:
     dance-single:
     :
     Medium:
     6:
     0.322270,0.321097,0.239495,0.270398,0.000000,226.000000,31.000000,35.000000,0.000000,0.000000,0.000000,0.322270,0.321097,0.239495,0.270398,0.000000,226.000000,31.000000,35.000000,0.000000,0.000000,0.000000:
0000
0000
0000
0000
,
0000
0000
0000
0000
,
0000
0000
0000
0000
,
0000
0000
0000
0000
,
0000
0000
0010
0010
0010
0000
0000
1000
,
1000
1000
0000
0000
0001
0000
0001
0000
,
0000
0000
0010
0010
0010
0000
0000
0001
,
0001
0001
0000
0000
1000
0010
1000
0010
,
0000
0000
0100
0001
1000
0000
0100
0000
,
0010
0001
1001
0000
,
1000
0000
0010
0000
0100
0001
1000
0000
,
0100
0010
0110
0000
,
0010
0000
0001
1000
0100
0000
0010
0000
,
0001
0100
0110
0000
,
0100
0000
0001
0000
1000
0100
0010
0000
,
0001
1000
0010
0100
,
0001
0000
1000
0001
1000
0000
0010
0000
,
0220
0330
2002
3003
,
0010
0000
0001
1000
0001
0000
0100
0000
,
0220
0330
2002
3003
,
0110
0000
0100
0001
1000
0000
0100
0000
,
0020
0000
0000
0000
0130
0000
1000
0001
,
0100
0000
0001
1000
0100
0000
1000
0001
,
0100
0100
0100
0000
,
0010
2002
3003
0100
,
0010
0000
1000
0001
0100
0000
0202
0000
,
0303
2002
3003
0010
,
1000
0000
0001
1000
0100
0000
2200
0000
,
3300
2002
3003
0100
,
0010
0000
0001
0100
0010
0000
0220
0000
,
0330
0202
0303
1000
,
0010
1000
0100
0000
0001
1000
0100
0000
,
0010
0010
0001
0001
,
1000
1000
1000
0002
,
2003
0000
0000
3001
0000
0000
0100
0000
,
0010
0100
0010
2000
,
3002
0000
0000
1003
0000
0000
0100
0000
,
0010
0100
0010
0100
,
0010
0010
0001
0001
,
1000
1000
1000
1000
,
0100
0110
0010
0110
,
0100
0000
1000
0001
1000
0000
0010
0000
,
0100
0110
0010
0110
,
0100
0000
0001
1000
0001
0000
0010
0000
,
0100
0011
0100
1001
,
0100
1010
0100
1001
,
0010
0000
1000
0100
0001
0000
0110
0000
,
0010
0101
0010
1100
,
0200
0000
0000
1300
0000
0001
0100
0000
,
0010
1000
0001
1001
,
0020
0000
0000
0031
0000
1000
0100
0000
,
0010
0001
2000
3001
,
0200
0000
0000
0301
0000
1000
0010
2000
,
0000
3100
0010
0110
,
0100
0000
1001
0000
0010
1000
0100
2000
,
0000
3001
0100
0010
,
0200
0000
0000
0310
0000
1000
0001
0000
,
1000
1100
0001
0101
,
0200
0000
0000
0310
0000
1000
0001
0000
,
0010
0010
0001
0100
0000
0000
0000
0000
;

//---------------dance-single - ----------------
#NOTES:
     dance-single:
     :
     Easy:
     5:
     0.263776,0.275226,0.084982,0.208592,0.000000,201.000000,11.000000,27.000000,0.000000,0.000000,0.000000,0.263776,0.275226,0.084982,0.208592,0.000000,201.000000,11.000000,27.000000,0.000000,0.000000,0.000000:
// measure 0
0000
0000
0000
0000
,  // measure 1
0000
0000
0000
0000
,  // measure 2
0000
0000
0000
0000
,  // measure 3
0000
0000
0000
0000
,  // measure 4
1000
0001
0100
0010
,  // measure 5
1000
0100
0010
0001
,  // measure 6
1000
0010
0100
0010
,  // measure 7
1000
0100
0010
0001
,  // measure 8
1000
0001
0100
0010
,  // measure 9
2000
0100
3100
0000
,  // measure 10
0010
0001
1000
0010
,  // measure 11
0200
0001
0301
0000
,  // measure 12
1000
0010
0100
0010
,  // measure 13
2000
0001
3001
0000
,  // measure 14
0010
0001
0100
0020
,  // measure 15
0130
0000
0000
0000
0000
0000
0001
0001
,  // measure 16
0000
1000
0010
0100
,  // measure 17
0002
0000
0000
0000
1003
0000
0100
0100
,  // measure 18
0000
0000
0010
0010
0000
0000
0001
0000
,  // measure 19
1000
0010
0100
0001
,  // measure 20
1000
0010
0100
0010
,  // measure 21
1000
0000
0100
0100
0000
0000
1000
0000
,  // measure 22
0000
0001
0000
0100
,  // measure 23
0100
0000
0000
0020
,  // measure 24
0030
2002
3003
0100
,  // measure 25
0010
1000
0100
0220
,  // measure 26
0330
2002
3003
0010
,  // measure 27
0001
1000
0010
0220
,  // measure 28
0330
2002
3003
0100
,  // measure 29
0010
1000
0100
0220
,  // measure 30
0330
2002
3003
0001
,  // measure 31
1000
0010
0100
0001
,  // measure 32
2000
0000
3020
0000
,  // measure 33
0230
0000
0000
0010
,  // measure 34
0320
0000
1030
0100
,  // measure 35
0020
0000
0030
0001
,  // measure 36
2000
0000
3100
0001
,  // measure 37
0100
1000
0100
0001
,  // measure 38
0200
0000
0000
0000
,  // measure 39
0310
1000
0100
0010
,  // measure 40
0100
1001
0100
0100
,  // measure 41
0010
0001
0100
0010
,  // measure 42
0100
1001
0100
0100
,  // measure 43
0010
1000
0100
0010
,  // measure 44
0100
1001
0100
0100
,  // measure 45
0010
0001
0100
0010
,  // measure 46
0100
1001
0100
0100
,  // measure 47
0010
1000
0100
0010
,  // measure 48
0001
0000
0001
0100
1000
0000
1000
0000
,  // measure 49
0010
0001
0010
0100
,  // measure 50
1000
0000
1000
0100
0001
0000
1000
0000
,  // measure 51
0010
0100
0001
0100
,  // measure 52
0001
0000
0001
0100
1000
0000
1000
0000
,  // measure 53
0010
0100
0010
0100
,  // measure 54
1000
0000
1000
0100
0001
0000
0010
0000
,  // measure 55
0100
1000
0010
0100
,  // measure 56
0001
0000
0001
0100
1000
0000
0100
0000
,  // measure 57
0010
1000
0001
0100
,  // measure 58
1000
0000
1000
0100
0001
0000
0001
0000
,  // measure 59
0010
0010
0001
0100
0000
0000
0000
0000
;

//---------------dance-single - ----------------
#NOTES:
     dance-single:
     :
     Beginner:
     1:
     0.097122,0.089618,0.000000,0.000000,0.000000,88.000000,0.000000,0.000000,0.000000,0.000000,0.000000,0.097122,0.089618,0.000000,0.000000,0.000000,88.000000,0.000000,0.000000,0.000000,0.000000,0.000000:
0000
0000
0000
0000
,
0000
0000
0000
0000
,
0000
0000
0000
0000
,
0000
0000
0000
0000
,
0000
1000
0000
0000
,
0000
0000
0000
0001
,
0000
0001
0000
0000
,
0000
0000
0000
0100
,
0000
0010
0000
0010
,
0000
0010
0000
0000
,
0000
1000
0000
1000
,
0000
1000
0000
0000
,
0000
0001
0000
0001
,
0000
0001
0000
0000
,
0000
0010
0000
0010
,
0010
0000
0000
0100
,
0000
0100
0000
1000
,
0000
0001
0000
0010
,
0000
0100
0000
0010
,
0000
0001
0000
1000
,
0000
0010
0000
0100
,
0000
0010
0000
1000
,
0000
1000
0000
0001
,
0000
0000
0000
0010
,
0000
0100
0000
0000
,
0000
1000
0000
0001
,
0000
0100
0000
0000
,
0000
0001
0000
1000
,
0000
0010
0000
0000
,
0000
1000
0000
0100
,
0000
0001
0000
0000
,
0000
0010
0000
0100
,
0100
0000
1000
0000
,
0001
0000
0000
0000
,
0010
0000
0001
0000
,
1000
0000
0000
0000
,
0010
0000
1000
0000
,
0001
0000
0000
0000
,
0010
0000
0001
0000
,
0100
0000
0000
0000
,
0010
0000
0010
0000
,
1000
0000
0001
0000
,
0100
0000
0010
0000
,
1000
0000
0100
0000
,
0010
0000
0001
0000
,
1000
0000
0001
0000
,
0100
0000
0010
0000
,
1000
0000
0100
0000
,
0010
0000
0000
0000
,
0001
0000
0001
0000
,
0100
0000
0000
0000
,
1000
0000
0010
0000
,
0100
0000
0000
0000
,
0010
0000
1000
0000
,
0100
0000
0000
0000
,
0010
0000
0001
0000
,
0100
0000
0000
0000
,
0001
0000
1000
0000
,
0100
0000
0000
0000
;
