#TITLE:Demon Kitty Rag;
#SUBTITLE:;
#ARTIST:Katzjammer;
#TITLETRANSLIT:;
#SUBTITLETRANSLIT:;
#ARTISTTRANSLIT:;
#GENRE:Le Pop;
#CREDIT:;
#BANNER:Demon Kitty Rag-bn.jpg;
#BACKGROUND:Demon Kitty Rag-bg.jpg;
#LYRICSPATH:;
#CDTITLE:;
#MUSIC:Demon Kitty Rag.mp3;
#OFFSET:-0.215000;
#SAMPLESTART:51.066959;
#SAMPLELENGTH:15.963104;
#LASTBEATHINT:448.482971;
#SELECTABLE:YES;
#DISPLAYBPM:228.000000;
#BPMS:0.000000=224.500000
,48.000000=230.000000
,68.000000=224.000000
,88.000000=230.000000
,98.000000=224.000000
,108.000000=234.000000
,114.000000=226.000000
,126.000000=228.000000
,140.000000=226.000000
,160.000000=230.000000
,172.000000=228.000000
,180.000000=222.000000
,184.000000=224.000000
,190.000000=228.000000
,202.000000=224.000000
,214.000000=228.000000
,228.000000=224.000000
,230.000000=220.000000
,232.000000=224.000000
,238.000000=228.000000
,246.000000=200.000000
,248.000000=226.000000
,250.000000=236.000000
,256.000000=230.000000
,264.000000=228.000000
,266.000000=222.000000
,270.000000=226.000000
,272.000000=230.399994
,280.000000=222.000000
,286.000000=228.000000
,288.000000=231.000000
,294.000000=228.000000
,296.000000=224.000000
,302.000000=226.000000
,306.000000=230.000000
,310.000000=234.000000
,322.000000=230.000000
,350.000000=232.000000
,370.000000=231.000000
,376.000000=228.000000
,378.000000=226.000000
,388.000000=222.000000
,396.000000=223.000000
,400.000000=224.000000
,407.000000=234.000000
,409.000000=228.000000
,413.000000=220.000000
,419.000000=228.000000
,423.000000=234.000000
,425.000000=228.000000
,431.000000=220.000000
,437.000000=230.000000
,449.000000=228.000000
,455.000000=226.000000
,479.000000=230.000000
,489.000000=226.000000
,493.000000=234.000000
,495.000000=246.000000
,499.000000=230.000000
,502.000000=228.000000
,511.000000=237.000000
;
#STOPS:404.000000=0.268000,
405.000000=0.268000,
407.000000=0.256000,
500.000000=0.261000,
507.000000=0.263000
;
#BGCHANGES:;
#KEYSOUNDS:;
#ATTACKS:;

//---------------dance-single - ----------------
#NOTES:
     dance-single:
     :
     Hard:
     9:
     0.631725,0.786896,0.632752,0.158188,0.363113,615.000000,527.000000,88.000000,22.000000,0.000000,0.000000,0.631725,0.786896,0.632752,0.158188,0.363113,615.000000,527.000000,88.000000,22.000000,0.000000,0.000000:
// measure 0
0000
0000
0000
0000
,  // measure 1
0000
0000
0000
0000
,  // measure 2
0000
0000
0000
0000
,  // measure 3
0000
0000
0000
0000
,  // measure 4
0000
0000
0000
0000
,  // measure 5
0000
0000
0000
0000
,  // measure 6
0000
0000
0000
0000
,  // measure 7
0000
0000
0000
0000
,  // measure 8
0001
0000
0000
1000
0000
0001
0100
0000
0000
0001
0000
1000
,  // measure 9
0001
0000
0000
1000
0000
0010
0000
0000
0000
1010
0000
0000
,  // measure 10
1000
0000
0000
0001
0000
1000
0100
0000
0000
1000
0000
0001
,  // measure 11
1000
0000
0000
0010
0000
0100
0000
0000
0000
0101
0000
0000
,  // measure 12
1000
0001
1000
0100
,  // measure 13
0010
0000
0001
0000
0000
1000
0000
0000
0010
0000
0000
0000
,  // measure 14
1000
0000
0100
0000
0000
0000
0010
0000
0000
0010
0000
0000
,  // measure 15
0001
0000
0000
1000
0000
0100
0000
0000
0000
1000
0000
0000
,  // measure 16
0010
1000
0001
1000
,  // measure 17
0100
0010
0001
0100
,  // measure 18
0010
1000
0001
1000
,  // measure 19
0010
0000
0100
0000
0000
0001
0000
0000
0000
0010
0000
0000
,  // measure 20
0100
1000
0001
0100
,  // measure 21
0010
0000
0000
1000
0000
0000
0100
0000
0010
0000
0001
0000
,  // measure 22
0000
1000
0000
0000
0000
0000
0010
0000
0000
1000
0000
0000
,  // measure 23
0001
0000
0100
0000
0000
0010
0000
0000
1000
0000
0000
0100
,  // measure 24
0010
0001
1000
0001
,  // measure 25
0100
0010
1000
0100
,  // measure 26
0010
0001
1000
0001
,  // measure 27
0010
0100
1000
0010
,  // measure 28
0100
0001
0010
0100
,  // measure 29
0010
0000
0000
0001
0000
0000
1000
0000
0100
0000
0000
0010
,  // measure 30
0000
0001
1000
0001
,  // measure 31
0100
0000
0000
0010
0000
1000
0000
0000
0000
0100
0000
0000
,  // measure 32
0010
0001
1000
0001
,  // measure 33
0100
0010
1000
0100
,  // measure 34
0010
0001
1000
0010
,  // measure 35
0100
0001
0010
0100
,  // measure 36
0010
0001
1000
0001
,  // measure 37
0100
0000
0000
0010
0000
0000
1000
0000
0000
0100
0000
0010
,  // measure 38
0000
0001
0100
0001
,  // measure 39
1000
0010
1000
0100
,  // measure 40
0010
0001
0010
1000
,  // measure 41
0010
0100
0010
0001
,  // measure 42
1000
0100
0001
0100
,  // measure 43
0010
0100
1000
0100
,  // measure 44
0010
0000
0000
0001
0000
1000
0001
0000
0000
0100
0000
0000
,  // measure 45
0010
1000
0100
0010
,  // measure 46
0100
0000
0000
0000
0000
0000
0110
0000
0000
0000
0000
0001
,  // measure 47
1000
1001
0000
0100
,  // measure 48
1001
1000
0100
1000
,  // measure 49
1001
1000
0001
0100
,  // measure 50
0001
0000
1000
0001
0000
0000
0101
0000
0000
1001
0000
0000
,  // measure 51
1001
1100
1100
0100
,  // measure 52
1001
0001
0100
0001
,  // measure 53
1001
0000
0000
0001
0000
0000
1000
0000
0000
0100
0000
0010
,  // measure 54
0100
1000
0001
0100
,  // measure 55
0010
1000
0100
0010
,  // measure 56
2002
0000
0000
3003
,  // measure 57
0220
0000
0000
0330
,  // measure 58
1001
0100
0010
1000
,  // measure 59
0100
0010
0001
0100
,  // measure 60
2010
3010
1002
1003
,  // measure 61
2200
3300
0202
0300
,  // measure 62
1000
0100
1000
0103
,  // measure 63
1000
0000
0000
0001
0000
1000
0100
0000
0000
0001
0000
1000
,  // measure 64
0100
0000
0000
1000
0000
0010
1000
0000
0010
1000
0000
0000
,  // measure 65
0001
0000
0000
1000
0000
0001
0100
0000
0000
1000
0000
0001
,  // measure 66
0100
0001
0010
0100
,  // measure 67
1000
0000
0000
0001
0000
1000
0100
0000
0000
0001
0000
1000
,  // measure 68
0100
0010
0001
0100
,  // measure 69
0010
0000
0000
1000
0000
0010
0100
0000
0000
1000
0000
0010
,  // measure 70
0100
0000
0000
0001
0000
0100
0010
0000
0000
1000
0000
0000
,  // measure 71
0001
0000
0000
1000
0000
0001
0010
0000
0000
1000
0000
0001
,  // measure 72
0010
0000
0000
0001
0000
0100
0001
0000
0100
0001
0000
0000
,  // measure 73
1000
0000
0000
0001
0000
1000
0010
0000
0000
0001
0000
1000
,  // measure 74
0010
1000
0100
0010
,  // measure 75
0001
1000
0010
1000
,  // measure 76
0001
0000
0100
0000
0000
0010
0000
0000
1000
0000
0000
0000
,  // measure 77
0001
0000
1000
0000
0000
0100
0010
0000
0000
0001
0000
0100
,  // measure 78
0010
1000
1100
1001
,  // measure 79
0001
0101
1000
1100
,  // measure 80
0001
0000
0000
1000
0000
0100
0000
0000
0010
0001
0000
1000
,  // measure 81
0100
1100
0010
1010
,  // measure 82
0010
0000
0000
1000
0000
0001
0000
0000
0100
0001
0000
1000
,  // measure 83
0010
1010
0100
0011
,  // measure 84
0100
0000
0000
1010
0000
0000
0100
0000
0010
0001
0000
1000
,  // measure 85
0010
0101
1100
1010
,  // measure 86
0011
0000
0001
1000
0000
0010
0000
0000
0000
0100
0000
0000
,  // measure 87
1001
0101
1001
1100
,  // measure 88
1001
0000
0000
0100
0000
0001
0000
0000
1000
0100
0000
0010
,  // measure 89
0001
0011
1001
1010
,  // measure 90
1001
0000
0000
1000
0000
0010
0000
0000
1000
0001
0000
1000
,  // measure 91
0010
1100
0100
1001
,  // measure 92
0100
0000
0000
0011
0000
0000
0010
0000
0001
1000
0000
0001
,  // measure 93
1000
1100
0110
0011
,  // measure 94
0001
0000
1000
0001
0000
1000
0000
0000
0100
0010
0000
0001
,  // measure 95
0010
0011
0011
0011
,  // measure 96
0011
0000
0000
0011
0000
0010
0000
0000
0100
1000
0000
0100
,  // measure 97
1000
1100
1100
1100
,  // measure 98
1100
0000
0000
1100
0000
0100
0000
0000
1000
0100
0000
1000
,  // measure 99
0100
1001
0110
1001
,  // measure 100
0010
0000
1000
0001
0000
1000
0010
0000
1000
0001
0000
1000
,  // measure 101
0010
0000
0000
0000
0000
0000
0000
0000
0000
0000
0000
0000
0000
0000
0000
0000
0000
0000
0000
0000
0000
0000
0000
0000
0000
0000
0000
0000
0000
0000
0000
0000
0000
0000
0000
0000
0000
0000
0000
0000
0000
0000
0000
0000
0000
0000
0000
0000
1001
0000
0000
0000
0000
0000
0000
0000
0000
0000
0000
0000
0000
0000
0000
0000
0000
0000
0000
0000
0000
0000
0000
0000
0000
0000
0000
0000
0000
0000
0000
0000
0001
0000
0000
0000
0000
0000
0000
0000
0000
0000
0000
0000
0000
0000
0000
0000
0010
0000
0000
0000
0000
0000
0000
0000
0000
0000
0000
0000
0000
0000
0000
0000
0000
0000
0000
0000
0000
0000
0000
0000
0000
0000
0000
0000
0000
0000
0000
0000
0000
0000
0000
0000
0000
0000
0000
0000
0000
0000
0000
0000
0000
0000
0000
0000
0220
0330
0000
0000
0000
0000
0000
0000
0000
0000
0000
0000
0000
0000
0000
0000
0000
0000
0000
0000
0000
0000
0000
0000
0000
0000
0000
0000
0000
0000
0000
0000
0000
0000
0000
0000
0000
0000
0000
0000
0000
0000
0000
0000
0000
0000
0000
0000
,  // measure 102
0100
1001
1000
0010
,  // measure 103
1000
1001
1000
0010
,  // measure 104
0001
0000
0000
0100
0000
0001
1000
0000
0000
1100
0000
0000
,  // measure 105
0110
0110
0011
1001
,  // measure 106
0100
2002
0000
0000
,  // measure 107
3003
0220
0000
0000
,  // measure 108
0330
1001
1000
0001
,  // measure 109
0100
0010
1000
0100
,  // measure 110
0010
1001
0001
0010
,  // measure 111
0100
1001
0001
0010
,  // measure 112
1000
1001
0100
0010
,  // measure 113
1000
0100
0010
0001
,  // measure 114
0100
0012
0103
1200
,  // measure 115
0310
2002
3003
0220
,  // measure 116
0330
0000
0000
1000
0000
0000
0001
0000
1000
0100
0000
0000
,  // measure 117
1000
0000
0001
1000
0000
0000
0010
0000
1000
0001
0000
1000
,  // measure 118
0010
0000
0000
0100
0000
0000
0001
0000
1000
0001
0000
0000
,  // measure 119
0010
0000
0001
1000
0000
0000
0001
0000
0100
0001
0000
0000
,  // measure 120
1000
0010
1001
0100
,  // measure 121
1001
0000
0000
0010
0000
1000
0000
0000
0001
0000
0000
0010
,  // measure 122
0000
0000
0000
0100
0000
1000
0100
0000
0000
0010
0000
0000
,  // measure 123
0001
0000
0000
1000
0000
0000
0100
0000
0010
0000
0000
0000
,  // measure 124
0001
0000
0000
0100
0000
0000
0001
0000
1000
0001
0000
0000
,  // measure 125
1001
0110
1001
0000
,  // measure 126
0010
0000
0000
1000
0000
0001
1000
0000
0000
1001
0000
0100
,  // measure 127
0001
0000
1000
0001
0000
0000
0010
0000
0000
0110
0000
0000
,  // measure 128
0000
0000
0000
1001
;

//---------------dance-single - ----------------
#NOTES:
     dance-single:
     :
     Medium:
     6:
     0.319458,0.555456,0.129427,0.079094,0.000000,311.000000,293.000000,18.000000,11.000000,0.000000,0.000000,0.319458,0.555456,0.129427,0.079094,0.000000,311.000000,293.000000,18.000000,11.000000,0.000000,0.000000:
// measure 0
0000
0000
0000
0000
,  // measure 1
0000
0000
0000
0000
,  // measure 2
0000
0000
0000
0000
,  // measure 3
0000
0000
0000
0000
,  // measure 4
0000
0000
0000
0000
,  // measure 5
0000
0000
0000
0000
,  // measure 6
0000
0000
0000
0000
,  // measure 7
0000
0000
0000
0000
,  // measure 8
0001
0000
0010
0000
,  // measure 9
0100
0000
1000
0001
,  // measure 10
0100
0000
0010
0000
,  // measure 11
0100
0000
0001
1000
,  // measure 12
0010
0000
0100
0000
,  // measure 13
0010
1000
0100
0010
,  // measure 14
0001
0000
1000
0000
,  // measure 15
0010
0000
0100
0000
,  // measure 16
0001
0000
0010
0000
,  // measure 17
0100
0000
1000
0000
,  // measure 18
0100
0010
0100
0000
,  // measure 19
1000
0000
0001
0000
,  // measure 20
1000
0010
0100
0000
,  // measure 21
0010
1000
0100
0000
,  // measure 22
0010
0001
0100
0000
,  // measure 23
0001
0000
1000
0000
,  // measure 24
0100
0000
0010
0000
,  // measure 25
0001
1000
0001
0000
,  // measure 26
0100
0000
0010
0000
,  // measure 27
1000
0001
1000
0000
,  // measure 28
0010
0000
0100
0000
,  // measure 29
0001
0010
0100
1000
,  // measure 30
0001
0000
0010
0000
,  // measure 31
0100
0000
1000
0000
,  // measure 32
1001
0000
0100
0000
,  // measure 33
0010
1000
0100
0000
,  // measure 34
0001
0000
1000
0000
,  // measure 35
0010
0001
0100
0000
,  // measure 36
0010
0000
1000
0000
,  // measure 37
0100
0010
0100
0000
,  // measure 38
1000
0000
0001
0000
,  // measure 39
0100
0000
0010
0000
,  // measure 40
1000
0010
0100
0000
,  // measure 41
0001
0000
1000
0000
,  // measure 42
0001
0010
0100
0000
,  // measure 43
1000
0000
0001
0000
,  // measure 44
1000
0100
0010
0000
,  // measure 45
0001
0000
1000
0000
,  // measure 46
0010
0000
0010
0000
,  // measure 47
0100
2002
0000
3003
,  // measure 48
0001
0010
0100
1000
,  // measure 49
0010
0000
0100
0000
,  // measure 50
0001
1000
0100
1000
,  // measure 51
0001
0000
0100
0000
,  // measure 52
0010
1000
0100
0010
,  // measure 53
0001
0000
1000
0000
,  // measure 54
0010
0100
0001
0000
,  // measure 55
1000
0000
0001
0000
,  // measure 56
2002
0000
0000
3003
,  // measure 57
0220
0000
0000
0330
,  // measure 58
0001
1000
0010
0100
,  // measure 59
0001
0000
1000
0000
,  // measure 60
0010
0000
0100
0000
,  // measure 61
0010
0000
1000
0000
,  // measure 62
0000
0000
0000
0000
,  // measure 63
0100
0000
0010
0000
,  // measure 64
0100
0000
0010
0001
,  // measure 65
0010
0000
0100
0000
,  // measure 66
0010
0000
0100
1000
,  // measure 67
0100
0000
0010
0000
,  // measure 68
0100
0000
0010
0001
,  // measure 69
0010
0000
0100
0000
,  // measure 70
0010
0000
0100
0000
,  // measure 71
1000
0000
0100
0000
,  // measure 72
0010
0100
0010
0000
,  // measure 73
0001
0000
0010
0000
,  // measure 74
0100
0010
0100
0000
,  // measure 75
1000
0000
0100
0000
,  // measure 76
0010
0100
0010
0000
,  // measure 77
0001
0000
0010
0000
,  // measure 78
0100
0000
1000
0000
,  // measure 79
0010
0010
0010
0010
,  // measure 80
0010
1000
0100
0000
,  // measure 81
0010
0010
0010
0010
,  // measure 82
0010
0001
0100
0000
,  // measure 83
0000
1001
0000
0110
,  // measure 84
0000
1001
0000
0110
,  // measure 85
0000
0001
0001
0001
,  // measure 86
1000
0001
0100
0000
,  // measure 87
0010
1000
0010
1000
,  // measure 88
0010
1000
0100
0000
,  // measure 89
0010
0001
0010
0001
,  // measure 90
0010
0001
0100
0000
,  // measure 91
0000
1001
0000
0110
,  // measure 92
0000
1001
0000
0110
,  // measure 93
0000
0001
1000
0001
,  // measure 94
0100
0001
0100
0000
,  // measure 95
0020
0000
0000
0000
,  // measure 96
0000
0030
1000
0000
,  // measure 97
0200
0000
0000
0000
,  // measure 98
0000
0300
0010
0000
,  // measure 99
0002
0000
0000
0003
,  // measure 100
1000
0000
0001
0000
,  // measure 101
1001
1001
0110
0110
,  // measure 102
0000
0001
0100
0001
,  // measure 103
0100
0010
0000
1000
,  // measure 104
0000
0100
0010
0100
,  // measure 105
0000
0010
0000
0001
,  // measure 106
0000
2000
0000
0000
,  // measure 107
3000
0002
0000
0000
,  // measure 108
0003
0100
0000
0010
,  // measure 109
0000
1000
0000
0001
,  // measure 110
0000
0001
0010
0100
,  // measure 111
1000
0001
0000
0010
,  // measure 112
0000
0100
1000
0010
,  // measure 113
0000
0100
0001
1000
,  // measure 114
0000
0001
1000
0001
,  // measure 115
1000
0001
0000
0010
,  // measure 116
0000
0100
0000
1000
,  // measure 117
0000
0001
0000
0100
,  // measure 118
0000
0010
0000
1000
,  // measure 119
0000
0100
0000
0010
,  // measure 120
0000
0001
0000
1000
,  // measure 121
0000
0010
0100
0010
,  // measure 122
0100
0010
0000
1000
,  // measure 123
0000
0100
0000
0010
,  // measure 124
0000
0001
0000
1000
,  // measure 125
0000
0001
0001
0000
,  // measure 126
1000
0000
0001
0000
,  // measure 127
1000
1000
0000
1001
,  // measure 128
0000
0000
0000
1001
;

//---------------dance-single - ----------------
#NOTES:
     dance-single:
     :
     Easy:
     4:
     0.219820,0.370304,0.136617,0.071904,0.000000,214.000000,195.000000,19.000000,10.000000,0.000000,0.000000,0.219820,0.370304,0.136617,0.071904,0.000000,214.000000,195.000000,19.000000,10.000000,0.000000,0.000000:
// measure 0
0000
0000
0000
0000
,  // measure 1
0000
0000
0000
0000
,  // measure 2
0000
0000
0000
0000
,  // measure 3
0000
0000
0000
0000
,  // measure 4
0000
0000
0000
0000
,  // measure 5
0000
0000
0000
0000
,  // measure 6
0000
0000
0000
0000
,  // measure 7
0000
0000
0000
0000
,  // measure 8
0001
0000
0010
0000
,  // measure 9
0001
0000
0010
0000
,  // measure 10
0001
0000
0100
0000
,  // measure 11
0001
0000
0100
0000
,  // measure 12
0010
0000
1000
0000
,  // measure 13
0010
0000
1000
0000
,  // measure 14
0100
0000
0010
0000
,  // measure 15
0100
0000
0010
0000
,  // measure 16
0001
0000
0000
0000
,  // measure 17
1000
0000
0000
0000
,  // measure 18
0010
0000
1000
0000
,  // measure 19
0010
0000
0000
0000
,  // measure 20
1000
0000
0100
0000
,  // measure 21
0001
0000
0100
0000
,  // measure 22
1000
0000
0000
0000
,  // measure 23
0001
0000
0000
0000
,  // measure 24
0010
0000
0100
0000
,  // measure 25
0010
0000
0100
0000
,  // measure 26
0010
0000
0000
0001
,  // measure 27
0000
0000
0000
0000
,  // measure 28
1000
0000
0001
0000
,  // measure 29
1000
0000
0001
0000
,  // measure 30
1000
0000
0000
0000
,  // measure 31
0010
0000
0000
0000
,  // measure 32
0100
0000
0010
0000
,  // measure 33
0100
0000
0010
0000
,  // measure 34
1000
0000
0000
0000
,  // measure 35
0001
0000
0000
0000
,  // measure 36
0010
0000
0100
0000
,  // measure 37
0010
0000
0100
0000
,  // measure 38
0010
0000
0000
0000
,  // measure 39
0001
0000
0000
0000
,  // measure 40
1000
0000
0100
0000
,  // measure 41
1000
0000
0100
0000
,  // measure 42
0001
0000
0100
0000
,  // measure 43
0001
0000
0100
0000
,  // measure 44
1000
0000
0000
0000
,  // measure 45
0010
0000
0100
0000
,  // measure 46
0010
0000
0010
0000
,  // measure 47
0010
0000
0000
0000
,  // measure 48
1001
0000
0000
0000
,  // measure 49
0110
0000
0000
0000
,  // measure 50
0001
0000
0100
0000
,  // measure 51
1000
0000
0100
0000
,  // measure 52
1001
0000
0000
0000
,  // measure 53
0110
0000
0000
0000
,  // measure 54
1000
0000
0100
0000
,  // measure 55
0001
0000
0100
0000
,  // measure 56
2002
0000
3003
0000
,  // measure 57
0220
0000
0330
0000
,  // measure 58
0001
0000
0100
0000
,  // measure 59
1000
0000
0100
0000
,  // measure 60
1001
0000
0110
0000
,  // measure 61
1001
0000
0000
0000
,  // measure 62
0010
0000
0010
0000
,  // measure 63
1000
0000
0100
0000
,  // measure 64
0010
0000
0001
0000
,  // measure 65
0010
0000
0100
0000
,  // measure 66
0010
0000
0000
0000
,  // measure 67
0001
0000
0100
0000
,  // measure 68
0010
0000
1000
0000
,  // measure 69
0010
0000
0100
0000
,  // measure 70
0001
0000
0000
0000
,  // measure 71
1000
0000
1000
0000
,  // measure 72
0001
0000
0001
0000
,  // measure 73
1000
0000
1000
0000
,  // measure 74
0001
0000
0000
0000
,  // measure 75
0010
0000
0010
0000
,  // measure 76
0100
0000
0100
0000
,  // measure 77
0010
0000
0000
0000
,  // measure 78
0001
0000
0000
0000
,  // measure 79
1000
0000
0000
0000
,  // measure 80
0001
0000
1000
0000
,  // measure 81
0100
0000
0000
0000
,  // measure 82
0001
0000
1000
0000
,  // measure 83
0001
0000
0001
0000
,  // measure 84
0001
0000
0001
0000
,  // measure 85
1000
0000
0001
0000
,  // measure 86
1000
0000
1000
0000
,  // measure 87
0010
0000
0010
0000
,  // measure 88
1000
0000
0001
0000
,  // measure 89
1000
0000
1000
0000
,  // measure 90
0001
0000
1000
0000
,  // measure 91
0100
0000
0001
0000
,  // measure 92
0100
0000
1000
0000
,  // measure 93
0010
0000
0100
0000
,  // measure 94
0010
0000
1000
0000
,  // measure 95
0002
0000
0000
0000
,  // measure 96
0003
0000
0010
0000
,  // measure 97
0200
0000
0000
0000
,  // measure 98
0300
0000
1000
0000
,  // measure 99
0010
0000
0000
0000
,  // measure 100
1000
0000
0001
0000
,  // measure 101
1000
1000
1001
0000
,  // measure 102
0000
1001
0000
0000
,  // measure 103
0000
0110
0000
0000
,  // measure 104
0000
1000
0000
0100
,  // measure 105
0000
0001
0000
0100
,  // measure 106
0000
2002
0000
3003
,  // measure 107
0000
0220
0000
0330
,  // measure 108
0000
0001
0000
0010
,  // measure 109
0000
0100
0000
1000
,  // measure 110
0000
1001
0000
0000
,  // measure 111
0000
0010
0000
0000
,  // measure 112
0000
1000
0000
0100
,  // measure 113
0000
0010
0000
0001
,  // measure 114
0000
1000
0000
1000
,  // measure 115
0000
0001
0000
0001
,  // measure 116
0000
0100
0000
0000
,  // measure 117
0000
0010
0000
1000
,  // measure 118
0000
0010
0000
0000
,  // measure 119
0000
0100
0000
0001
,  // measure 120
0000
0100
0000
0000
,  // measure 121
0000
0001
0000
0010
,  // measure 122
0000
0100
0000
0000
,  // measure 123
0000
1000
0000
0001
,  // measure 124
0000
1000
0000
0000
,  // measure 125
0000
0000
1001
0000
,  // measure 126
0010
0000
0000
0000
,  // measure 127
0000
0110
0000
1001
,  // measure 128
0000
0000
0000
1001
;

//---------------dance-single - ----------------
#NOTES:
     dance-single:
     :
     Beginner:
     2:
     0.134563,0.231440,0.014381,0.000000,0.000000,131.000000,129.000000,2.000000,0.000000,0.000000,0.000000,0.134563,0.231440,0.014381,0.000000,0.000000,131.000000,129.000000,2.000000,0.000000,0.000000,0.000000:
// measure 0
0000
0000
0000
0000
,  // measure 1
0000
0000
0000
0000
,  // measure 2
0000
0000
0000
0000
,  // measure 3
0000
0000
0000
0000
,  // measure 4
0000
0000
0000
0000
,  // measure 5
0000
0000
0000
0000
,  // measure 6
0000
0000
0000
0000
,  // measure 7
0000
0000
0000
0000
,  // measure 8
1000
0000
0000
0000
,  // measure 9
1000
0000
0000
0000
,  // measure 10
0010
0000
0000
0000
,  // measure 11
0010
0000
0000
0000
,  // measure 12
0100
0000
0000
0000
,  // measure 13
0100
0000
0000
0000
,  // measure 14
0001
0000
0000
0000
,  // measure 15
0001
0000
0000
0000
,  // measure 16
0010
0000
0000
0000
,  // measure 17
0001
0000
0000
0000
,  // measure 18
1000
0000
0000
0000
,  // measure 19
0100
0000
0000
0000
,  // measure 20
0010
0000
0000
0000
,  // measure 21
0100
0000
0000
0000
,  // measure 22
1000
0000
0000
0000
,  // measure 23
0001
0000
0000
0000
,  // measure 24
0100
0000
0000
0000
,  // measure 25
0010
0000
0000
0000
,  // measure 26
1000
0000
0000
0000
,  // measure 27
0010
0000
0000
0000
,  // measure 28
0100
0000
0000
0000
,  // measure 29
0001
0000
0000
0000
,  // measure 30
0010
0000
0000
0000
,  // measure 31
0100
0000
0000
0000
,  // measure 32
1000
0000
0000
0000
,  // measure 33
1000
0000
0000
0000
,  // measure 34
0010
0000
0000
0000
,  // measure 35
0100
0000
0000
0000
,  // measure 36
0001
0000
0000
0000
,  // measure 37
0010
0000
0000
0000
,  // measure 38
0100
0000
0000
0000
,  // measure 39
1000
0000
0000
0000
,  // measure 40
0001
0000
0000
0000
,  // measure 41
0100
0000
0000
0000
,  // measure 42
0010
0000
0000
0000
,  // measure 43
1000
0000
0000
0000
,  // measure 44
0001
0000
0000
0000
,  // measure 45
0010
0000
0000
0000
,  // measure 46
0100
0000
0100
0000
,  // measure 47
0100
0000
0000
0000
,  // measure 48
1000
0000
0000
0000
,  // measure 49
0100
0000
0000
0000
,  // measure 50
0010
0000
0000
0000
,  // measure 51
0001
0000
0000
0000
,  // measure 52
1000
0000
0000
0000
,  // measure 53
0010
0000
0000
0000
,  // measure 54
0100
0000
0000
0000
,  // measure 55
0001
0000
0000
0000
,  // measure 56
0010
0000
0000
0000
,  // measure 57
0100
0000
0000
0000
,  // measure 58
1000
0000
0000
0000
,  // measure 59
0001
0000
0000
0000
,  // measure 60
0100
0000
0100
0000
,  // measure 61
0100
0000
0000
0000
,  // measure 62
0000
0000
0000
0000
,  // measure 63
0010
0000
0000
0000
,  // measure 64
0010
0000
0000
0000
,  // measure 65
1000
0000
0000
0000
,  // measure 66
0001
0000
0000
0000
,  // measure 67
1000
0000
0000
0000
,  // measure 68
0100
0000
0000
0000
,  // measure 69
0010
0000
0000
0000
,  // measure 70
0001
0000
0000
0000
,  // measure 71
1000
0000
0000
0000
,  // measure 72
0010
0000
0000
0000
,  // measure 73
0100
0000
0000
0000
,  // measure 74
0001
0000
0000
0000
,  // measure 75
1000
0000
0000
0000
,  // measure 76
0100
0000
0000
0000
,  // measure 77
0010
0000
0000
0000
,  // measure 78
0001
0000
0000
0000
,  // measure 79
1000
0000
0000
0000
,  // measure 80
1000
0000
1000
0000
,  // measure 81
1000
0000
0000
0000
,  // measure 82
0001
0000
0001
0000
,  // measure 83
0001
0000
0000
0000
,  // measure 84
0001
0000
0000
0000
,  // measure 85
0100
0000
0100
0000
,  // measure 86
0100
0000
0000
0000
,  // measure 87
0010
0000
0000
0000
,  // measure 88
0010
0000
0000
0000
,  // measure 89
1000
0000
0000
0000
,  // measure 90
1000
0000
0000
0000
,  // measure 91
0100
0000
0000
0000
,  // measure 92
0100
0000
0000
0000
,  // measure 93
0010
0000
0010
0000
,  // measure 94
0010
0000
0010
0000
,  // measure 95
0010
0000
0000
0000
,  // measure 96
0000
0000
0001
0000
,  // measure 97
0001
0000
0000
0000
,  // measure 98
0000
0000
1000
0000
,  // measure 99
1000
0000
0000
0000
,  // measure 100
0100
0000
0000
0000
,  // measure 101
0010
0000
0000
0000
,  // measure 102
0000
0100
0000
0000
,  // measure 103
0000
0100
0000
0000
,  // measure 104
0000
0010
0000
0000
,  // measure 105
0000
0001
0000
0000
,  // measure 106
0000
1000
0000
0000
,  // measure 107
0000
0000
0000
0000
,  // measure 108
0000
0010
0000
0010
,  // measure 109
0000
0010
0000
0010
,  // measure 110
0000
0010
0000
0000
,  // measure 111
0000
0100
0000
0000
,  // measure 112
0000
0001
0000
0000
,  // measure 113
0000
1000
0000
0000
,  // measure 114
0000
0100
0000
0100
,  // measure 115
0000
0100
0000
0100
,  // measure 116
0000
0100
0000
0000
,  // measure 117
0000
0010
0000
0000
,  // measure 118
0000
0001
0000
0000
,  // measure 119
0000
1000
0000
0000
,  // measure 120
0000
0010
0000
0000
,  // measure 121
0000
0100
0000
0000
,  // measure 122
0000
0001
0000
0000
,  // measure 123
0000
1000
0000
0000
,  // measure 124
0000
0100
0000
0000
,  // measure 125
0000
0000
0000
0000
,  // measure 126
0010
0000
0000
0000
,  // measure 127
0000
0000
0000
1001
,  // measure 128
0000
0000
0000
1001
;
