#TITLE:Data Palace;
#SUBTITLE:;
#ARTIST:The M Machine;
#TITLETRANSLIT:;
#SUBTITLETRANSLIT:;
#ARTISTTRANSLIT:;
#GENRE:Metropolis Pt. II;
#CREDIT:;
#BANNER:Data Palace-bn.jpg;
#BACKGROUND:Data Palace-bg.jpg;
#LYRICSPATH:;
#CDTITLE:m.png;
#MUSIC:Data Palace.mp3;
#OFFSET:-0.020530;
#SAMPLESTART:52.500187;
#SAMPLELENGTH:15.000008;
#LASTBEATHINT:308.000031;
#SELECTABLE:YES;
#BPMS:0.000000=128.000000
;
#STOPS:
;
#BGCHANGES:;
#KEYSOUNDS:;
#ATTACKS:;

//---------------dance-single - ----------------
#NOTES:
     dance-single:
     :
     Challenge:
     11:
     0.583611,0.734417,0.346549,0.093302,0.486501,613.000000,561.000000,52.000000,14.000000,0.000000,0.000000,0.583611,0.734417,0.346549,0.093302,0.486501,613.000000,561.000000,52.000000,14.000000,0.000000,0.000000:
// measure 0
0000
0000
0000
0000
,  // measure 1
0000
0000
0000
0000
,  // measure 2
0000
0000
0000
0000
,  // measure 3
0000
0000
0000
0000
0000
0000
0000
0000
0000
0000
0000
0000
0000
0000
0000
0001
,  // measure 4
1000
0000
0100
0000
0100
0010
0000
0010
0001
0000
1000
0000
0010
0000
0100
0000
,  // measure 5
0010
0000
1000
0000
0001
0010
0000
0010
0100
0000
1000
0000
0001
0000
0100
0000
,  // measure 6
0010
0000
1000
0000
1000
0001
0000
0001
0010
0000
0100
0000
0100
0000
1000
0000
,  // measure 7
0001
0000
0100
0000
0100
0010
0000
0010
1000
0000
0100
0000
0100
0000
0000
0000
,  // measure 8
0010
0000
0001
0000
1000
0001
0000
1000
0001
0000
0100
0000
0010
0000
1000
0000
,  // measure 9
1000
0000
0100
0000
0010
0100
0000
0010
0100
0000
1000
0000
1000
0000
0001
0000
,  // measure 10
0100
0000
0010
0000
1000
0001
0000
1000
0001
0000
0010
0000
0100
0000
0010
0000
,  // measure 11
0001
0000
0100
0000
0010
1000
0000
0010
1000
0000
0100
0010
0100
0000
0010
0001
,  // measure 12
1000
0001
1100
0101
,  // measure 13
0010
0100
0011
1010
,  // measure 14
0100
0010
1001
0100
,  // measure 15
0001
0000
1000
0010
0000
0100
0001
0000
,  // measure 16
0010
0100
0110
1001
,  // measure 17
0100
0010
0101
1100
,  // measure 18
0010
0100
1001
0100
,  // measure 19
0010
0000
1000
0100
0000
0010
0001
0000
,  // measure 20
0100
0000
0100
0000
0001
1000
0001
1000
,  // measure 21
0100
0000
0010
0000
0001
0000
1000
0001
,  // measure 22
0100
0010
1000
0100
,  // measure 23
0110
1001
1100
0101
,  // measure 24
0010
0000
0100
0000
0001
1000
0001
1000
,  // measure 25
0001
0010
0100
1000
,  // measure 26
0010
0100
0110
1001
,  // measure 27
0010
0000
1000
0001
1000
0000
1100
0000
,  // measure 28
0001
0100
0010
1000
0100
0010
0001
0100
0010
0000
1000
0000
0101
0000
0000
0000
,  // measure 29
0010
0000
0001
1000
0010
0100
0001
0010
0100
0000
0010
0000
0001
0000
0000
0000
,  // measure 30
1000
0100
0010
0001
1000
0010
1000
0001
0100
0000
0010
0000
1000
0000
0000
0000
,  // measure 31
0001
0000
0100
0001
0010
0100
0010
0001
1000
0000
0100
0000
0010
0000
0000
0000
,  // measure 32
0001
1000
0100
0010
0001
1000
0010
0100
0010
0000
1000
0000
0001
0000
0000
0000
,  // measure 33
0100
0001
0010
0100
1000
0010
0100
0001
0020
0000
0130
0000
0100
1000
0100
0000
,  // measure 34
1000
0010
1000
0001
0100
0010
0100
0001
0010
0000
0100
1000
0001
1000
0001
0000
,  // measure 35
0100
0000
0001
1000
0010
0100
0001
0010
0100
0000
0010
0000
0001
0000
0000
0000
,  // measure 36
1000
0010
1000
0100
1000
0010
0100
0010
1000
0000
0100
0000
0010
0000
0000
0000
,  // measure 37
0001
0000
0100
0001
0010
0100
0010
0001
0100
0000
0001
0000
1000
0000
0000
0000
,  // measure 38
0100
1000
0001
0100
0010
1000
0001
0010
0100
0000
0010
0000
0001
0000
0000
0000
,  // measure 39
1000
0000
0100
0010
0001
0100
0010
1000
0100
0000
1000
0000
0010
0000
0000
0000
,  // measure 40
1000
0010
1000
0001
0100
0010
1000
0001
0100
0000
0010
0000
1000
0000
0000
0000
,  // measure 41
0001
0010
0001
1000
0100
0010
0001
1000
0020
0000
0130
0000
0100
0001
1000
0000
,  // measure 42
0001
0100
0001
1000
0010
1000
0001
0100
0010
0000
1000
0000
0100
0000
0000
0000
,  // measure 43
1000
0000
0100
1000
0001
1000
0100
1000
0001
0000
0100
0000
1001
0000
0000
0000
,  // measure 44
0000
0010
0001
2000
,  // measure 45
0000
0000
3100
0020
,  // measure 46
0000
0031
1000
0001
,  // measure 47
0100
0000
0001
1000
0000
0000
0100
0000
,  // measure 48
0000
0000
0010
0001
,  // measure 49
2000
0000
3010
0200
,  // measure 50
0000
0301
1000
0001
,  // measure 51
0010
0000
0100
1000
0000
0001
1000
0000
,  // measure 52
2002
0000
3003
0000
0010
1000
0001
0100
,  // measure 53
0020
0000
0000
0200
0000
0000
0330
0000
,  // measure 54
0001
0100
0001
1000
0010
1000
0001
0100
0010
0000
1000
0000
0100
0000
0000
0000
,  // measure 55
1000
0100
1000
0001
0010
0100
0010
0001
0100
0000
0010
0000
1000
0000
0000
0000
,  // measure 56
0001
0100
0001
1000
0010
1000
0001
0100
0010
0000
0100
0000
0001
0000
1000
0000
,  // measure 57
0020
0000
0000
0200
0000
0000
0330
0000
,  // measure 58
0001
0100
0001
1000
0100
0010
0001
1000
0010
0000
0100
0000
0001
0000
0000
0000
,  // measure 59
1000
0100
1000
0001
0010
0100
1000
0010
0200
0000
0000
0000
0300
0000
0000
0000
,  // measure 60
0001
0000
0001
0000
0100
0001
0000
0000
0101
0000
0101
0000
1001
0000
0000
0000
,  // measure 61
0001
0000
0001
0000
0100
0001
0000
0000
0101
0000
0101
0000
1001
0000
0000
0000
,  // measure 62
0001
0000
0001
0000
0100
0001
0000
0000
0101
0000
0101
0000
1001
0000
0000
0000
,  // measure 63
0001
0000
0001
0000
0100
0001
0000
0000
0101
0000
1001
0000
0000
1100
0000
0000
,  // measure 64
0010
0000
0010
0000
1000
0100
0000
0001
0100
0000
0110
0000
1001
0000
0000
0000
,  // measure 65
0010
0000
0010
0000
0001
0100
0000
1000
0100
0000
0011
0000
1100
0000
0000
0000
,  // measure 66
0100
0000
0100
0000
1000
0010
0000
0001
0100
0000
0101
0000
1001
0000
0000
0000
,  // measure 67
0001
0000
0010
0000
1000
0001
0000
0100
0010
0000
0000
0000
1001
0000
0000
0000
,  // measure 68
1000
0010
0100
0001
0010
0100
1000
0010
0100
0000
0101
0000
1001
0000
0000
0000
,  // measure 69
0100
0000
1000
0001
0100
0010
1000
0100
0010
0000
0110
0000
1001
0000
0000
0000
,  // measure 70
0001
0010
0100
1000
0001
0100
0001
1000
0010
0000
0110
0000
1001
0000
0000
0000
,  // measure 71
1000
0000
0010
1000
0100
0010
0100
1000
0001
0000
0011
0000
0110
0000
0000
0000
,  // measure 72
1000
0001
0010
0100
1000
0001
0100
0010
0100
0000
0101
0000
1001
0000
0000
0000
,  // measure 73
0010
1000
0100
0010
0001
0100
0010
1000
0200
0000
0310
0000
0010
0001
0010
0000
,  // measure 74
0001
0100
0001
1000
0010
0100
0010
1000
0100
0000
0010
0001
1000
0001
1000
0000
,  // measure 75
0010
0000
1000
0001
0100
0010
1000
0100
0010
0000
1001
0000
0110
0000
0000
0000
,  // measure 76
1001
0000
0000
0000
;

//---------------dance-single - ----------------
#NOTES:
     dance-single:
     :
     Hard:
     8:
     0.445563,0.557144,0.393200,0.099966,0.029990,468.000000,409.000000,59.000000,15.000000,0.000000,0.000000,0.445563,0.557144,0.393200,0.099966,0.029990,468.000000,409.000000,59.000000,15.000000,0.000000,0.000000:
// measure 0
0000
0000
0000
0000
,  // measure 1
0000
0000
0000
0000
,  // measure 2
0000
0000
0000
0000
,  // measure 3
0000
0000
0000
0000
,  // measure 4
1000
0000
0001
0000
0100
0010
1001
0000
,  // measure 5
0010
1000
0100
0000
0010
0100
1001
0000
,  // measure 6
0010
0000
0001
0000
1000
0001
1001
0000
,  // measure 7
0100
0010
0100
0000
0010
1000
1001
0000
,  // measure 8
0100
0010
1000
0000
0010
0100
1001
0000
,  // measure 9
0100
0001
0010
0000
0100
0010
1001
0000
,  // measure 10
0100
0001
1000
0000
0010
0100
0110
0000
,  // measure 11
1000
0001
0100
0000
0010
1000
1001
0000
,  // measure 12
1000
0001
1100
0101
,  // measure 13
0010
0100
0011
1010
,  // measure 14
0100
0010
1001
0100
,  // measure 15
0001
0000
1000
0010
0000
0100
0001
0000
,  // measure 16
0010
0100
0110
1001
,  // measure 17
0100
0010
0101
1100
,  // measure 18
0010
0100
1001
0100
,  // measure 19
0010
0000
1000
0100
0000
0010
0001
0000
,  // measure 20
0100
0000
0100
0000
0001
1000
0001
1000
,  // measure 21
0100
0000
0010
0000
0001
0000
1000
0001
,  // measure 22
0100
0010
1000
0100
,  // measure 23
0110
1001
1100
0101
,  // measure 24
0010
0000
0100
0000
0001
1000
0001
1000
,  // measure 25
0001
0010
0100
1000
,  // measure 26
0010
0100
0110
1001
,  // measure 27
0010
0000
1000
0001
1000
0000
1100
0000
,  // measure 28
0010
0100
0001
0010
0100
0010
1001
0000
,  // measure 29
0010
0001
0100
0001
1000
0010
1001
0000
,  // measure 30
0010
1000
0100
1000
0001
0100
1001
0000
,  // measure 31
0100
0001
0010
0100
0010
0001
1001
0000
,  // measure 32
1000
0010
1000
0001
0100
0010
1001
0000
,  // measure 33
0100
0001
0010
0100
0200
1300
0001
1000
,  // measure 34
0001
0100
0010
1000
0100
0010
1001
0000
,  // measure 35
0010
1000
0100
0010
0100
1000
1001
0000
,  // measure 36
0010
1000
0100
0010
0001
1000
0010
0000
,  // measure 37
0100
0001
0010
0100
0010
0001
1000
0000
,  // measure 38
0010
1000
0100
0001
0100
1000
0010
0000
,  // measure 39
1000
0001
0100
0010
1000
0100
0010
0000
,  // measure 40
0001
0100
0001
0010
0100
0010
0001
0000
,  // measure 41
1000
0010
1000
0001
0200
0310
0010
1000
,  // measure 42
0001
0100
0010
1000
0001
0010
0100
0000
,  // measure 43
0010
0001
1000
0001
0100
0010
1001
0000
,  // measure 44
0000
0010
0001
2000
,  // measure 45
0000
0000
3100
0020
,  // measure 46
0000
0031
1000
0001
,  // measure 47
0100
0000
0001
1000
0000
0000
0100
0000
,  // measure 48
0000
0000
0010
0001
,  // measure 49
2000
0000
3010
0200
,  // measure 50
0000
0301
1000
0001
,  // measure 51
0010
0000
0100
1000
0000
0001
1000
0000
,  // measure 52
2002
0000
3003
0000
0010
1000
0001
0100
,  // measure 53
0020
0000
0000
0200
0000
0000
0330
0000
,  // measure 54
0001
1000
0100
1000
0001
1000
0001
0000
,  // measure 55
1000
0010
1000
0001
0100
0001
1000
0000
,  // measure 56
2002
0000
3003
0000
0010
1000
0001
0100
,  // measure 57
0020
0000
0000
0200
0000
0000
0330
0000
,  // measure 58
0001
0010
0100
1000
0010
1000
0001
0000
,  // measure 59
0100
0010
1000
0001
0020
0000
0030
0000
,  // measure 60
0001
0000
0001
0000
0100
0001
0000
0000
0101
0000
0101
0000
1001
0000
0000
0000
,  // measure 61
0001
0000
0001
0000
0100
0001
0000
0000
0101
0000
0101
0000
1001
0000
0000
0000
,  // measure 62
0001
0000
0001
0000
0100
0001
0000
0000
0101
0000
0101
0000
1001
0000
0000
0000
,  // measure 63
0001
0000
0001
0000
0100
0001
0000
0000
0101
0000
1001
0000
0000
1100
0000
0000
,  // measure 64
1000
0000
1000
0000
0100
1000
0000
0000
1100
0000
1100
0000
1001
0000
0000
0000
,  // measure 65
1000
0000
1000
0000
0100
1000
0000
0000
1100
0000
1100
0000
1001
0000
0000
0000
,  // measure 66
1000
0000
1000
0000
0100
1000
0000
0000
1100
0000
1100
0000
1001
0000
0000
0000
,  // measure 67
1000
0000
1000
0000
0100
1000
0000
0000
1100
0000
0000
0000
1001
0000
0000
0000
,  // measure 68
0001
1000
0010
0100
0001
0010
0100
0000
,  // measure 69
0010
0001
1000
0100
0010
0001
0100
0000
,  // measure 70
0010
1000
0100
0001
0100
1000
0010
0000
,  // measure 71
0010
1000
0100
0001
0100
1000
0010
0000
,  // measure 72
0001
0010
1000
0010
0001
0010
1000
0000
,  // measure 73
0001
0100
1000
0100
0001
0100
0010
0000
,  // measure 74
0001
0010
0100
1000
0010
0001
0010
0000
,  // measure 75
0001
0100
1000
0100
0001
1000
0010
0000
,  // measure 76
1001
0000
0000
0000
;

//---------------dance-single - ----------------
#NOTES:
     dance-single:
     :
     Medium:
     6:
     0.350357,0.405196,0.219925,0.099966,0.026658,368.000000,335.000000,33.000000,15.000000,0.000000,0.000000,0.350357,0.405196,0.219925,0.099966,0.026658,368.000000,335.000000,33.000000,15.000000,0.000000,0.000000:
// measure 0
0000
0000
0000
0000
,  // measure 1
0000
0000
0000
0000
,  // measure 2
0000
0000
0000
0000
,  // measure 3
0000
0000
0000
0000
,  // measure 4
0001
1000
0100
1001
,  // measure 5
0010
0100
0010
1001
,  // measure 6
1000
0001
0100
0001
,  // measure 7
1000
0010
0100
1001
,  // measure 8
0010
1000
0100
0010
,  // measure 9
0100
1000
0010
0110
,  // measure 10
0010
1000
0001
0100
,  // measure 11
0001
0010
0100
1001
,  // measure 12
1000
0001
1100
0101
,  // measure 13
0010
0100
0011
1010
,  // measure 14
0100
0010
1001
0100
,  // measure 15
0001
0000
1000
0010
0000
0100
0001
0000
,  // measure 16
0010
0100
0110
1001
,  // measure 17
0100
0010
0101
1100
,  // measure 18
0010
0100
1001
0100
,  // measure 19
0010
0000
1000
0100
0000
0010
0001
0000
,  // measure 20
0100
0000
0100
0000
0001
1000
0001
1000
,  // measure 21
0100
0000
0010
0000
0001
0000
1000
0001
,  // measure 22
0100
0010
1000
0100
,  // measure 23
0110
1001
1100
0101
,  // measure 24
0010
0000
0100
0000
0001
1000
0001
1000
,  // measure 25
0001
0010
0100
1000
,  // measure 26
0010
0100
0110
1001
,  // measure 27
0010
0000
1000
0001
1000
0000
1100
0000
,  // measure 28
0010
0000
0100
0000
0001
1000
0001
0000
,  // measure 29
0010
0000
0100
0000
1000
0001
1000
0000
,  // measure 30
0100
1000
0100
0000
0010
0001
0010
0000
,  // measure 31
0100
1000
0100
0000
0010
0001
0010
0000
,  // measure 32
0100
0000
0010
0000
0001
1000
0001
0000
,  // measure 33
0100
0010
2000
3001
,  // measure 34
0010
0100
0010
0001
0010
0000
0100
0000
,  // measure 35
0010
0100
1000
0100
0010
0000
0100
0000
,  // measure 36
1000
0000
0001
0000
0100
0001
1000
0000
,  // measure 37
0010
0000
0100
0000
0010
1000
0001
0000
,  // measure 38
0100
0010
0100
0000
0010
1000
0001
0000
,  // measure 39
0100
0010
0100
0000
0001
1000
0100
0000
,  // measure 40
0010
0000
0100
0000
1000
0001
0100
0000
,  // measure 41
0010
0100
0002
1003
,  // measure 42
0100
0010
0001
0010
0100
0000
1000
0000
,  // measure 43
0100
1000
0001
1000
0100
0000
1001
0000
,  // measure 44
0000
0010
0001
2000
,  // measure 45
0000
0000
3100
0020
,  // measure 46
0000
0031
1000
0001
,  // measure 47
0100
0000
0001
1000
0000
0000
0100
0000
,  // measure 48
0000
0000
0010
0001
,  // measure 49
2000
0000
3010
0200
,  // measure 50
0000
0301
1000
0001
,  // measure 51
0010
0000
0100
1000
0000
0001
1000
0000
,  // measure 52
2002
0000
3003
0000
0010
1000
0001
0100
,  // measure 53
0020
0000
0000
0200
0000
0000
0330
0000
,  // measure 54
0001
0010
0001
1000
,  // measure 55
0010
1000
0001
0100
,  // measure 56
2002
0000
3003
0000
0010
1000
0001
0100
,  // measure 57
0020
0000
0000
0200
0000
0000
0330
0000
,  // measure 58
0001
0100
0010
1000
,  // measure 59
0100
0001
2000
3000
,  // measure 60
0001
0000
0001
0000
0000
0001
0000
0000
0001
0000
0001
0000
1001
0000
0000
0000
,  // measure 61
0001
0000
0001
0000
0000
0001
0000
0000
0001
0000
0001
0000
1001
0000
0000
0000
,  // measure 62
0001
0000
0001
0000
0000
0001
0000
0000
0001
0000
0001
0000
1001
0000
0000
0000
,  // measure 63
0001
0000
0001
0000
0000
0001
0000
0000
0001
0000
0000
0000
0100
0000
0000
0000
,  // measure 64
1000
0000
1000
0000
0000
1000
0000
0000
1000
0000
1000
0000
1001
0000
0000
0000
,  // measure 65
1000
0000
1000
0000
0000
1000
0000
0000
1000
0000
1000
0000
1001
0000
0000
0000
,  // measure 66
1000
0000
1000
0000
0000
1000
0000
0000
1000
0000
1000
0000
1001
0000
0000
0000
,  // measure 67
1000
0000
1000
0000
0000
1000
0000
0000
1000
0000
0000
0000
1001
0000
0000
0000
,  // measure 68
0100
0000
1000
0000
0001
1000
0001
0000
,  // measure 69
0010
0000
0100
0000
0010
0001
1000
0000
,  // measure 70
0001
0100
0010
0000
1000
0010
1000
0000
,  // measure 71
0001
1000
0100
0000
1000
0100
1000
0000
,  // measure 72
0010
0000
0100
0000
0001
1000
0001
0000
,  // measure 73
0010
0000
0100
0000
1000
0100
1000
0000
,  // measure 74
0001
0010
0001
0000
1000
0001
0100
0000
,  // measure 75
0010
0100
0010
0000
1000
0001
1000
0000
,  // measure 76
1001
0000
0000
0000
;

//---------------dance-single - ----------------
#NOTES:
     dance-single:
     :
     Easy:
     5:
     0.315131,0.379871,0.173274,0.099966,0.000000,331.000000,305.000000,26.000000,15.000000,0.000000,0.000000,0.315131,0.379871,0.173274,0.099966,0.000000,331.000000,305.000000,26.000000,15.000000,0.000000,0.000000:
// measure 0
0000
0000
0000
0000
,  // measure 1
0000
0000
0000
0000
,  // measure 2
0000
0000
0000
0000
,  // measure 3
0000
0000
0000
0000
,  // measure 4
1000
0100
0010
0110
,  // measure 5
0010
0001
1000
1001
,  // measure 6
0001
0100
0010
0110
,  // measure 7
0010
1000
0100
1001
,  // measure 8
0100
0001
0100
0010
,  // measure 9
0100
0001
1000
0001
,  // measure 10
0100
0010
1000
0010
,  // measure 11
0100
0001
0010
0100
,  // measure 12
1000
0001
1100
0101
,  // measure 13
0010
0100
0011
1010
,  // measure 14
0100
0010
1001
0100
,  // measure 15
0001
0000
1000
0010
0000
0100
0001
0000
,  // measure 16
0010
0100
0110
1001
,  // measure 17
0100
0010
0101
1100
,  // measure 18
0010
0100
1001
0100
,  // measure 19
0010
0000
1000
0100
0000
0010
0001
0000
,  // measure 20
0100
0000
0100
0000
0001
1000
0001
1000
,  // measure 21
0100
0000
0010
0000
0001
0000
1000
0001
,  // measure 22
0100
0010
1000
0100
,  // measure 23
0110
1001
1100
0101
,  // measure 24
0010
0000
0100
0000
0001
1000
0001
1000
,  // measure 25
0001
0010
0100
1000
,  // measure 26
0010
0100
0110
1001
,  // measure 27
0010
0000
1000
0001
1000
0000
1100
0000
,  // measure 28
0010
1000
0100
0010
,  // measure 29
0100
0000
1000
0000
0001
1000
0001
0000
,  // measure 30
0100
0010
1000
0001
,  // measure 31
0010
0000
0100
0000
0010
0100
0010
0000
,  // measure 32
0001
1000
0010
0100
,  // measure 33
0010
1000
0200
0310
,  // measure 34
0100
0000
1000
0000
0001
1000
0001
0000
,  // measure 35
0100
0000
0010
0000
1000
0001
1000
0000
,  // measure 36
0010
0100
0001
0010
,  // measure 37
0001
0000
0100
0000
1000
0100
1000
0000
,  // measure 38
0001
0010
0100
1000
,  // measure 39
0010
0000
0001
0000
0010
0001
0010
0000
,  // measure 40
1000
0100
0010
0001
,  // measure 41
0010
0100
0002
0013
,  // measure 42
0001
0000
0100
0000
1000
0100
1000
0000
,  // measure 43
0001
0000
0010
0000
0100
1000
0100
0000
,  // measure 44
0000
0010
0001
2000
,  // measure 45
0000
0000
3100
0020
,  // measure 46
0000
0031
1000
0001
,  // measure 47
0100
0000
0001
1000
0000
0000
0100
0000
,  // measure 48
0000
0000
0010
0001
,  // measure 49
2000
0000
3010
0200
,  // measure 50
0000
0301
1000
0001
,  // measure 51
0010
0000
0100
1000
0000
0001
1000
0000
,  // measure 52
2002
0000
3003
0000
0010
1000
0001
0100
,  // measure 53
0020
0000
0000
0200
0000
0000
0330
0000
,  // measure 54
0001
0010
0001
1000
,  // measure 55
0010
1000
0001
0100
,  // measure 56
2002
0000
3003
0000
0010
1000
0001
0100
,  // measure 57
0020
0000
0000
0200
0000
0000
0330
0000
,  // measure 58
0001
0100
0010
1000
,  // measure 59
0100
0001
2000
3000
,  // measure 60
0001
0000
0001
0000
0001
0001
0001
0000
,  // measure 61
0001
0000
0001
0000
0001
0001
0001
0000
,  // measure 62
0001
0000
0001
0000
0001
0001
0001
0000
,  // measure 63
0001
0001
0001
1001
,  // measure 64
1000
0000
1000
0000
1000
1000
1000
0000
,  // measure 65
1000
0000
1000
0000
1000
1000
1000
0000
,  // measure 66
1000
0000
1000
0000
1000
1000
1000
0000
,  // measure 67
1000
1000
1000
1001
,  // measure 68
0010
0100
0001
1000
,  // measure 69
0100
0000
0010
0000
0100
0100
0100
0000
,  // measure 70
1000
0001
0100
0010
,  // measure 71
1000
0000
0100
0000
0010
0010
0010
0000
,  // measure 72
0001
1000
0100
0010
,  // measure 73
0001
0000
1000
0000
0010
0010
0010
0000
,  // measure 74
0100
0001
0010
0100
,  // measure 75
0010
0000
0001
0000
0100
0100
0100
0000
,  // measure 76
1001
0000
0000
0000
;

//---------------dance-single - ----------------
#NOTES:
     dance-single:
     :
     Beginner:
     1:
     0.176131,0.328138,0.133288,0.086637,0.000000,185.000000,165.000000,20.000000,13.000000,0.000000,0.000000,0.176131,0.328138,0.133288,0.086637,0.000000,185.000000,165.000000,20.000000,13.000000,0.000000,0.000000:
// measure 0
0000
0000
0000
0000
,  // measure 1
0000
0000
0000
0000
,  // measure 2
0000
0000
0000
0000
,  // measure 3
0000
0000
0000
0000
,  // measure 4
0010
0000
0100
0100
,  // measure 5
0000
0001
0001
0001
,  // measure 6
0000
1000
1000
1000
,  // measure 7
0000
0100
0100
0100
,  // measure 8
0000
0010
0010
0010
,  // measure 9
0000
0001
0001
0001
,  // measure 10
0000
1000
1000
1000
,  // measure 11
0000
0100
0100
0100
,  // measure 12
0000
1000
1000
1000
,  // measure 13
0000
0000
0010
0010
,  // measure 14
0000
0010
0000
0100
,  // measure 15
0100
0000
0000
0001
,  // measure 16
0000
0000
0010
0010
,  // measure 17
0010
0000
0100
0100
,  // measure 18
0000
1000
1000
0000
,  // measure 19
0010
0010
0000
0001
,  // measure 20
0000
0000
0001
0001
,  // measure 21
0001
0000
1000
0000
,  // measure 22
0100
0000
0010
0000
,  // measure 23
0100
0100
0100
0100
,  // measure 24
0000
0000
0001
0001
,  // measure 25
0001
0000
0010
0000
,  // measure 26
1000
0000
0010
0010
,  // measure 27
0010
0000
1000
0000
,  // measure 28
0100
0000
0010
0010
,  // measure 29
0000
0000
0001
0001
,  // measure 30
0000
0000
1000
1000
,  // measure 31
0000
0000
0100
0100
,  // measure 32
0000
0000
0010
0010
,  // measure 33
0000
0000
0001
0001
,  // measure 34
0000
0000
1000
1000
,  // measure 35
0000
0000
0010
0010
,  // measure 36
0010
0000
0100
0100
,  // measure 37
0100
0000
0001
0001
,  // measure 38
0001
0000
1001
1001
,  // measure 39
1001
0000
0110
0110
,  // measure 40
0110
0000
1000
1000
,  // measure 41
1000
0000
0010
0010
,  // measure 42
0010
0000
0110
0110
,  // measure 43
0110
0000
1001
1001
,  // measure 44
2002
0000
3003
0000
,  // measure 45
0020
0000
0030
0000
,  // measure 46
0002
0000
0003
0000
,  // measure 47
2000
0000
3000
0000
,  // measure 48
0200
0000
0300
0000
,  // measure 49
0020
0000
0030
0000
,  // measure 50
0200
0000
0300
0000
,  // measure 51
2000
0000
3000
0000
,  // measure 52
1001
0000
0010
0010
,  // measure 53
0020
0000
0000
0030
,  // measure 54
0000
0000
1000
1000
,  // measure 55
0000
0000
0001
0000
,  // measure 56
2002
3003
0100
0100
,  // measure 57
0200
0000
0000
0300
,  // measure 58
0000
0000
0001
0001
,  // measure 59
0001
0000
1000
0000
,  // measure 60
0001
0001
0001
0000
,  // measure 61
0001
0001
0001
0000
,  // measure 62
0001
0001
0001
0000
,  // measure 63
0001
0001
0000
1001
,  // measure 64
0000
1000
1000
0000
,  // measure 65
1000
1000
1000
0000
,  // measure 66
1000
1000
1000
0000
,  // measure 67
1000
1000
0000
1001
,  // measure 68
0000
0010
0000
0001
,  // measure 69
0000
0010
0000
1001
,  // measure 70
0000
0100
0000
1000
,  // measure 71
0000
0010
0000
0110
,  // measure 72
0000
0010
0000
1000
,  // measure 73
0000
0100
0000
1001
,  // measure 74
0000
0100
0000
0001
,  // measure 75
0000
0010
0000
1001
;
