#TITLE:DARE;
#SUBTITLE:;
#ARTIST:Gorillaz;
#TITLETRANSLIT:;
#SUBTITLETRANSLIT:;
#ARTISTTRANSLIT:;
#GENRE:Demon Days;
#CREDIT:;
#BANNER:Dare-bn.jpg;
#BACKGROUND:Dare-bg.jpg;
#LYRICSPATH:;
#CDTITLE:;
#MUSIC:Dare.mp3;
#OFFSET:-0.536000;
#SAMPLESTART:89.865044;
#SAMPLELENGTH:15.969391;
#LASTBEATHINT:244.000000;
#SELECTABLE:YES;
#BPMS:0.000000=120.229996
;
#STOPS:11.000000=1.497000
;
#BGCHANGES:;
#KEYSOUNDS:;
#ATTACKS:;

//---------------dance-single - ----------------
#NOTES:
     dance-single:
     :
     Hard:
     7:
     0.356246,0.411202,0.242895,0.566756,0.004048,308.000000,278.000000,30.000000,70.000000,0.000000,0.000000,0.356246,0.411202,0.242895,0.566756,0.004048,308.000000,278.000000,30.000000,70.000000,0.000000,0.000000:
0000
0000
0000
0000
,
0000
0000
0000
0000
,
0000
0000
0000
0000
,
2001
0000
0010
0000
0001
0000
3020
0100
,
0030
0020
0000
0000
1030
0010
1000
0000
,
1002
0000
0010
0000
1000
0000
0023
0100
,
0030
0020
0000
0000
0031
0010
0001
0000
,
1000
0200
0001
0300
0001
0200
1000
0300
,
1000
0020
0001
0030
0001
0020
1000
0030
,
1000
0000
1100
0000
0002
0000
1003
0002
,
0000
0103
0010
0000
1000
0001
0100
0000
,
0201
0000
1000
0000
0001
0000
0302
0100
,
0000
1000
0000
0023
0000
0130
0000
0000
,
2000
0000
3200
0000
0320
0000
1030
0020
,
0000
0031
0000
1200
0000
0001
0000
1000
,
0000
0001
0000
1000
0000
0001
0000
1300
,
0000
0001
0010
1000
0001
0100
1000
0100
,
0001
0100
1000
0000
1000
0010
1000
0000
,
0010
0001
0010
1000
0100
1000
0100
0000
,
1200
0000
0001
0000
1000
0000
2300
0100
,
0000
0000
3001
0000
0020
0100
0130
0000
,
0002
0000
0203
0000
0320
0000
0031
0020
,
0000
1030
0000
0201
0000
1000
0000
0002
,
0000
0003
0000
1000
0000
0001
0000
1300
,
0000
0001
0010
1000
0001
0100
1000
0100
,
0001
0100
0001
0000
0001
0010
1000
0000
,
0010
0001
0010
0001
0100
1000
0100
0000
,
0202
0003
2000
3300
,
0001
0020
0000
0230
0000
0320
0000
0032
,
0000
2003
0000
3020
0000
1000
1000
1030
,
0000
0200
0000
0001
0000
0320
0000
1000
,
0000
0230
0000
0320
0000
1030
0001
1000
,
0100
0101
0100
1100
,
0010
1010
0010
0011
,
0001
1001
1000
1100
,
0100
0101
1001
0000
,
1000
0020
0000
0032
0000
0023
0000
2030
,
0000
3002
0000
0023
0000
0100
0100
0130
,
0000
2000
0000
0100
0000
3020
0000
0001
,
0000
0230
0000
1000
0000
0302
0000
1000
,
1000
1003
0010
0001
0010
0010
1000
0100
,
1000
0100
0010
0110
,
1200
0000
0010
0000
1000
0000
0320
0001
,
0030
0020
0000
0000
0031
0100
0001
0000
,
0201
0000
1000
0000
0001
0000
0302
0010
,
0000
1000
0000
0203
0000
1300
0000
0000
,
0200
0000
0320
0000
2030
0000
3100
0002
,
0000
0103
0000
1020
0000
0001
0000
1000
,
0000
0001
0000
1000
0000
0001
0000
1030
,
0000
0001
0100
1000
0001
0010
0100
1000
,
0001
0010
0001
0000
0010
1000
0010
0000
,
0001
0010
0001
0100
1000
0100
1000
0000
,
1200
0000
0001
0000
1000
0000
0302
0100
,
0000
0000
1003
0000
0010
0100
1001
0000
,
0001
1000
0020
0000
0032
0000
0013
2000
,
0000
3000
0010
0110
0000
1100
0000
0220
,
0000
0330
0100
1001
0000
0110
0000
1001
,
0000
0110
0000
1000
0001
0100
1000
0100
,
0001
0100
0001
0000
0001
0010
1000
0000
,
0010
0000
0000
0000
0001
0000
0000
0000
1000
0100
0000
0000
1001
0000
0000
0000
;

//---------------dance-single - ----------------
#NOTES:
     dance-single:
     :
     Medium:
     5:
     0.252148,0.362825,0.186220,0.032386,0.000000,218.000000,195.000000,23.000000,4.000000,0.000000,0.000000,0.252148,0.362825,0.186220,0.032386,0.000000,218.000000,195.000000,23.000000,4.000000,0.000000,0.000000:
0000
0000
0000
0000
,
0000
0000
0000
0000
,
0000
0000
0000
0000
,
1000
0000
0100
0000
1000
0000
0001
1000
,
0000
0001
0000
0000
0100
0000
0100
0000
,
0001
0000
1000
0000
0001
0000
1000
0100
,
0000
1000
0000
0000
0001
0000
0001
0000
,
0010
0100
1000
0100
,
0010
0001
0100
0100
,
0010
0000
1000
0000
0001
0000
1000
0010
,
0000
1000
0000
0000
0001
0000
0001
0000
,
0000
0000
0010
0000
0001
0000
1000
0010
,
0000
1000
0000
0010
0000
1000
0000
0000
,
0000
0000
0001
0000
1000
0000
0001
1000
,
0000
0001
0000
0100
0000
1000
0000
0100
,
0000
0001
0000
1000
0000
0001
0000
0000
,
0000
0000
0000
0010
0000
0100
0000
0020
,
0000
0000
0000
0100
0000
0000
0000
0000
,
0030
0000
0001
0001
,
0000
0000
1000
0000
0010
0000
1000
0001
,
0000
1000
0100
0100
,
0000
0000
0001
0000
1000
0000
0001
0100
,
0000
0000
0000
0001
0000
1000
0000
0010
,
0000
0000
0100
0100
0000
0000
0001
0001
,
0000
0000
0000
1000
0000
0002
0000
0000
,
0000
1003
0000
0000
0000
0000
0010
0000
,
1000
0100
0010
0001
,
1000
0000
0000
0000
,
0001
0010
1000
1010
,
1000
0010
0001
0011
,
0001
0010
1000
1010
,
1000
0010
0001
0011
,
1000
0001
0100
0010
,
1000
1000
0100
0100
,
0001
0001
0100
0100
,
1000
0010
0110
0000
,
1000
0000
0010
0000
1000
0000
0001
0100
,
0000
0001
0000
0000
1000
0000
1000
0000
,
0001
0000
0010
0000
0001
0000
1000
0100
,
0000
1000
0000
0000
0010
0000
0010
0000
,
1000
0100
0010
0001
,
0100
0010
1000
0001
,
0010
0000
0100
0000
0010
0000
0001
1000
,
0000
0001
0000
0000
0100
0000
0100
0000
,
0000
0000
0010
0000
1000
0000
0001
0010
,
0000
0100
0000
0010
0000
0100
0000
0000
,
0000
0000
1000
0000
0001
0000
1000
0010
,
0000
0100
0000
0101
0000
0101
0000
1001
,
0000
1001
0000
0101
0000
0101
0000
0000
,
0000
0000
0000
1010
0000
1010
0000
2020
,
0000
3030
0000
1001
0000
0000
0000
0000
,
0000
0000
0000
0000
,
0000
0000
0010
0000
0001
0000
0010
1000
,
0000
0001
0100
0110
,
0000
0000
1000
0000
0010
0000
1000
0001
,
0000
0000
0000
1100
0000
1100
0000
1001
,
0000
0000
0001
0001
0000
0000
1000
1000
,
0000
0000
0000
0101
0000
1001
0000
1100
,
0000
0000
0010
0100
,
0010
0100
1000
1001
;

//---------------dance-single - ----------------
#NOTES:
     dance-single:
     :
     Easy:
     3:
     0.203569,0.241883,0.048579,0.307667,0.000000,176.000000,170.000000,6.000000,38.000000,0.000000,0.000000,0.203569,0.241883,0.048579,0.307667,0.000000,176.000000,170.000000,6.000000,38.000000,0.000000,0.000000:
// measure 0
0000
0000
0000
0000
,  // measure 1
0000
0000
0000
0000
,  // measure 2
0000
0000
0000
0000
,  // measure 3
1000
1000
0100
0001
,  // measure 4
0000
0001
0100
1000
,  // measure 5
0001
0001
0100
1000
,  // measure 6
0000
1000
0100
0001
,  // measure 7
0002
0003
0020
0030
,  // measure 8
0200
0000
0000
0300
,  // measure 9
1000
1000
0010
0001
,  // measure 10
0000
0001
0010
1000
,  // measure 11
0000
0002
1000
1003
,  // measure 12
0000
0000
0100
0100
,  // measure 13
0000
2000
0001
3001
,  // measure 14
0000
0100
0100
0000
,  // measure 15
0020
0030
2000
3000
,  // measure 16
0200
0300
0010
0001
,  // measure 17
1000
1000
0100
0001
,  // measure 18
0000
0001
0100
1000
,  // measure 19
0000
2000
0001
3001
,  // measure 20
0000
0000
0100
0100
,  // measure 21
0000
0002
1000
1003
,  // measure 22
0000
0100
0100
0000
,  // measure 23
0020
0030
0002
0003
,  // measure 24
0200
0300
0010
1000
,  // measure 25
0001
0001
0100
1000
,  // measure 26
0000
1000
0100
0001
,  // measure 27
0020
0000
0000
0030
,  // measure 28
0001
0001
0100
0100
,  // measure 29
0001
0100
0001
0100
,  // measure 30
1000
1000
0100
0100
,  // measure 31
1000
0100
1000
0100
,  // measure 32
0001
0000
0000
2002
,  // measure 33
3003
0220
0330
2002
,  // measure 34
3003
0220
0330
2002
,  // measure 35
3003
0010
0010
0000
,  // measure 36
1000
0100
1000
0100
,  // measure 37
0001
0100
1000
0000
,  // measure 38
0001
0100
0001
0100
,  // measure 39
1000
0100
0001
0000
,  // measure 40
0020
0030
0002
0003
,  // measure 41
0200
0300
0010
1000
,  // measure 42
0020
0030
2000
3000
,  // measure 43
0200
0300
0010
0010
,  // measure 44
0001
2000
0010
3010
,  // measure 45
0000
0100
0100
0100
,  // measure 46
0000
0002
0010
0013
,  // measure 47
0000
1000
0100
0001
,  // measure 48
1000
1000
0010
0010
,  // measure 49
0001
0001
0100
0100
,  // measure 50
2000
3000
0002
0003
,  // measure 51
0100
0010
0100
0000
,  // measure 52
1000
0002
0100
0103
,  // measure 53
0000
0010
0010
0010
,  // measure 54
0000
2000
0100
3100
,  // measure 55
0000
0001
0010
1000
,  // measure 56
0001
0001
0100
0100
,  // measure 57
1000
1000
0010
0010
,  // measure 58
0002
0003
2000
3000
,  // measure 59
0010
0100
0010
0110
;

//---------------dance-single - ----------------
#NOTES:
     dance-single:
     :
     Beginner:
     1:
     0.099471,0.120942,0.008097,0.000000,0.000000,86.000000,85.000000,1.000000,0.000000,0.000000,0.000000,0.099471,0.120942,0.008097,0.000000,0.000000,86.000000,85.000000,1.000000,0.000000,0.000000,0.000000:
// measure 0
0000
0000
0000
0000
,  // measure 1
0000
0000
0000
0000
,  // measure 2
0000
0000
0000
0000
,  // measure 3
1000
0000
0100
0000
,  // measure 4
0010
0000
0000
0000
,  // measure 5
0001
0000
0100
0000
,  // measure 6
0010
0000
0000
0000
,  // measure 7
1000
0000
0001
0000
,  // measure 8
1000
0000
0000
0000
,  // measure 9
0001
0000
0010
0000
,  // measure 10
0100
0000
0000
0000
,  // measure 11
1000
0000
0000
0000
,  // measure 12
0001
0000
0000
0000
,  // measure 13
0100
0000
0000
0000
,  // measure 14
0010
0000
0000
0000
,  // measure 15
1000
0000
0000
0000
,  // measure 16
0100
0000
0000
0000
,  // measure 17
0010
0000
0000
0000
,  // measure 18
0001
0000
0000
0000
,  // measure 19
1000
0000
0000
0000
,  // measure 20
0010
0000
0000
0000
,  // measure 21
0100
0000
0000
0000
,  // measure 22
0001
0000
0000
0000
,  // measure 23
0010
0000
0000
0000
,  // measure 24
0100
0000
0000
0000
,  // measure 25
1000
0000
0000
0000
,  // measure 26
1000
0000
0000
0000
,  // measure 27
0001
0000
0000
0000
,  // measure 28
0000
0010
0000
0010
,  // measure 29
0000
0100
0000
0100
,  // measure 30
0000
0010
0000
0010
,  // measure 31
0000
0100
0000
0100
,  // measure 32
0100
0000
0000
0000
,  // measure 33
0000
0000
0000
0000
,  // measure 34
1000
0000
0001
0000
,  // measure 35
1000
0000
0000
0000
,  // measure 36
0001
0000
0000
0010
,  // measure 37
0010
0000
0000
0100
,  // measure 38
0100
0000
0000
1000
,  // measure 39
1000
0000
0000
0010
,  // measure 40
0010
0000
0000
0000
,  // measure 41
0000
0100
0000
0000
,  // measure 42
0001
0000
0100
0000
,  // measure 43
1000
0000
0100
0000
,  // measure 44
0001
0000
0001
0000
,  // measure 45
1000
0000
1000
0000
,  // measure 46
0010
0000
0010
0000
,  // measure 47
0100
0000
0100
0000
,  // measure 48
0010
0000
1000
0000
,  // measure 49
0100
0000
0000
0000
,  // measure 50
0010
0000
0001
0000
,  // measure 51
0100
0000
0000
0000
,  // measure 52
0010
0000
1000
0000
,  // measure 53
0010
0000
0001
0000
,  // measure 54
0010
0000
0100
0000
,  // measure 55
0010
0000
1000
0000
,  // measure 56
0100
0000
0010
0000
,  // measure 57
0001
0000
0100
0000
,  // measure 58
0010
0000
1000
0000
,  // measure 59
0001
0000
0000
1001
;
