#TITLE:Dancing On My Own;
#SUBTITLE:;
#ARTIST:Robyn;
#TITLETRANSLIT:;
#SUBTITLETRANSLIT:;
#ARTISTTRANSLIT:;
#GENRE:Body Talk Pt. 1;
#CREDIT:;
#BANNER:Dancing On My Own-bn.jpg;
#BACKGROUND:Dancing On My Own-bg.jpg;
#LYRICSPATH:;
#CDTITLE:;
#MUSIC:Dancing On My Own.mp3;
#OFFSET:-0.022006;
#SAMPLESTART:50.360718;
#SAMPLELENGTH:15.412277;
#LASTBEATHINT:241.000000;
#SELECTABLE:YES;
#DISPLAYBPM:117.000000;
#BPMS:0.000000=116.790001
,160.000000=58.395000
,182.000000=116.790001
;
#STOPS:
;
#BGCHANGES:;
#KEYSOUNDS:;
#ATTACKS:;

//---------------dance-single - ----------------
#NOTES:
     dance-single:
     :
     Hard:
     7:
     0.360910,0.583134,0.043558,0.225050,0.174232,348.000000,342.000000,6.000000,31.000000,0.000000,0.000000,0.360910,0.583134,0.043558,0.225050,0.174232,348.000000,342.000000,6.000000,31.000000,0.000000,0.000000:
0000
0000
0000
0000
,
0000
0000
0000
0000
,
0000
0000
0000
0000
,
0000
0000
0000
0000
,
0100
0000
0100
0000
0100
0010
1000
0001
,
0010
0000
0010
0000
0010
0100
0010
0000
,
0001
0000
0001
0000
0001
0100
0001
0000
,
0001
1000
0001
0000
0001
0100
0001
0000
,
1000
0000
0010
0000
0100
0010
1000
0000
,
0100
0010
0100
0000
0100
1000
0001
0000
,
1000
0100
1000
0000
1000
0001
1000
0000
,
1000
0010
1000
0000
1000
0001
1000
0000
,
0100
0000
0010
0000
0001
0100
0010
0000
,
0100
0001
1000
0000
0010
1000
0100
0000
,
0010
0000
0010
0000
0010
0001
0010
0000
,
0010
0100
0010
0000
0010
1000
0010
0000
,
0100
0000
1000
0000
0001
0100
0010
0000
,
1000
0001
0010
0000
0100
1000
0001
0000
,
0100
0010
0100
0000
0100
0001
0100
0000
,
0100
1000
0100
0000
0100
0010
0100
0000
,
0001
0000
0010
0000
0001
0010
0100
0000
,
1000
0000
0001
0000
1000
0010
0100
0000
,
0001
0000
1000
0000
0001
0100
0010
0000
,
1000
0000
0100
0000
0010
0001
0100
0000
,
0220
0000
0030
0000
0301
0100
0001
0100
,
0020
0000
1000
0000
1030
0100
1000
0100
,
0002
0000
0100
0000
0103
0010
0100
0010
,
0200
0000
1000
0000
1300
0001
0100
0001
,
2000
0000
0010
0000
3010
0001
0010
0001
,
0020
0000
0100
0000
0130
0001
0100
0001
,
2000
0000
0100
0000
3100
1000
0100
1000
,
0200
0000
0010
0000
0310
0001
1000
0001
,
0200
0000
0310
0000
1000
0001
0100
0010
,
0100
0010
0100
0000
0001
1000
0010
0100
,
0002
1000
0010
1000
,
0100
0000
1000
0000
0010
0000
1003
0001
,
2000
0000
0000
0000
0100
0000
0000
0000
3001
0000
0000
0001
0010
0000
0000
0010
,
0100
0000
0000
0100
1000
0000
0000
1000
0001
0000
0000
0000
1000
0000
0010
0000
,
0200
1000
0001
1000
,
0310
0000
0000
0010
1000
0000
0000
1000
0001
0000
0000
0001
0100
0000
0100
0000
,
0020
0000
1030
0001
2000
0000
3100
0010
,
0002
0000
1000
0100
1000
0000
0010
0013
,
0000
0000
0200
1000
0020
0300
0001
0100
,
0032
0000
0000
0000
2003
0000
0000
0000
3020
0000
0000
0000
0130
0010
0200
0000
,
0000
0000
0300
0000
0001
1000
0010
2000
0000
3001
0000
0000
1000
0001
0100
0002
,
0000
1003
0000
0000
0020
0000
1030
0001
1000
0001
1000
0001
1000
0001
1000
0001
,
1000
0001
1000
0001
1000
0001
1000
0001
1000
0000
0000
1000
0100
0000
0000
0100
,
0010
0000
0001
0000
1000
0000
0001
0000
0100
0000
0000
0100
0010
0000
0000
0010
,
1000
0000
0001
0000
0010
0000
0100
0000
1000
0000
0000
1000
0010
0000
0000
0010
,
0001
0000
0000
0001
0010
0000
0000
0010
1000
0000
0000
1000
0001
0000
0000
0001
,
0010
0000
0000
0010
0100
0000
1000
0000
0001
0000
0000
0001
1000
0000
0000
1000
,
0100
0000
0000
0100
0010
0000
0000
0010
0001
0000
0000
0001
0100
0000
0000
0100
,
0010
0000
0000
0010
1000
0000
0001
0000
1000
0000
0000
1000
0100
0000
0000
0100
,
0010
0000
0000
0010
0001
0000
0000
0001
0100
0000
0000
0100
0010
0000
0000
0010
,
1000
0000
0000
1000
0001
0000
1000
0000
2200
0000
0000
0000
3300
0000
0000
0000
,
1000
0010
0100
0001
0202
0000
0303
0000
,
0001
0010
0100
1000
0110
0000
1001
0000
,
0010
1000
0100
0000
0100
0001
0010
0000
,
0010
1000
0100
0000
2002
0000
0000
0000
,
0000
0000
3003
0000
;

//---------------dance-single - ----------------
#NOTES:
     dance-single:
     :
     Medium:
     5:
     0.230236,0.259171,0.043558,0.268608,0.000000,222.000000,216.000000,6.000000,37.000000,0.000000,0.000000,0.230236,0.259171,0.043558,0.268608,0.000000,222.000000,216.000000,6.000000,37.000000,0.000000,0.000000:
0000
0000
0000
0000
,
0000
0000
0000
0000
,
0000
0000
0000
0000
,
0000
0000
0000
0000
,
1000
0001
1000
0100
,
0010
0000
0001
0000
0100
0010
0100
0000
,
0001
0010
0001
0100
,
0010
0100
0001
1000
,
0100
0000
0010
0000
0100
1000
0100
0000
,
1000
0000
0001
0000
0100
0010
0100
0000
,
0001
1000
0010
1000
,
0001
1000
0010
1000
,
0001
0000
1000
0000
0100
0010
0001
0000
,
1000
0000
0001
0000
0100
0010
0100
0000
,
0001
1000
0100
0010
,
0001
0100
0010
1000
,
0001
0000
1000
0000
0100
1000
0001
0000
,
0100
0000
0010
0000
0100
0001
1000
0000
,
0001
0100
0010
0100
,
0001
0100
0010
0100
,
0001
0000
0010
0000
0100
1000
0100
0000
,
1000
0000
0001
0000
1000
0001
0100
0000
,
0010
0000
0100
0000
0001
0100
0010
0000
,
1000
0000
0001
0000
1000
0100
1000
0000
,
2002
0000
3003
0000
1000
0001
1000
0000
,
0020
0000
0030
0000
0100
0010
0100
0000
,
0002
0003
2000
0100
,
3100
0000
0010
0001
,
0200
0000
0300
0000
0010
1000
0100
0000
,
0002
0000
0003
0000
1000
0010
0100
0000
,
0020
0030
0200
0001
,
0301
0000
1000
1000
,
0200
0000
0300
0000
0010
0100
0010
0000
,
0002
0000
0003
0000
1000
0001
1000
0000
,
0020
1030
0200
0301
,
2000
3010
0002
0103
,
0020
0000
1030
0001
,
1000
0100
0001
0100
,
2000
0000
3001
0100
,
1000
0100
0001
1000
,
0002
0000
0023
0000
,
0230
0000
0000
0000
0300
0000
1000
1000
,
2000
0000
3002
0000
,
0203
0000
0000
0000
0300
0000
0010
0010
,
0010
1000
0100
1000
,
0100
0001
0100
0100
,
0100
0100
2200
3300
,
1000
0001
1000
0000
2002
0000
3003
0000
,
0001
0100
0001
0000
0202
0000
0303
0000
,
2002
3003
2200
3300
,
0010
0000
0100
0010
0200
0000
0000
0000
,
0301
0010
0100
1000
,
0010
0000
0100
0010
0100
0000
0001
0000
,
1000
0100
0010
0001
,
0100
0000
0010
0100
0010
0000
1000
0000
,
0001
0000
0010
0200
0000
0000
0000
0000
,
0310
0000
0001
2000
0000
0000
0000
0000
,
3100
0010
0001
0100
,
0010
0000
1000
0001
2000
0000
0000
0000
,
0000
0000
3000
0000
;

//---------------dance-single - ----------------
#NOTES:
     dance-single:
     :
     Easy:
     3:
     0.173195,0.215976,0.036298,0.188752,0.000000,167.000000,162.000000,5.000000,26.000000,0.000000,0.000000,0.173195,0.215976,0.036298,0.188752,0.000000,167.000000,162.000000,5.000000,26.000000,0.000000,0.000000:
// measure 0
0000
0000
0000
0000
,  // measure 1
0000
0000
0000
0000
,  // measure 2
0000
0000
0000
0000
,  // measure 3
0000
0000
0000
0000
,  // measure 4
0010
0000
0001
1000
,  // measure 5
0001
0000
0100
0010
,  // measure 6
1000
0000
0001
0000
,  // measure 7
1000
0000
0001
0000
,  // measure 8
0010
0000
0001
1000
,  // measure 9
0100
0000
1000
0001
,  // measure 10
1000
0000
0010
0000
,  // measure 11
0100
0000
0010
0000
,  // measure 12
1000
0000
0001
0010
,  // measure 13
0100
0000
1000
0001
,  // measure 14
0100
0000
0010
0000
,  // measure 15
0100
0000
0001
0000
,  // measure 16
1000
0000
0001
0010
,  // measure 17
0100
0000
1000
0001
,  // measure 18
1000
0000
0010
0000
,  // measure 19
0100
0000
0001
0000
,  // measure 20
0010
0000
0100
1000
,  // measure 21
0001
0000
1000
0001
,  // measure 22
0100
0000
0001
0100
,  // measure 23
0010
0000
0100
0010
,  // measure 24
2002
3003
0010
1000
,  // measure 25
0010
1000
0001
1000
,  // measure 26
0001
1000
0001
0100
,  // measure 27
0002
0000
0200
0303
,  // measure 28
0202
0303
1000
0001
,  // measure 29
1000
0001
0010
0001
,  // measure 30
0010
0001
0010
0100
,  // measure 31
0010
0100
1000
0100
,  // measure 32
2200
3300
1000
0100
,  // measure 33
1000
0001
1000
0100
,  // measure 34
1000
0001
1000
0100
,  // measure 35
1000
0001
0100
0001
,  // measure 36
2000
3000
0001
0010
,  // measure 37
0100
1000
0001
0010
,  // measure 38
0200
0300
0010
0001
,  // measure 39
1000
0100
0010
0001
,  // measure 40
2000
3000
0002
0003
,  // measure 41
0200
0000
0300
0000
,  // measure 42
0020
0030
0200
0300
,  // measure 43
0020
0000
0030
0000
,  // measure 44
1000
0000
0000
0000
,  // measure 45
0000
0000
1000
0001
,  // measure 46
1000
0001
2002
3003
,  // measure 47
0001
1000
0001
0100
,  // measure 48
0001
0100
0010
1000
,  // measure 49
0010
1000
0001
1000
,  // measure 50
0001
1000
0001
1000
,  // measure 51
0001
0010
0100
1000
,  // measure 52
0001
0010
0100
1000
,  // measure 53
1000
0100
0010
0001
,  // measure 54
1000
0100
0020
0030
,  // measure 55
0001
1000
0002
0003
,  // measure 56
1000
0001
2000
3000
,  // measure 57
0020
0030
0200
0300
,  // measure 58
0002
0003
2002
0000
,  // measure 59
0000
0000
3003
0000
;

//---------------dance-single - ----------------
#NOTES:
     dance-single:
     :
     Beginner:
     1:
     0.121340,0.151183,0.007260,0.014519,0.000000,117.000000,116.000000,1.000000,2.000000,0.000000,0.000000,0.121340,0.151183,0.007260,0.014519,0.000000,117.000000,116.000000,1.000000,2.000000,0.000000,0.000000:
// measure 0
0000
0000
0000
0000
,  // measure 1
0000
0000
0000
0000
,  // measure 2
0000
0000
0000
0000
,  // measure 3
0000
0000
0000
0000
,  // measure 4
0001
0000
1000
0000
,  // measure 5
0001
0000
0100
0000
,  // measure 6
0010
0000
1000
0000
,  // measure 7
0100
0000
0010
0000
,  // measure 8
0100
0000
1000
0000
,  // measure 9
0001
0000
1000
0000
,  // measure 10
0001
0000
0100
0000
,  // measure 11
0010
0000
1000
0000
,  // measure 12
0100
0000
0010
0000
,  // measure 13
0001
0000
1000
0000
,  // measure 14
0001
0000
0100
0000
,  // measure 15
0010
0000
1000
0000
,  // measure 16
0100
0000
0010
0000
,  // measure 17
0100
0000
1000
0000
,  // measure 18
0001
0000
1000
0000
,  // measure 19
0001
0000
1000
0000
,  // measure 20
0001
0000
0100
0000
,  // measure 21
0010
0000
1000
0000
,  // measure 22
0100
0000
0010
0000
,  // measure 23
0100
0000
1000
0000
,  // measure 24
0001
0000
0010
0010
,  // measure 25
0010
0000
0100
0100
,  // measure 26
0100
0000
1000
0000
,  // measure 27
0010
0000
0100
0000
,  // measure 28
0001
0000
1000
1000
,  // measure 29
1000
0000
0100
0000
,  // measure 30
0010
0010
0010
0000
,  // measure 31
0001
0000
0100
0000
,  // measure 32
0010
0000
1000
1000
,  // measure 33
1000
0000
0001
0001
,  // measure 34
0001
0000
0010
0000
,  // measure 35
0100
0000
1000
0000
,  // measure 36
0001
0000
1000
0000
,  // measure 37
0001
0000
0100
0000
,  // measure 38
0010
0000
0100
0000
,  // measure 39
0010
0000
0100
0000
,  // measure 40
0010
0000
0000
0000
,  // measure 41
1000
0000
0000
0000
,  // measure 42
0001
0000
0000
0000
,  // measure 43
0010
0000
0000
0000
,  // measure 44
0100
0000
0000
0000
,  // measure 45
0000
0000
1000
1000
,  // measure 46
1000
1000
1000
0000
,  // measure 47
0001
0000
0010
0000
,  // measure 48
0001
0000
1000
0000
,  // measure 49
0100
0000
0010
0000
,  // measure 50
0001
0000
0100
0000
,  // measure 51
0010
0010
0010
0000
,  // measure 52
1000
1000
1000
0000
,  // measure 53
0001
0000
0010
0000
,  // measure 54
0100
0000
0010
0000
,  // measure 55
0001
0001
0001
0000
,  // measure 56
1000
1000
1000
0000
,  // measure 57
0100
0000
0010
0000
,  // measure 58
0100
0000
2002
0000
,  // measure 59
0000
0000
3003
0000
;
