#TITLE:DANSE AVEC MOI! (Airscape Remix);
#SUBTITLE:;
#ARTIST:Kosmonova;
#TITLETRANSLIT:;
#SUBTITLETRANSLIT:;
#ARTISTTRANSLIT:;
#GENRE:;
#CREDIT:;
#BANNER:DANSE AVEC MOI! (Airscape Remix)-bn.jpg;
#BACKGROUND:DANSE AVEC MOI! (Airscape Remix)-bg.jpg;
#LYRICSPATH:;
#CDTITLE:;
#MUSIC:DANSE AVEC MOI! (Airscape Remix).mp3;
#OFFSET:-0.030;
#SAMPLESTART:80.636;
#SAMPLELENGTH:13.739;
#SELECTABLE:YES;
#BPMS:0.000=139.950
;
#STOPS:;
#BGCHANGES:;
#KEYSOUNDS:;
#ATTACKS:;

//---------------dance-single - [Ness]----------------
#NOTES:
     dance-single:
     [Ness]:
     Hard:
     9:
     0.611,0.577,0.119,0.156,0.458,437.000,13.000,17.000,0.000,0.000,0.000,0.611,0.577,0.119,0.156,0.458,437.000,13.000,17.000,0.000,0.000,0.000:
0000
0000
0000
0000
,
0000
0000
0000
0000
,
0000
0000
0000
0000
,
0000
0000
0000
0000
,
0010
0000
0000
1000
0000
0000
0001
0000
0000
1000
0000
0000
0100
0000
1000
0000
,
0001
0000
0000
0010
0000
0000
0001
0000
0000
1000
0000
0000
0001
0000
0100
0000
,
0001
0000
0000
0010
0000
0000
0100
0000
0000
1000
0000
0000
0001
0000
1000
0000
,
0010
0000
0000
0100
0000
0000
0001
0000
0000
1000
0000
0000
0001
0000
0010
0000
,
0110
0000
0000
0100
0000
0000
0001
0000
0000
0100
0000
0000
1000
0000
0001
0000
,
1000
0000
0000
0010
0000
0000
0100
0000
0000
0010
0000
0000
0001
0000
0010
0000
,
1000
0000
0000
0010
0000
0000
0001
0000
0000
0010
0000
0000
1000
0000
0001
0000
,
1000
0000
0000
0100
0000
0000
0001
0000
0000
1000
0000
0000
0010
0000
0001
0000
,
0022
0000
0000
0033
,
0010
0000
0010
0000
0001
0100
0000
0100
0010
0000
0010
0000
0001
0100
0000
0100
,
0010
0001
0100
0010
0001
0100
0010
0001
,
0100
0010
0001
0100
0010
0001
0100
0010
,
0001
0100
0010
0001
0100
0010
0001
0010
,
1000
0010
0001
0010
1000
0100
0001
0100
,
1000
0010
0100
0001
1000
0010
0100
0001
,
0010
0100
1000
0001
0010
0100
1000
0001
,
0100
1000
0100
0001
0100
1000
0100
0001
,
0010
0100
1000
0010
0100
0001
0010
0100
,
1001
0000
1000
0000
0010
0100
0000
0001
0000
0000
1000
0000
1000
0000
0000
1000
,
0000
0000
0010
0000
0100
0000
0000
1000
0000
0000
0100
0000
0010
0000
0000
1000
,
0000
0000
0001
0000
0010
0000
0000
0100
0000
0000
0001
0000
0100
0000
0000
0010
,
0000
0000
0001
0000
1000
0000
0000
0010
0000
0000
0100
0000
1000
0000
0000
0100
,
0000
0000
0010
0000
1000
0000
0000
0010
0000
0000
0001
0000
0010
0000
0000
1000
,
0000
0000
0100
0000
0001
0000
0000
0100
0000
0000
1000
0000
0100
0000
0000
0001
,
0000
0000
0100
0000
0010
0000
0000
0001
0000
0000
0100
0000
0010
0000
0000
0001
,
0000
0000
0010
0000
0100
0000
0000
1000
0000
0000
0100
0000
0010
0000
0000
1000
,
0001
0000
0000
0001
0010
0000
0000
0010
0100
0000
0000
0100
1000
0000
0001
1000
,
0010
0000
0000
0010
0100
0000
0000
0100
0001
0000
0000
0001
1000
0000
0000
1000
,
0010
0000
0000
0010
1000
0000
0100
1000
0001
0000
0000
0001
0100
0000
0000
0100
,
0010
0000
0000
0010
1000
0000
0000
1000
0100
0000
0000
0100
0001
0000
0100
0010
,
0001
0000
0000
0001
0010
0000
0000
0010
1000
0000
0000
1000
0010
0000
0001
1000
,
0010
0000
0000
0010
0100
0000
0000
0100
1000
0000
0000
1000
0100
0000
0010
1000
,
0001
0000
0000
0001
0010
0000
0000
0010
0100
0000
0000
0100
1000
0000
0100
1000
,
0010
0000
0000
0010
0001
0000
0000
0001
0100
0000
0000
0100
1000
0000
0001
1000
,
0010
0000
0100
0000
0010
0000
0100
0000
0001
0000
1000
0000
0001
1000
0001
0000
,
0110
0000
0010
0000
0100
0010
0000
0100
0010
0000
0001
0000
1000
0001
0000
1000
,
0001
0000
0100
0000
0010
1000
0000
0010
1000
0000
0100
0000
1000
0001
0000
1000
,
0001
0000
0010
0000
0001
0010
0000
0001
0010
0000
0100
0000
1000
0100
0000
1000
,
0100
0000
0010
0000
0100
0010
0000
0100
0010
0000
0001
0000
1000
0001
0000
1000
,
0001
0000
0100
0000
0010
0100
0000
0010
0100
0000
0010
0000
1000
0010
0000
1000
,
0010
0000
1000
0000
0001
1000
0000
0001
1000
0000
0100
0000
1000
0000
0001
0000
,
0010
0000
0100
0000
1000
0100
0000
0010
0001
0000
1000
0000
0001
0100
0000
0010
,
1000
0000
0100
0000
1000
0001
0000
0100
0010
0000
1000
0000
0001
0010
0000
0100
,
1000
0010
0100
0001
1000
0010
0100
0001
,
1000
0010
1000
0010
0001
0010
0001
0010
,
1000
0100
0010
0001
1000
0100
0010
0001
,
1000
0100
1000
0100
0001
0100
0001
0100
,
0010
0001
1000
0100
0010
1000
0001
0100
,
1000
0010
0100
0001
1000
0010
0100
0001
,
1000
0100
0010
1000
0001
0100
0010
0001
,
1000
0010
0001
0010
1000
0010
0001
0010
,
2000
0000
3010
1000
0001
0000
0021
0000
,
0230
0000
1300
0001
0100
0000
0201
0000
,
0320
0000
0130
0001
1000
0000
2001
0000
,
3200
0000
0310
0100
1000
0000
0021
0000
,
0032
0000
1003
0001
0100
0000
0102
0000
,
2003
0000
3001
1000
0100
0000
0210
0000
,
2300
0000
3001
1000
0010
0000
0120
0000
,
2030
0000
3001
0100
0010
0000
0101
0000
,
1001
0000
0000
0000
;

//---------------dance-single - Blank----------------
#NOTES:
     dance-single:
     Blank:
     Medium:
     6:
     0.379,0.346,0.092,0.092,0.000,270.000,10.000,10.000,0.000,0.000,0.000,0.379,0.346,0.092,0.092,0.000,270.000,10.000,10.000,0.000,0.000,0.000:
0000
0000
0000
0000
,
0000
0000
0000
0000
,
0000
0000
0000
0000
,
0000
0000
0000
0000
,
0010
1000
0001
0011
,
0010
0000
0100
0000
1000
0001
1000
0000
,
0010
1000
0001
1001
,
1000
0000
1000
0000
0100
0001
0100
0000
,
0010
0001
1000
0101
,
0010
0000
0100
0000
0001
1000
0100
0000
,
0010
0100
1000
1100
,
0001
0000
1000
0000
0001
0100
0010
0000
,
2002
0000
0000
3003
,
0010
0010
0010
0010
,
0010
0000
0010
1000
0100
0000
0100
0000
,
0010
0010
0100
0100
,
0010
0000
0100
0000
1000
0001
1000
0000
,
0010
0010
0100
0100
,
0001
1000
0001
1000
,
0010
0100
0010
0100
,
0001
0000
1000
0001
0100
0000
0010
0000
,
0100
0010
0100
0010
,
1001
1000
1000
0100
,
0100
0001
0001
0001
,
0001
0010
0010
1000
,
1000
0010
0010
0010
,
0010
0100
0100
1000
,
1000
0001
0001
0001
,
0001
0100
0100
1000
,
1000
0100
0100
0100
,
1001
0000
0001
0000
0010
0001
0100
0000
,
1000
1000
0100
0100
,
0001
0000
0001
0000
0010
1000
0100
0000
,
0001
0001
0100
0100
,
0010
0000
0010
0000
0001
0100
1000
0000
,
0010
0010
0100
0100
,
1000
0000
1000
0010
1000
0000
0100
0000
,
0001
0001
0010
0100
,
0001
0000
0100
0010
0100
0000
0010
0000
,
1001
0000
0001
0000
1000
0010
0100
0000
,
0001
1000
0100
0000
0010
0000
0001
0000
,
1000
0010
0100
0000
0001
1000
0100
0000
,
0010
0001
1000
0000
0100
0000
0010
0000
,
0100
1000
0010
0000
0100
0001
0010
0000
,
0001
0010
0100
0000
0001
0000
0100
0000
,
1000
0100
0010
0000
0001
0100
0010
0000
,
1000
0001
0010
0000
0100
1000
0001
0000
,
1000
0001
1000
0000
0010
1000
0010
0000
,
0100
0001
0100
0000
0010
0000
1000
0000
,
0100
1000
0100
0000
0010
0001
0010
0000
,
0100
1000
0001
0000
0100
0000
0010
0000
,
0100
0010
1000
0000
0010
1000
0001
0000
,
0010
0001
1000
0000
0100
0000
0010
0000
,
0100
1000
0001
0000
0100
0001
1000
0000
,
0010
0100
0001
0000
1000
0000
0001
0000
,
0011
0010
0200
0310
,
0100
1000
0002
1003
,
0010
0100
0002
0013
,
0001
1000
0020
0130
,
0001
1000
0002
0103
,
1000
0001
2000
3100
,
0001
1000
0020
0130
,
1000
0100
0002
0103
,
1001
0000
0000
0000
;

//---------------dance-single - [Ness]----------------
#NOTES:
     dance-single:
     [Ness]:
     Easy:
     3:
     0.208,0.231,0.073,0.201,0.000,129.000,8.000,22.000,0.000,0.000,0.000,0.208,0.231,0.073,0.201,0.000,129.000,8.000,22.000,0.000,0.000,0.000:
0000
0000
0000
0000
,
0000
0000
0000
0000
,
0000
0000
0000
0000
,
0000
0000
0000
0000
,
0010
0000
0100
0000
,
0010
1000
0100
0000
,
0010
0000
0100
0000
,
0010
0001
1000
0001
,
0010
0000
0100
0000
,
0010
0001
0100
0000
,
0010
0000
0100
0000
,
0010
1000
0001
1000
,
0100
0000
0000
0000
,
0000
0000
0000
0000
,
0010
0000
0010
0000
,
0010
0000
0010
0000
,
0010
0000
0100
0000
,
0010
0000
0100
0000
,
1000
0000
0001
0000
,
1000
0000
0001
0000
,
0010
0010
0010
0000
,
0100
0000
1000
0000
,
1002
0000
0000
0203
,
0000
0320
0000
0000
,
0000
2030
0000
3200
,
0000
0320
0000
0000
,
0000
0032
0000
2003
,
0000
3020
0000
0000
,
0000
0230
0000
0320
,
0000
0230
0000
0000
,
0301
0000
0011
0000
,
1000
0000
1010
0000
,
0001
0000
0101
0000
,
1000
0000
1100
0000
,
0010
0000
0110
0000
,
1000
0000
1001
0000
,
0010
0001
2000
0000
,
3010
0000
0100
0000
,
0010
1000
0002
0000
,
1003
0010
0001
0010
,
2000
0000
0000
0000
,
3001
0100
0010
0100
,
0002
0000
0000
0000
,
1003
0001
1000
0010
,
2000
0000
0000
0000
,
3001
1000
0001
0100
,
0002
0000
0000
0000
,
0013
0100
1000
0100
,
0020
0000
0000
0000
,
0130
1000
0001
1000
,
0002
0000
0000
0000
,
0103
0010
1000
0010
,
0200
0000
0000
0000
,
0301
0010
0100
0010
,
0002
0000
0000
0000
,
1003
0000
0010
0000
,
0001
0000
0010
0000
,
1000
0000
0100
0000
,
0001
0000
0100
0000
,
1000
0000
0010
0000
,
0001
0000
0100
0000
,
1000
0000
0100
0000
,
0001
0000
0010
0000
,
1001
0000
0000
0000
;

//---------------dance-single - [Ness]----------------
#NOTES:
     dance-single:
     [Ness]:
     Beginner:
     1:
     0.078,0.087,0.055,0.027,0.000,51.000,6.000,3.000,0.000,0.000,0.000,0.078,0.087,0.055,0.027,0.000,51.000,6.000,3.000,0.000,0.000,0.000:
0000
0000
0000
0000
,
0000
0000
0000
0000
,
0000
0000
0000
0000
,
0000
0000
0000
0000
,
0010
0000
0000
0000
,
1000
0000
0000
0000
,
0001
0000
0000
0000
,
0010
0000
0000
0000
,
0100
0000
0000
0000
,
0010
0000
0000
0000
,
1000
0000
0000
0000
,
0001
0000
0000
0000
,
1001
0000
0000
0000
,
0000
0000
0000
0000
,
0000
0020
0000
0000
,
0030
0000
0000
0000
,
0000
0020
0000
0000
,
0030
0000
0000
0000
,
0000
0000
0000
0000
,
0000
0000
0000
0000
,
0020
0000
0000
0030
,
0000
0000
0000
0000
,
1001
0000
0000
0000
,
0000
0010
0000
0000
,
0000
1000
0000
0000
,
0000
0001
0000
0000
,
0000
1000
0000
0000
,
0000
0001
0000
0000
,
0000
0000
1000
0000
,
1000
0000
1000
0000
,
1000
0000
0000
0000
,
0010
0000
0000
0000
,
0100
0000
0000
0000
,
0001
0000
0000
0000
,
0010
0000
0000
0000
,
0100
0000
0000
0000
,
1000
0000
0000
0000
,
0001
0000
0000
0000
,
0001
0000
0000
0000
,
1001
0000
0000
0000
,
0100
0000
0000
0000
,
0010
0000
0000
0000
,
1000
0000
0000
0000
,
0001
0000
0000
0000
,
0010
0000
0000
0000
,
0100
0000
0000
0000
,
0010
0000
0000
0000
,
1001
0000
0000
0000
,
0010
0000
0000
0000
,
1000
0000
0000
0000
,
0001
0000
0000
0000
,
0100
0000
0000
0000
,
0010
0000
0000
0000
,
1000
0000
0000
0000
,
0100
0000
0000
0000
,
1001
0000
0000
0000
,
0000
0000
0000
0000
,
0010
0000
0000
0000
,
0000
0000
0000
0000
,
0100
0000
0000
0000
,
0000
0000
0000
0000
,
1000
0000
0000
0000
,
0000
0000
0000
0000
,
1001
0000
0000
0000
;

//---------------dance-double - [Ness]----------------
#NOTES:
     dance-double:
     [Ness]:
     Hard:
     9:
     0.620,0.577,0.174,0.156,0.453,438.000,19.000,17.000,0.000,0.000,0.000,0.620,0.577,0.174,0.156,0.453,438.000,19.000,17.000,0.000,0.000,0.000:
00000000
00000000
00000000
00000000
,
00000000
00000000
00000000
00000000
,
00000000
00000000
00000000
00000000
,
00000000
00000000
00000000
00000000
,
00011000
00000000
00000000
01000000
00000000
00000000
00010000
00000000
00000000
00000010
00000000
00000000
00000100
00000000
00010000
00000000
,
00011000
00000000
00000000
00000100
00000000
00000000
00001000
00000000
00000000
00100000
00000000
00000000
01000000
00000000
00001000
00000000
,
00011000
00000000
00000000
00100000
00000000
00000000
00010000
00000000
00000000
00000100
00000000
00000000
00010000
00000000
00001000
00000000
,
00011000
00000000
00000000
00000010
00000000
00000000
00001000
00000000
00000000
01000000
00000000
00000000
00001000
00000000
00010000
00000000
,
00011000
00000000
00000000
00000100
00000000
00000000
00000001
00000000
00000000
00000010
00000000
00000000
00001000
00000000
00010000
00000000
,
00011000
00000000
00000000
01000000
00000000
00000000
10000000
00000000
00000000
00100000
00000000
00000000
00010000
00000000
00001000
00000000
,
00011000
00000000
00000000
00000010
00000000
00000000
00000001
00000000
00000000
00000100
00000000
00000000
00001000
00000000
00010000
00000000
,
00011000
00000000
00000000
00100000
00000000
00000000
10000000
00000000
00000000
01000000
00000000
00000000
00010000
00000000
00001000
00000000
,
00022000
00000000
00000000
00033000
,
00001000
00000000
00001000
00000000
00010000
01000000
00000000
01000000
00001000
00000000
00001000
00000000
00010000
01000000
00000000
01000000
,
00001000
00010000
01000000
00001000
00010000
01000000
00001000
00010000
,
01000000
00001000
00010000
01000000
00001000
00010000
01000000
00001000
,
00010000
01000000
00001000
00010000
01000000
00001000
00010000
01000000
,
10000000
01000000
00010000
00100000
10000000
00100000
00010000
00001000
,
00000100
00000001
00000100
00001000
00000010
00000001
00000010
00001000
,
00010000
01000000
10000000
01000000
00010000
00100000
10000000
00100000
,
00010000
00001000
00000100
00000001
00000100
00001000
00000010
00000001
,
00000010
00001000
00010000
01000000
10000000
01000000
00010000
00001000
,
00000010
00000000
00001000
00000000
00000001
00001000
00000000
00000001
00000000
00000000
00000010
00000000
00000010
00000000
00000000
00000010
,
00000000
00000000
00000100
00000000
00010000
00000000
00000000
00001000
00000000
00000000
00010000
00000000
00001000
00000000
00000000
01000000
,
00000000
00000000
10000000
00000000
01000000
00000000
00000000
00100000
00000000
00000000
10000000
00000000
00100000
00000000
00000000
10000000
,
00000000
00000000
01000000
00000000
00010000
00000000
00000000
01000000
00000000
00000000
00010000
00000000
01000000
00000000
00000000
00100000
,
00000000
00000000
01000000
00000000
00100000
00000000
00000000
00001000
00000000
00000000
00100000
00000000
00001000
00000000
00000000
00000010
,
00000000
00000000
00001000
00000000
00000010
00000000
00000000
00000001
00000000
00000000
00000010
00000000
00000001
00000000
00000000
00000100
,
00000000
00000000
00000001
00000000
00000100
00000000
00000000
00001000
00000000
00000000
00000100
00000000
00001000
00000000
00000000
00010000
,
00000000
00000000
00001000
00000000
00010000
00000000
00000000
00100000
00000000
00000000
00010000
00000000
00100000
00000000
00000000
10000000
,
00010000
00000000
00000000
00010000
00100000
00000000
01000000
00000000
10000000
00000000
00000000
10000000
00100000
00000000
00100000
01000000
,
00010000
00000000
00000000
00010000
00100000
00000000
00000000
00100000
00001000
00000000
00000000
00001000
00010000
00000000
00000000
00010000
,
00000100
00000000
00000000
00000100
00000010
00000000
00000001
00000000
00000100
00000000
00000010
00000000
00001000
00000000
00000001
00001000
,
00000100
00000000
00000000
00000100
00000010
00000000
00000000
00000010
00000001
00000000
00000000
00000001
00000100
00000000
00000010
00000100
,
00001000
00000000
00000000
00001000
00010000
00000000
00000000
00010000
00100000
00000000
00000000
00100000
01000000
00000000
01000000
00010000
,
10000000
00000000
00000000
10000000
01000000
00000000
00000000
01000000
00100000
00000000
00000000
00100000
00001000
00000000
00010000
00001000
,
00010000
00000000
00000000
00010000
00000100
00000000
00000010
00000000
00000001
00000000
00000000
00000001
00000100
00000000
00000010
00000100
,
00000001
00000000
00000000
00000001
00000010
00000000
00000000
00000010
00000100
00000000
00000000
00000100
00010000
00000000
00001000
00010000
,
00000100
00000000
00000000
00000100
00001000
00000000
00000010
00000000
00000100
00000000
00000001
00000100
00000001
00000000
00001000
00000100
,
00001000
00000000
00000010
00000000
00000100
00000001
00000000
00000100
00000001
00000000
00001000
00000000
00000100
00010000
00000000
00000100
,
00010000
00000000
00001000
00000000
01000000
00100000
00000000
01000000
00100000
00000000
10000000
00000000
00010000
10000000
00000000
00010000
,
10000000
00000000
01000000
00000000
00100000
00001000
00000000
00100000
00001000
00000000
00010000
00000000
00000010
00001000
00000000
00000010
,
00001000
00000000
00000100
00000000
00000001
00000100
00000000
00000001
00000100
00000000
00010000
00000000
00001000
00100000
00000000
00001000
,
00100000
00000000
10000000
00000000
00100000
00010000
00000000
00100000
00010000
00000000
01000000
00000000
10000000
01000000
00000000
10000000
,
01000000
00000000
00100000
00000000
10000000
00010000
00000000
10000000
01000000
00000000
00100000
00000000
00001000
00010000
00000000
00000010
,
00000100
00000000
00000001
00000000
00000010
00000001
00000000
00001000
00000100
00000000
00000010
00000000
00000100
00010000
00000000
00001000
,
01000000
00000000
00100000
00000000
10000000
00010000
00000000
00100000
01000000
00000000
10000000
00000000
00010000
10000000
00000000
00000000
,
10010000
10000000
00010000
00100000
01000000
10000000
00010000
00100000
,
00100000
00001000
00010000
00000010
00100000
00001000
00010000
00000010
,
00000010
00000100
00000001
00001000
00000010
00000100
00000001
00001000
,
00001000
00000100
00010000
00100000
00001000
00000100
00010000
00100000
,
01000000
00010000
10000000
01000000
01000000
00010000
10000000
01000000
,
00010000
00001000
00000100
00000001
00010000
00001000
00000100
00000001
,
00000100
00000010
00000001
00001000
00000100
00000010
00000001
00001000
,
00000010
00010000
00001000
00000100
00000010
00010000
00001000
00000100
,
00000020
00000000
00001030
00000100
00000010
00000000
00000210
00000000
,
00020300
00000000
00031000
01000000
00100000
00000000
02100000
00000000
,
03020000
00000000
10030000
00010000
00100000
00000000
00210000
00000000
,
02300000
00000000
03010000
01000000
10000000
00000000
10020000
00000000
,
00230000
00000000
00301000
00010000
00000010
00000000
00000210
00000000
,
00000302
00000000
00001003
00000001
00000010
00000000
00000021
00000000
,
00000230
00000000
00010300
00000010
00000100
00000000
00000210
00000000
,
00020300
00000000
00031000
00010000
00100000
00000000
01100000
00000000
,
10010000
00000000
00000000
00000000
;

//---------------dance-double - [Ness]----------------
#NOTES:
     dance-double:
     [Ness]:
     Medium:
     7:
     0.425,0.375,0.256,0.018,0.027,295.000,28.000,2.000,0.000,0.000,0.000,0.425,0.375,0.256,0.018,0.027,295.000,28.000,2.000,0.000,0.000,0.000:
00000000
00000000
00000000
00000000
,
00000000
00000000
00000000
00000000
,
00000000
00000000
00000000
00000000
,
00000000
00000000
00000000
00000000
,
00000010
00000100
00000000
00001100
00000000
00000100
00000000
00010000
,
00001000
01000000
00000000
01010000
00000000
01000000
00000000
00100000
,
10000000
00010000
00000000
10010000
00000000
10000000
00000000
01000000
,
00100000
00000000
00000000
00100000
00000000
00000000
00100000
00000000
00000000
00100000
00000000
00000000
00010000
00000000
10000000
00000000
,
00010000
01000000
00000000
01010000
00000000
01000000
00000000
00001000
,
00010000
00000100
00000000
00000110
00000000
00000010
00000000
00000001
,
00001000
00000100
00000000
00000110
00000000
00000100
00000000
00010000
,
00001000
00000000
00000000
00001000
00000000
00000000
00001000
00000000
00000000
00001000
00000000
00000000
00010000
00000000
00001000
00000000
,
00022000
00000000
00000000
00033000
,
00100000
00000000
00000000
00000000
00001000
00010000
00000000
00000000
00000010
00000000
00000000
00000000
00010000
00001000
00000000
00000000
,
00100000
00001000
00010000
00000000
00000010
00010000
00001000
00000000
,
00100000
00001000
00010000
00000000
00000010
00010000
00001000
00000000
,
00100000
00001000
00010000
00000000
00000010
00010000
00001000
00000000
,
00100000
00001000
00010000
00000000
00000010
00010000
00001000
00000000
,
01000000
00001000
00010000
00000000
00000100
00010000
00001000
00000000
,
01000000
00001000
00010000
00000000
00000100
00010000
00001000
00000000
,
01000000
00001000
00100000
00000000
00010000
00100000
01000000
00000000
,
10000000
00100000
00010000
00000000
00001000
00000100
00000001
00000000
,
00001001
00000001
00000001
00000010
,
00000010
00000100
00000100
00000100
,
00000100
00010000
00001000
00000000
00001000
00000000
01000000
00000000
,
01000000
00100000
00100000
00100000
,
00100000
10000000
00010000
00000000
00010000
00000000
00100000
00000000
,
00100000
01000000
01000000
01000000
,
01000000
00100000
00001000
00000000
00001000
00000000
00010000
00000000
,
00010000
00000010
00000010
00000010
,
00000110
00000000
00000100
00000001
00001000
00000000
00000001
00000000
,
00000010
00000100
00010000
00001000
,
00011000
00000000
01000000
00010000
00100000
00010000
01000000
00000000
,
00100000
10000000
01000000
00100000
,
00011000
00000100
00000010
00000001
,
00001000
00000010
00000100
00000001
,
00001001
00000000
00000001
00001000
00000100
00000000
00000010
00000000
,
00000110
00000100
00010000
00001000
,
00011000
00000000
00010000
00001000
01000000
00000000
00100000
00000000
,
10010000
00000000
00010000
00000000
10000000
01000000
00100000
00000000
,
00001000
00010000
00000010
00000000
00000100
00000000
00000001
00000000
,
00001000
00000001
00000010
00000000
00000100
00010000
00001000
00000000
,
01000000
00010000
10000000
00000000
01000000
00000000
00100000
00000000
,
01000000
00100000
00001000
00000000
00010000
00000010
00000100
00000000
,
00000001
00001000
00000100
00000000
00000010
00000000
00000100
00000000
,
00010000
00001000
01000000
00000000
00100000
10000000
00010000
00000000
,
10000000
01000000
00100000
00000000
00001000
00010000
00000100
00000000
,
00001100
00000100
00000010
00000000
00000001
00000100
00000010
00000000
,
00001000
00000001
00000100
00000000
00000010
00000000
00000110
00000000
,
00000001
00001000
00000100
00000000
00010000
00001000
00100000
00000000
,
00010000
01000000
00100000
00000000
01000000
00000000
10010000
00000000
,
00010000
10000000
01000000
00000000
00100000
00001000
00010000
00000000
,
00000010
00010000
00001000
00000000
00100000
00000000
00011000
00000000
,
00100000
00001000
01000000
00000000
00010000
01000000
00100000
00000000
,
10000000
00010000
10000000
00000000
01000000
00100000
01000000
00000000
,
00100000
00011000
00000010
00000100
,
00000010
00011000
00100000
01000000
,
00100000
00011000
00001000
01000000
,
00001000
00011000
00010000
00000100
,
00010000
00011000
00000100
00000010
,
00000100
00011000
01000000
00100000
,
01000000
00011000
00000010
00010000
,
00001000
00011000
00100000
00001000
,
00011000
00000000
00000000
00000000
;

//---------------dance-double - [Ness]----------------
#NOTES:
     dance-double:
     [Ness]:
     Easy:
     3:
     0.208,0.231,0.073,0.201,0.000,129.000,8.000,22.000,0.000,0.000,0.000,0.208,0.231,0.073,0.201,0.000,129.000,8.000,22.000,0.000,0.000,0.000: // measure 0
00000000
00000000
00000000
00000000
,  // measure 1
00000000
00000000
00000000
00000000
,  // measure 2
00000000
00000000
00000000
00000000
,  // measure 3
00000000
00000000
00000000
00000000
,  // measure 4
10000000
00000000
00010000
00000000
,  // measure 5
01000000
00100000
01000000
00000000
,  // measure 6
00010000
00000000
00100000
00000000
,  // measure 7
00001000
00010000
00001000
00010000
,  // measure 8
00000100
00000000
00000010
00000000
,  // measure 9
00000001
00001000
00000001
00000000
,  // measure 10
00000100
00000000
00000010
00000000
,  // measure 11
00010000
00001000
00010000
00001000
,  // measure 12
00010000
00000000
00000000
00000000
,  // measure 13
00000000
00000000
00000000
00000000
,  // measure 14
00100000
00000000
00100000
00000000
,  // measure 15
00100000
00000000
00100000
00000000
,  // measure 16
00100000
00000000
00100000
00000000
,  // measure 17
00100000
00000000
00100000
00000000
,  // measure 18
01000000
00000000
01000000
00000000
,  // measure 19
01000000
00000000
01000000
00000000
,  // measure 20
01000000
10000000
00010000
00000000
,  // measure 21
00010000
00000000
00010000
00000000
,  // measure 22
10020000
00000000
00000000
00230000
,  // measure 23
00000000
00302000
00000000
00000000
,  // measure 24
00000000
00023000
00000000
00030020
,  // measure 25
00000000
00002030
00000000
00000000
,  // measure 26
00000000
00003200
00000000
00000320
,  // measure 27
00000000
00000032
00000000
00000000
,  // measure 28
00000000
00002003
00000000
00003002
,  // measure 29
00000000
00000203
00000000
00000000
,  // measure 30
00000310
00000000
00000110
00000000
,  // measure 31
00001000
00000000
00001001
00000000
,  // measure 32
00000100
00000000
00010100
00000000
,  // measure 33
00010000
00000000
01001000
00000000
,  // measure 34
00100000
00000000
01100000
00000000
,  // measure 35
10000000
00000000
10010000
00000000
,  // measure 36
01000000
00100000
00020000
00000000
,  // measure 37
10030000
00000000
00100000
00000000
,  // measure 38
01000000
00010000
20000000
00000000
,  // measure 39
30100000
10000000
01000000
00100000
,  // measure 40
00020000
00000000
00000000
00000000
,  // measure 41
00130000
00001000
00010000
00000010
,  // measure 42
00002000
00000000
00000000
00000000
,  // measure 43
00003100
00000010
00000001
00001000
,  // measure 44
00000002
00000000
00000000
00000000
,  // measure 45
00000103
00000010
00001000
00000100
,  // measure 46
00020000
00000000
00000000
00000000
,  // measure 47
00031000
01000000
10000000
01000000
,  // measure 48
00020000
00000000
00000000
00000000
,  // measure 49
10030000
00100000
00010000
00100000
,  // measure 50
20000000
00000000
00000000
00000000
,  // measure 51
30010000
00100000
00001000
00010000
,  // measure 52
00000020
00000000
00000000
00000000
,  // measure 53
00001030
00000010
00000001
00000010
,  // measure 54
00002000
00000000
00000000
00000000
,  // measure 55
00003001
00000000
00000010
00000000
,  // measure 56
00000100
00000000
00001000
00000000
,  // measure 57
00010000
00000000
00100000
00000000
,  // measure 58
01000000
00000000
10000000
00000000
,  // measure 59
10000000
00000000
00100000
00000000
,  // measure 60
01000000
00000000
00010000
00000000
,  // measure 61
00001000
00000000
00000010
00000000
,  // measure 62
00000100
00000000
00000001
00000000
,  // measure 63
00001001
00000000
00000000
00000000
;
