#TITLE:Cyber Dance;
#SUBTITLE:;
#ARTIST:Tenpei Sato;
#TITLETRANSLIT:;
#SUBTITLETRANSLIT:;
#ARTISTTRANSLIT:;
#GENRE:Disgaea 2;
#CREDIT:;
#BANNER:Cyber Dance-bn.jpg;
#BACKGROUND:Cyber Dance-bg.jpg;
#LYRICSPATH:;
#CDTITLE:m.png;
#MUSIC:Cyber Dance.mp3;
#OFFSET:-0.025;
#SAMPLESTART:69.052;
#SAMPLELENGTH:13.151;
#SELECTABLE:YES;
#DISPLAYBPM:73.000:146.000;
#BPMS:0.000=73.000
,18.000=146.000
,22.000=73.000
,24.000=146.000
,28.000=73.000
,30.000=146.000
,34.000=73.000
,40.000=146.000
,44.000=73.000
,46.000=146.000
,50.000=73.000
,52.000=146.000
,56.000=73.000
,60.000=146.000
,68.000=73.000
,70.000=146.000
,74.000=73.000
,76.000=146.000
,80.000=73.000
,82.000=146.000
,86.000=73.000
,88.000=146.000
,92.000=73.000
,94.000=146.000
,98.000=73.000
,100.000=146.000
,104.000=73.000
,106.000=146.000
,110.000=73.000
,116.000=146.000
,120.000=73.000
,122.000=146.000
,126.000=73.000
,128.000=146.000
,132.000=73.000
,134.000=146.000
,138.000=73.000
,142.000=146.000
,206.000=156.438
,209.750=73.000
,216.000=146.000
,220.000=73.000
,222.000=146.000
,226.000=73.000
;
#STOPS:
;
#BGCHANGES:;
#KEYSOUNDS:;
#ATTACKS:;

//---------------dance-single - ----------------
#NOTES:
     dance-single:
     [Ness]:
     Hard:
     9:
     0.492,0.460,0.340,0.195,0.340,359.000,42.000,24.000,0.000,0.000,0.000,0.492,0.460,0.340,0.195,0.340,359.000,42.000,24.000,0.000,0.000,0.000:
0000
0000
0000
0000
,
0000
0000
0000
0000
,
2000
3100
0002
0103
,
2000
3100
0001
1001
,
2010
0010
3001
1000
,
0100
0000
0000
0000
0010
0000
0000
0000
1001
0000
0000
0000
0000
0000
0000
0000
0101
0000
0000
0101
0000
0000
0101
0000
0000
0000
0000
0000
0100
0000
0001
0000
,
1000
0000
0000
0010
0000
0000
1000
0000
0001
0000
0100
0000
0010
0000
1000
0000
,
0001
0000
0010
0001
0000
0010
0100
0000
1000
0000
0100
0000
0000
0000
1000
0000
,
0001
0000
0000
0000
0000
0000
0000
0000
1000
0000
0000
0000
0010
0000
0000
0000
1000
0000
0000
1010
0000
0000
1010
0000
0000
0000
0000
0000
1000
0000
0001
0000
,
0000
0000
0001
1000
0000
0000
0000
0000
0012
0000
0000
0000
0010
0000
0000
0000
,
1003
0000
0001
0000
0100
0010
1001
0000
,
1100
0000
0000
1100
0000
0000
1100
0000
0000
0000
0000
0000
0100
0000
1000
0000
0001
0000
0000
0000
0000
0000
1000
0000
0000
0000
0000
0000
0010
0000
0000
0000
,
0100
0000
0001
0000
1000
0000
0000
0000
0101
0000
0100
0001
0000
0100
0010
0000
,
1000
0010
0000
1000
0001
0000
1000
0100
,
0020
0032
0203
0301
,
1000
0000
0000
0010
1000
0000
0001
0000
1000
0001
1000
0000
0100
0000
1000
0100
,
1000
0100
1000
0000
0001
0000
0010
0000
0200
0000
0000
0000
0000
0000
0000
0000
,
1300
0010
0000
1000
0001
0000
0000
0100
0010
0000
0100
0000
0001
0000
0000
0000
,
1000
0000
0001
0000
0100
0000
0000
0000
0001
0000
0001
0010
0000
0010
0100
0000
,
1001
0000
0000
1100
0100
1000
0001
0000
,
0100
0001
0000
1000
0001
0000
0000
1000
0010
0000
0100
0000
0001
0000
0000
0000
,
1000
0000
0001
0000
0100
0000
0000
0000
0010
0000
0000
1000
0000
0000
0001
0000
,
0100
0010
0100
0001
1000
0001
1000
0000
,
0100
1000
0000
0001
1000
0000
0000
0100
0010
0000
0100
0000
1000
0000
0000
0000
,
0001
0000
1000
0000
0100
0000
0000
0000
0010
0000
0010
0001
0000
0001
1000
0000
,
1001
0000
0000
0101
0100
0001
1000
0000
,
0010
0000
0000
1000
0000
0000
0001
0000
0000
0000
0100
0000
0000
0000
0000
0000
,
0010
0000
0000
0000
1000
0000
0001
0000
1000
0000
0100
0010
0100
0000
0000
0000
,
1000
0000
1000
0000
0000
0001
1000
0000
0010
0000
0000
0000
0100
0000
0000
0000
1001
0000
0000
1000
0000
0000
0010
0000
0000
1000
0000
0000
0001
0000
1000
0000
,
0100
0000
0000
0100
0000
0000
0010
0000
0001
0000
1000
0000
0100
0000
0010
0000
,
1001
0000
0000
0001
0000
0000
1000
0000
0000
0010
0000
0000
1000
0000
0010
0000
0100
0000
0000
0000
0000
0000
0001
0000
0000
0000
0000
0000
2000
0000
0000
0000
,
0000
0000
3001
0000
0010
0000
0100
0000
2000
0000
0000
3001
0000
0000
0000
0000
,
0100
0000
0000
0010
0000
0000
0100
0000
0001
0000
1000
0001
1000
0001
1000
0001
,
1000
0000
1000
0000
0010
0000
0100
0000
0001
0000
0010
0001
0000
0010
0001
0000
,
1000
0000
0000
0000
0010
0000
0000
0000
0010
0000
0000
0000
0100
0000
0000
0000
0001
0000
0000
1000
0100
0000
0010
0000
0000
0000
0000
0000
1001
0000
0000
0100
,
0010
1000
0000
0000
0201
0000
0010
0000
0301
0000
0000
0100
0000
0000
0010
0000
,
1000
0000
0001
0000
1000
0000
1100
0000
0000
0000
1000
0001
0000
0000
0100
0000
,
0010
0000
1000
0000
0001
0000
0000
0000
0100
0000
0010
1000
0000
0010
1000
0000
,
0001
0100
0000
0001
0100
0000
0010
0100
0000
0000
0001
0000
0010
0000
0100
0000
,
1000
0000
0001
0000
1000
0000
1010
0000
0010
0000
0000
0100
0000
0000
0001
0000
,
1000
0001
0010
0011
0000
0010
0001
0100
,
0010
0000
1000
0000
0001
0000
1000
0000
0100
0000
0010
0001
0000
0010
0001
0000
,
1000
0100
0000
1000
0100
0000
0010
0100
0000
0000
1000
0000
0001
0000
0100
0000
,
0010
1000
0001
1000
2002
0000
3003
0202
,
0000
0000
0303
0000
1100
0000
0101
0000
0000
0000
0100
0000
0010
0100
0000
0100
,
0001
0000
0000
0000
1000
0000
1100
0000
0100
0000
1000
0100
0000
1000
0100
0000
,
1000
0000
0001
0000
0100
0000
0101
0000
0000
0000
0100
0001
0000
0100
0001
0000
,
1000
0010
1000
0000
2002
0000
3003
0022
,
0000
0000
0033
0000
1010
0000
0011
0000
0000
0000
0100
0000
0010
0100
0000
0100
,
0001
0000
1000
0001
1001
1000
0001
1001
,
1000
0001
1001
1000
0001
1001
1000
0001
,
0000
0101
0000
1200
0020
0000
0000
0000
,
0000
0000
0000
0000
0330
0000
0000
1000
0000
0000
0010
0000
0100
0000
0100
0000
,
0001
1000
0000
0001
1000
0000
0000
0000
0220
0000
0000
0000
0000
0000
0000
0000
,
0330
0000
0000
0000
;

//---------------dance-single - ----------------
#NOTES:
     dance-single:
     [Ness]:
     Medium:
     6:
     0.306,0.328,0.186,0.170,0.028,220.000,23.000,21.000,0.000,0.000,0.000,0.306,0.328,0.186,0.170,0.028,220.000,23.000,21.000,0.000,0.000,0.000:
0000
0000
0000
0000
,
0000
0000
0000
0000
,
2000
3001
0002
1003
,
0010
0010
0010
0110
,
1000
0001
0100
0000
0010
0000
0100
0000
,
0001
1000
0001
0000
0010
0000
0010
0000
,
0100
0000
0010
0000
0100
1000
0001
0000
,
0010
0010
0010
0010
,
0010
0000
0100
0000
1000
0000
0001
0100
,
0000
1001
0000
0000
1010
0000
0100
0000
,
1000
0000
0100
0000
0010
0001
1000
0000
,
0010
0100
0001
1000
,
0001
0010
0100
0000
0010
0000
0010
0000
,
0010
0010
0010
0010
,
0001
0100
1000
1001
,
1000
0010
1000
0100
,
0010
0001
0200
0000
,
0310
0000
0000
0000
1000
0000
0000
0001
0100
0000
0000
0000
0101
0000
0000
0000
,
1000
0101
0010
1000
,
0100
0000
0010
0000
0100
1000
0001
0000
,
0010
0000
0000
0000
0100
0000
0000
1000
0100
0000
0000
0000
1100
0000
0000
0000
,
0001
1100
0100
0010
,
0001
0100
0001
0000
1000
0000
0010
0000
,
1000
0000
0000
0000
1100
0000
0000
0100
0010
0000
0000
0000
0011
0000
0000
0000
,
1000
0011
0010
0001
,
0100
0000
0010
0000
1000
0001
0100
0000
,
0010
0000
0000
1000
0000
0000
0100
0000
0000
0000
1000
0000
0000
0000
0000
0000
,
0001
0000
0100
0010
1000
0010
1000
0000
,
0001
0110
0100
0100
,
0001
0001
1000
0010
,
1000
0100
0010
0010
,
0100
1000
0002
0103
,
0010
0000
0100
0000
0001
1000
0001
1000
,
0010
0010
0010
0000
0010
0000
0100
0000
,
0001
0000
0000
0000
1000
0000
0000
0000
1001
0000
0000
1000
0000
0000
1001
0000
,
0000
0001
0000
0000
0100
0000
0000
0000
0010
0000
0000
0000
1000
0000
0000
0000
,
0001
0100
0001
0000
0010
0000
0001
0000
,
1000
0100
0000
0000
0010
0000
0010
0000
,
0100
0100
1000
1000
,
0001
0001
1000
0010
,
1000
0100
1000
0000
0001
0000
0010
0000
,
0001
0100
0010
0010
,
0100
0100
0001
0001
,
1000
0000
1000
0000
0220
0000
0330
0220
,
0000
0330
1000
0001
0000
0000
0010
0000
,
0100
1000
0001
0010
,
0001
0100
0001
0000
1000
0000
0010
0000
,
1000
0001
0000
0000
0220
0000
0330
0220
,
0000
0330
0001
1000
0000
0010
0100
0000
,
0001
0000
1000
0000
2002
0000
3003
2002
,
0000
3003
0220
0000
0330
0220
0000
0330
,
0000
0001
0000
1000
0000
0000
0000
0000
,
0010
0000
0000
0000
0000
0000
0000
1000
0000
0000
0000
0000
0100
0000
0000
0000
,
0001
1001
0020
0000
,
0030
0000
0000
0000
;

//---------------dance-single - ----------------
#NOTES:
     dance-single:
     [Ness]:
     Easy:
     5:
     0.224,0.263,0.081,0.268,0.000,150.000,10.000,33.000,0.000,0.000,0.000,0.224,0.263,0.081,0.268,0.000,150.000,10.000,33.000,0.000,0.000,0.000: // measure 0
0000
0000
0000
0000
,  // measure 1
0000
0000
0000
0000
,  // measure 2
0010
1000
0010
0001
,  // measure 3
0010
1000
0010
1001
,  // measure 4
2000
0000
3001
0100
,  // measure 5
0010
1000
0002
0000
,  // measure 6
0013
0100
1000
0001
,  // measure 7
0020
0000
0130
0100
,  // measure 8
1000
0000
1000
0000
0002
0000
0000
0100
,  // measure 9
0000
0103
0000
0000
0020
0000
0000
0000
,  // measure 10
1030
0100
0010
0001
,  // measure 11
2000
0000
3001
0010
,  // measure 12
0100
1000
0002
0000
,  // measure 13
0103
0000
0010
0000
,  // measure 14
2000
0000
0000
3000
,  // measure 15
0100
0000
0010
0000
,  // measure 16
0100
0000
1001
0000
,  // measure 17
0010
0100
0002
0000
,  // measure 18
0000
0000
0013
0100
,  // measure 19
2000
0000
3001
0001
,  // measure 20
0100
0010
2000
0000
,  // measure 21
0000
0000
3001
0010
,  // measure 22
0200
0000
1300
0000
,  // measure 23
0001
0010
0002
0000
,  // measure 24
0000
0000
1003
0010
,  // measure 25
0200
0000
0301
0000
,  // measure 26
2000
3100
0002
0000
,  // measure 27
0103
0000
2000
3010
,  // measure 28
0002
0013
0001
0100
,  // measure 29
0001
0100
0001
0100
,  // measure 30
0010
1000
0010
1000
,  // measure 31
0010
1000
0002
1003
,  // measure 32
0001
0010
0100
1000
,  // measure 33
0002
1003
0010
0000
,  // measure 34
0100
0000
0000
0000
0000
0000
0000
0000
2002
0000
0000
3003
0000
0000
2002
0000
,  // measure 35
0000
3003
0000
0000
0010
0000
0000
0000
1000
0000
0000
0000
1000
0000
0000
0000
,  // measure 36
0100
0010
0001
0001
,  // measure 37
0010
0100
2000
0000
,  // measure 38
3020
0000
0230
0000
,  // measure 39
0302
0000
0013
0001
,  // measure 40
1000
0100
0010
0100
,  // measure 41
1000
0001
0020
0000
,  // measure 42
0230
0000
2300
0000
,  // measure 43
3002
0000
0000
0000
0103
0000
0000
0100
,  // measure 44
0000
1001
0000
0010
,  // measure 45
0010
0000
1000
0100
,  // measure 46
0010
0000
0001
0100
,  // measure 47
0010
0000
0000
0000
0100
0000
0000
0100
,  // measure 48
0000
1001
0000
0010
,  // measure 49
1000
0000
0100
0000
0010
0000
0000
0100
,  // measure 50
0000
0000
0010
0000
0000
0100
0000
0000
,  // measure 51
0000
1001
0000
1001
0000
0000
0000
0000
,  // measure 52
0000
0000
0000
0010
,  // measure 53
1001
0110
0020
0000
,  // measure 54
0030
0000
0000
0000
;

//---------------dance-single - ----------------
#NOTES:
     dance-single:
     Blank:
     Beginner:
     2:
     0.089,0.130,0.041,0.057,0.000,65.000,5.000,7.000,0.000,0.000,0.000,0.089,0.130,0.041,0.057,0.000,65.000,5.000,7.000,0.000,0.000,0.000: // measure 0
0000
0000
0000
0000
,  // measure 1
0000
0000
0000
0000
,  // measure 2
0010
0000
0010
0000
,  // measure 3
0010
0000
0010
0000
,  // measure 4
0200
0000
0300
0000
,  // measure 5
0000
0000
0002
0000
,  // measure 6
0003
0000
0000
0000
,  // measure 7
2000
0000
0000
0000
,  // measure 8
0000
0000
0000
3000
,  // measure 9
0000
0000
0020
0000
,  // measure 10
0030
0000
0000
0000
,  // measure 11
0200
0000
0300
0000
,  // measure 12
0000
0000
0002
0000
,  // measure 13
0000
0000
0000
0000
,  // measure 14
0000
0000
0000
0003
,  // measure 15
0010
0000
0000
0000
,  // measure 16
0000
0000
0010
0000
,  // measure 17
0100
0000
0001
0000
,  // measure 18
0000
0000
1000
0000
,  // measure 19
0100
0000
0000
0000
,  // measure 20
0010
0000
0001
0000
,  // measure 21
0000
0000
1000
0000
,  // measure 22
0010
0000
0000
0000
,  // measure 23
0100
0000
0001
0000
,  // measure 24
0000
0000
1000
0000
,  // measure 25
0100
0000
0000
0000
,  // measure 26
0010
0000
0001
0000
,  // measure 27
0000
0000
1000
0000
,  // measure 28
0010
0000
0100
0000
,  // measure 29
0001
0000
0000
0000
,  // measure 30
1000
0000
0100
0000
,  // measure 31
0000
0000
0010
0000
,  // measure 32
0001
0000
0000
0000
,  // measure 33
1000
0000
0010
0000
,  // measure 34
0000
0000
0200
0000
,  // measure 35
0000
0300
0001
0000
,  // measure 36
0000
0000
0010
0000
,  // measure 37
0000
0000
1000
0000
,  // measure 38
0100
0000
0010
0000
,  // measure 39
0001
0000
1000
0000
,  // measure 40
0000
0000
0010
0000
,  // measure 41
0000
0000
0001
0000
,  // measure 42
0100
0000
0010
0000
,  // measure 43
1000
0000
0001
0000
,  // measure 44
1001
0000
0010
0000
,  // measure 45
1001
0000
1000
0000
,  // measure 46
0000
0000
0001
0000
,  // measure 47
0000
0000
1000
0000
,  // measure 48
1001
0000
0010
0000
,  // measure 49
1001
0000
0100
0000
,  // measure 50
0000
0010
0000
0000
,  // measure 51
0000
0000
1001
0000
,  // measure 52
0000
0000
0000
0100
,  // measure 53
0100
0000
0010
0000
;
