#TITLE:Crystalline (Current Value Remix);
#SUBTITLE:;
#ARTIST:Bjork;
#TITLETRANSLIT:;
#SUBTITLETRANSLIT:;
#ARTISTTRANSLIT:;
#GENRE:Biophilia;
#CREDIT:;
#BANNER:Crystalline (Current Value Remix)-bn.jpg;
#BACKGROUND:Crystalline (Current Value Remix)-bg.jpg;
#LYRICSPATH:;
#CDTITLE:;
#MUSIC:Crystalline (Current Value Remix).mp3;
#OFFSET:-0.023000;
#SAMPLESTART:21.352341;
#SAMPLELENGTH:21.333332;
#LASTBEATHINT:444.153320;
#SELECTABLE:YES;
#DISPLAYBPM:90.000000:360.000000;
#BPMS:0.000000=90.000000
,80.000000=22.500000
,88.000000=360.000000
;
#STOPS:
;
#BGCHANGES:;
#KEYSOUNDS:;
#ATTACKS:;

//---------------dance-single - ----------------
#NOTES:
     dance-single:
     :
     Challenge:
     13:
     0.792782,1.409051,0.066153,0.080853,0.286661,755.000000,746.000000,9.000000,11.000000,0.000000,0.000000,0.792782,1.409051,0.066153,0.080853,0.286661,755.000000,746.000000,9.000000,11.000000,0.000000,0.000000:
// measure 0
0000
0000
0000
0000
,  // measure 1
0000
0000
0000
0000
,  // measure 2
1000
1000
0100
0001
0001
0001
0100
1000
,  // measure 3
1000
1000
0010
0001
0001
0001
0010
1000
,  // measure 4
1000
1000
1000
0010
0100
0001
0001
0010
,  // measure 5
0100
1000
1000
0010
0100
0001
0001
0010
,  // measure 6
1000
1000
0100
0002
0000
0000
2003
0000
,  // measure 7
3100
0001
0020
0000
0000
0031
0100
1000
,  // measure 8
1001
0001
0010
0100
0001
0100
0010
0000
0101
0000
0001
0100
1000
0100
0010
0000
,  // measure 9
1000
0100
0010
0100
1000
0010
0001
0000
1010
0000
0001
0010
0100
1000
0100
0000
,  // measure 10
1000
0001
0100
0001
0010
0001
0100
0000
0101
0000
0100
0001
0010
0100
1000
0000
,  // measure 11
0100
1000
0010
1000
0100
0010
0100
0000
0011
0000
0100
0010
0001
0010
1000
0000
,  // measure 12
0001
0100
0010
1000
0001
1000
0100
0000
1100
0000
0001
0010
0100
1000
0010
0000
,  // measure 13
1000
0010
0001
0010
1000
0100
0010
0000
0011
0000
1000
0100
0010
0100
1000
0000
,  // measure 14
0001
0100
1000
0100
0001
0010
0100
0000
0101
0000
1000
0010
0001
0010
0100
0000
,  // measure 15
1000
0010
0001
0010
1000
0010
0100
0000
0101
0000
0001
0010
0100
1000
0100
0000
,  // measure 16
1000
0010
1000
0100
0010
0001
0100
0001
0010
0001
1000
0010
1000
0001
0100
0001
,  // measure 17
0010
0100
1000
0010
1000
0001
0100
0010
0100
0001
0010
0100
0010
0001
0100
0000
,  // measure 18
0001
0100
1000
0100
0010
1000
0100
0010
0001
0010
0100
0001
0100
0010
0001
1000
,  // measure 19
0010
0000
0100
0000
1000
0000
0100
0000
0001
0000
0100
0000
0010
0000
0001
0000
0010
0000
0100
0000
0001
0000
1000
0000
0010
1000
0010
1000
0100
0000
1000
0001
,  // measure 20
2000
0000
3020
0000
,  // measure 21
0230
0000
0302
0000
,  // measure 22
0013
0001
0010
0001
0010
0001
0010
0001
,  // measure 23
1000
0001
1000
0001
1000
0001
1000
0001
,  // measure 24
0100
0001
0100
0001
0100
0001
0100
0001
,  // measure 25
1000
0010
1000
0010
1000
0010
1000
0010
,  // measure 26
0100
0010
0100
0010
0100
0010
0100
0010
,  // measure 27
1000
0010
1000
0010
1000
0010
1000
0010
,  // measure 28
1000
0001
1000
0001
1000
0001
1000
0001
,  // measure 29
0100
0001
0100
0001
0100
0001
0100
0001
,  // measure 30
0010
0001
0010
0001
1000
0100
1000
0100
,  // measure 31
0010
0100
0010
0100
1000
0001
1000
0001
,  // measure 32
0100
0001
0100
0001
1000
0010
1000
0010
,  // measure 33
0100
0010
0100
0010
1000
0100
1000
0100
,  // measure 34
0010
0001
0010
0001
1000
0001
1000
0001
,  // measure 35
0100
0001
0100
0001
1000
0010
1000
0010
,  // measure 36
1000
0100
1000
0100
0010
0001
0010
0001
,  // measure 37
0100
0010
0100
0010
1000
0001
1000
0001
,  // measure 38
0100
0001
0010
0001
0100
0010
1000
0001
,  // measure 39
1000
0100
0010
0001
0010
0100
0010
0001
,  // measure 40
1000
0100
1000
0010
1000
0100
0010
0001
,  // measure 41
0100
0001
0010
0001
0100
0001
0010
0001
,  // measure 42
1000
0010
0100
0010
1000
0010
0100
0001
,  // measure 43
1000
0001
0010
0001
1000
0001
0100
0001
,  // measure 44
1000
0010
0100
0010
1000
0010
0100
0001
,  // measure 45
0100
0010
0100
0001
1000
0001
0100
0001
,  // measure 46
1000
0100
0010
0100
1000
0001
0100
0010
,  // measure 47
0100
0001
0010
0100
1000
0010
0100
0001
,  // measure 48
0100
0010
1000
0001
0010
0100
0010
0001
,  // measure 49
1000
0100
0010
0001
1000
0001
0100
0010
,  // measure 50
0100
0001
0010
0100
1000
0010
1000
0001
,  // measure 51
0100
0010
1000
0001
0010
0001
1000
0010
,  // measure 52
1000
0001
0100
0010
1000
0100
0010
0001
,  // measure 53
0100
0010
1000
0100
0010
0001
0010
1000
,  // measure 54
0010
0001
0000
1000
0010
0000
0100
1000
,  // measure 55
0000
0100
0001
0000
1000
0010
1000
0100
,  // measure 56
0010
0001
0000
1000
0001
0000
0100
1000
,  // measure 57
0000
0100
0001
0000
0010
0100
1000
0010
,  // measure 58
0001
0010
0000
1000
0100
0000
0001
0100
,  // measure 59
0000
0010
1000
0000
0100
0001
0010
0001
,  // measure 60
0100
1000
0000
0100
0001
0000
0010
1000
,  // measure 61
0000
0100
0001
0000
0010
1000
0010
0100
,  // measure 62
1000
0100
0000
0001
0010
0000
1000
0100
,  // measure 63
0000
0001
0010
0000
0100
0001
0010
1000
,  // measure 64
0100
0010
0000
1000
0100
0000
0001
0010
,  // measure 65
0000
1000
0001
0000
0100
1000
0010
0100
,  // measure 66
0001
0100
0000
0001
0010
0000
0100
0001
,  // measure 67
0000
0010
0100
0000
0001
1000
0100
1000
,  // measure 68
0001
0000
0010
0100
0000
0100
1000
0010
,  // measure 69
0100
0001
0010
0100
1000
0001
0100
0010
,  // measure 70
0100
1000
0000
0100
0001
0000
1000
0100
,  // measure 71
0000
0001
0100
0000
0010
0100
0001
0010
,  // measure 72
1000
0001
0000
1000
0100
0000
0001
0100
,  // measure 73
0000
0010
0001
0000
1000
0010
0100
1000
,  // measure 74
0100
0001
0000
0010
0100
0000
0001
0100
,  // measure 75
0000
0010
0001
0000
1000
0100
0010
0001
,  // measure 76
0100
0000
0001
0000
0000
0000
0001
1000
0001
0000
0000
0000
0010
0000
0001
0000
,  // measure 77
0000
0010
0100
0000
0001
0100
0010
1000
,  // measure 78
0001
1000
0000
0100
0001
0000
0100
1000
,  // measure 79
0000
0010
0001
0000
0010
0100
0001
0100
,  // measure 80
0010
1000
0000
0100
0010
0000
0001
1000
,  // measure 81
0000
0010
0100
0000
0001
0100
1000
0100
,  // measure 82
0001
0010
0000
0100
1000
0000
0010
0001
,  // measure 83
0000
0010
1000
0000
0100
0010
0001
1000
,  // measure 84
0100
0010
0000
0001
0100
0000
0010
0000
,  // measure 85
1000
0001
0100
0001
0010
0000
0100
0000
,  // measure 86
1000
0010
0000
0100
0010
0000
0001
1000
,  // measure 87
0000
0001
0010
0000
0100
1000
0010
0100
,  // measure 88
0001
0010
0000
0100
1000
0000
0010
0100
,  // measure 89
0000
0001
0010
0000
0100
1000
0010
0100
,  // measure 90
0001
1000
0000
0100
0010
0000
0001
1000
,  // measure 91
0000
0010
0100
0000
0001
0100
0001
0010
,  // measure 92
0100
1000
0000
0010
0100
0000
0001
1000
,  // measure 93
0000
0010
0100
0000
0001
0010
0001
1000
,  // measure 94
0100
0000
0000
0001
,  // measure 95
0010
0001
0010
0000
0100
0000
0000
0000
1000
0000
0000
0000
0001
0000
0000
0000
,  // measure 96
0100
0000
0000
0010
,  // measure 97
1000
0100
1000
0000
0100
0000
0000
0000
0010
0000
0000
0000
0001
0000
0000
0000
,  // measure 98
1000
0000
0000
0010
,  // measure 99
0100
0001
0100
0000
0010
0000
0000
0000
1000
0000
0000
0000
0001
0000
0000
0000
,  // measure 100
0100
0000
0000
0010
,  // measure 101
1000
0002
2000
0003
,  // measure 102
0020
0000
0000
0000
,  // measure 103
0000
3000
0200
0000
,  // measure 104
0000
0000
0000
0000
,  // measure 105
0000
0000
0000
0000
,  // measure 106
0000
0000
0330
0000
;

//---------------dance-single - ----------------
#NOTES:
     dance-single:
     :
     Hard:
     10:
     0.609024,1.174209,0.316063,0.051452,0.180082,580.000000,537.000000,43.000000,7.000000,0.000000,0.000000,0.609024,1.174209,0.316063,0.051452,0.180082,580.000000,537.000000,43.000000,7.000000,0.000000,0.000000:
0000
0000
0000
0000
,
0000
0000
0000
0000
,
1000
0000
0010
0010
0001
0000
0100
0100
,
1000
0000
0100
0100
0001
0000
1000
1000
,
0010
0000
0001
0001
0000
1000
0100
0100
,
0000
0001
0010
0010
0000
0100
1000
1000
,
0000
0100
0001
0001
0010
0000
0100
0000
,
1000
0100
1000
0020
0000
0100
0100
0130
,
1001
0000
0001
0100
0001
0100
0001
0000
1000
0000
0010
1000
0100
0000
0100
0000
,
0010
0000
0001
1000
0001
1000
0001
0000
0100
0000
1000
0100
0010
0000
0001
0000
,
1000
0000
0010
1000
0010
1000
0010
0000
0100
0000
1000
0100
1000
0000
0100
0000
,
0001
0000
0010
0001
0010
0001
0010
0000
0100
0000
0001
0100
0001
0000
1000
0000
,
0010
0000
1000
0100
1000
0100
1000
0000
0010
0000
0001
0010
0001
0000
0100
0000
,
0010
0000
0100
0001
0100
0001
0100
0000
1000
0000
0010
0001
0010
0000
1000
0000
,
0001
0100
0010
0100
0001
0100
0001
0000
1000
0000
0010
1000
0010
0000
0100
0000
,
0001
0010
0100
0010
0001
0100
0010
0000
1000
0000
0100
1000
0001
0000
0100
0000
,
0010
0100
0001
1000
0010
1000
0010
0000
1000
0000
0100
0010
0100
1000
0100
0000
,
0010
0001
0010
0100
1000
0100
0010
0000
0001
0000
1000
0010
0100
0001
0100
0000
,
0001
1000
0010
0100
0001
0010
0100
0000
1000
0000
0010
1000
0100
0010
0001
0000
,
1000
0000
0010
0000
0100
0000
0001
0000
0010
0000
0100
0000
1000
0000
0000
0000
0001
0000
0000
0000
0010
0000
0100
0000
1000
0000
0001
1000
0001
0000
1000
0001
,
2000
0000
3200
0000
,
0310
0000
0000
0000
,
0001
0100
0000
0100
0010
0000
0010
1000
,
0000
1000
0100
0000
0100
0010
0001
0000
,
0001
1000
0000
1000
0010
0000
0010
0100
,
0000
0100
0001
0000
0001
0010
0001
0000
,
0010
0100
0000
0100
1000
0000
1000
0010
,
0000
0010
0100
0000
0100
0001
0100
0000
,
0010
1000
0000
1000
0100
0000
0100
0010
,
0000
0010
0001
0000
0001
1000
0010
0000
,
1000
0010
0000
1000
0001
0000
1000
0100
,
0000
1000
0001
0000
1000
0001
0010
0000
,
0001
0010
0000
0001
1000
0000
0001
0100
,
0000
0001
1000
0000
0001
0010
0100
0000
,
1000
0010
0000
0100
0010
0000
0100
0001
,
0000
1000
0001
0000
0010
0001
1000
0000
,
0100
1000
0000
0010
1000
0000
0010
0100
,
0000
0001
0100
0000
0001
0010
0100
0000
,
1000
0100
0000
0010
0001
0000
0100
0010
,
0000
1000
0001
0000
0001
0100
0010
0000
,
0010
1000
0000
0100
0010
0000
0001
1000
,
0000
0010
0100
0000
0100
0001
0010
0000
,
0010
0100
0000
1000
0100
0000
0100
0001
,
0000
1000
0100
0000
0010
0001
1000
0000
,
0010
1000
0000
1000
0001
0000
0100
0001
,
0000
1000
0100
0000
0100
0010
0001
0000
,
0001
1000
0000
1000
0010
0000
0010
0100
,
0000
0100
0001
0000
0001
1000
0100
0000
,
1000
0001
0000
0001
0100
0000
0100
0010
,
0000
0010
1000
0000
1000
0010
0100
0000
,
0001
0100
0000
0100
1000
0000
0100
0001
,
0000
1000
0100
0000
0100
0010
0001
0000
,
0001
0000
0010
0100
0000
0100
1000
0000
,
1000
0000
1000
0010
0100
0000
0100
0001
,
1000
0000
0000
1001
0000
0000
1100
0000
,
0000
0011
0000
0000
0001
1000
0100
0000
,
0001
0000
0000
0101
0000
0000
1001
0000
,
0000
0011
0000
0000
1000
0010
0100
0000
,
0010
0000
0000
1100
0000
0000
0101
0000
,
0000
0011
0000
0000
0001
1000
0010
0000
,
1000
0000
0000
1010
0000
0000
1001
0000
,
0000
0101
0000
0000
0100
0001
1000
0000
,
0100
0000
0000
1100
0000
0000
0101
0000
,
0000
0110
0000
0000
0001
0010
0100
0000
,
1000
0000
0000
1010
0000
0000
0110
0000
,
0000
0101
0000
0000
0001
0010
0100
0000
,
0001
0000
0000
0110
0000
0000
1100
0000
,
0000
0110
0000
0000
1000
0100
0010
0000
,
0001
0000
1000
0010
0000
0010
0100
0001
,
1000
0010
1000
0010
0100
0001
0100
0001
,
0100
0000
0000
0101
0000
0000
0011
0000
,
0000
1100
0000
0000
1000
0001
0100
0000
,
0010
0000
0000
1010
0000
0000
1001
0000
,
0000
1010
0000
0000
1000
0100
0010
0000
,
0001
0000
0000
0101
0000
0000
0011
0000
,
0000
0101
0000
0000
0001
1000
0100
0000
,
1000
0000
0000
1000
0010
0100
0001
0010
,
0100
1000
0001
0100
,
0001
0000
0000
0110
0000
0000
0011
0000
,
0000
0110
0000
0000
0001
0100
0001
0000
,
1000
0000
0000
0110
0000
0000
1100
0000
,
0000
0110
0000
0000
1000
0100
1000
0000
,
0010
0000
0000
1010
0000
0000
0011
0000
,
0000
1010
0000
0000
0100
0001
0010
0000
,
0100
0000
0000
0101
0000
0000
1100
0000
,
0000
0101
0000
0000
0010
1000
0100
0000
,
1000
0000
0000
0010
0000
0000
0001
0000
,
0000
0010
0000
0000
1000
0001
0100
0000
,
0010
0000
0000
0100
0000
0000
0001
0000
,
0000
1000
0000
0000
0010
1000
0100
0000
,
0010
0000
0000
0001
0000
0000
1000
0000
,
0000
0010
0000
0000
0100
0001
1000
0000
,
0100
0000
0000
0010
0000
0000
0001
0000
,
0000
1000
0000
0000
0010
1000
0100
0000
,
0010
0000
0000
0001
,
1000
0001
0100
0000
0010
0000
0100
0000
,
0001
0000
0000
0010
,
0100
1000
0010
0000
0100
0000
0001
0000
,
1000
0000
0000
0100
,
0010
0001
1000
0000
0010
0000
1000
0000
,
0100
0000
0010
0000
,
0002
0000
2000
0003
,
0020
0000
0000
0000
,
0000
3000
0200
0000
,
0000
0000
0000
0000
,
0000
0000
0000
0000
,
0000
0000
0330
0000
;

//---------------dance-single - ----------------
#NOTES:
     dance-single:
     :
     Medium:
     7:
     0.354914,0.626245,0.000000,0.161706,0.000000,338.000000,338.000000,0.000000,22.000000,0.000000,0.000000,0.354914,0.626245,0.000000,0.161706,0.000000,338.000000,338.000000,0.000000,22.000000,0.000000,0.000000:
0000
0000
0000
0000
,
0000
0000
0000
0000
,
1000
0000
1000
1000
1000
0000
0001
0001
,
0001
0000
0001
0001
0001
0000
1000
1000
,
1000
0000
0010
0010
0000
0100
0100
0100
,
0000
0010
0010
0010
0000
1000
1000
1000
,
0000
0100
0100
0100
0000
0000
0010
0000
,
0100
0010
0100
0000
0000
1000
0100
0020
,
0000
2030
0000
3020
0000
0032
0000
0023
,
0000
1030
0100
0020
0000
0031
1000
0002
,
0000
0203
0000
0320
0000
0230
0000
2300
,
0000
3100
0001
0020
0000
0130
1000
0002
,
0000
1003
0001
0200
0000
1300
0001
0200
,
0000
0301
0010
2000
0000
3010
0001
0020
,
0000
1030
0001
0200
0000
2300
0000
3200
,
0000
0301
0010
0100
0000
1000
0010
1000
,
0100
0001
0010
0010
1000
0010
0001
0000
,
0010
0010
1000
0010
0001
1000
0100
0000
,
0001
0001
0100
1000
0010
0100
0100
0000
,
0001
0010
1000
0010
0100
0100
1000
0001
,
0100
0000
0000
0000
,
0010
0000
0000
0000
,
1000
0000
0010
0000
,
1000
0100
0010
0000
,
0001
0000
1000
0000
,
0001
0010
0100
0000
,
1000
0000
0010
0000
,
1000
0010
0100
0000
,
0001
0000
1000
0000
,
0001
0100
0010
0000
,
1000
0000
0001
0000
,
0010
0001
1000
0000
,
0010
0000
1000
0000
,
0010
1000
0100
0000
,
0010
0000
0100
0000
,
0010
0001
1000
0000
,
0001
0000
0100
0000
,
0001
0100
0010
0000
,
1000
0000
0010
0000
,
1000
0100
0010
0000
,
0001
0000
1000
0000
,
0010
1000
0001
0000
,
0010
0000
0001
0000
,
0100
0001
1000
0000
,
0100
0000
1000
0000
,
0010
1000
0100
0000
,
1000
0000
0010
0000
,
1000
0100
0001
0000
,
0010
0000
0100
0000
,
0001
0100
1000
0000
,
0100
0000
0001
0000
,
0010
1000
0001
0000
,
0100
0000
1000
0000
,
0010
0001
1000
0000
,
0100
0001
0100
0000
,
0010
1000
0010
0000
,
0100
1000
0100
0000
,
0010
1000
0010
0000
,
0001
1000
0001
0000
,
0010
0001
0010
0000
,
0100
1000
0100
0000
,
0010
1000
0010
0000
,
0001
1000
0010
0000
,
0100
0001
0010
0000
,
0100
1000
0001
0000
,
0010
1000
0100
0000
,
0010
0001
1000
0000
,
0100
0001
0010
0000
,
1000
0010
0001
0000
,
0010
1000
0100
0000
,
0001
0010
0100
0000
,
1000
0010
0001
0000
,
0010
1000
0100
0000
,
0100
0001
0010
0000
,
0010
1000
0001
0000
,
0010
0001
1000
0000
,
0100
0001
0010
0000
,
0100
1000
0010
0000
,
0010
1000
0100
0000
,
0100
0001
0010
0000
,
0010
0001
1000
0000
,
1000
0010
0001
0000
,
0010
1000
0100
0000
,
0100
0001
0010
0000
,
0010
0001
1000
0000
,
1000
0010
0001
0000
,
0010
1000
0100
0000
,
0010
0001
1000
0000
,
0010
0001
0100
0000
,
1000
0100
0001
0000
,
1000
0010
0100
0000
,
1000
0100
0001
0000
,
1000
0010
1000
0000
,
0100
1000
0010
0000
,
1000
0100
0010
0001
,
1000
0001
0100
0000
,
0001
0100
0010
1000
,
0001
1000
0001
0000
,
0010
0001
1000
0010
,
1000
0001
0010
0000
,
0001
1000
0010
0100
,
0001
0100
0001
0000
,
0020
0000
0000
0000
,
0000
0000
0200
0000
,
0000
0000
0000
0000
,
0000
0000
0000
0000
,
0000
0000
0330
0000
;

//---------------dance-single - ----------------
#NOTES:
     dance-single:
     :
     Easy:
     5:
     0.266711,0.494491,0.000000,0.007350,0.000000,254.000000,254.000000,0.000000,1.000000,0.000000,0.000000,0.266711,0.494491,0.000000,0.007350,0.000000,254.000000,254.000000,0.000000,1.000000,0.000000,0.000000:
0000
0000
0000
0000
,
0000
0000
0000
0000
,
1000
0000
0010
0010
0010
0000
0100
0100
,
0100
0000
0100
0100
0100
0000
0010
0010
,
0010
0000
0100
0100
0000
0010
0010
0010
,
0000
1000
1000
1000
0000
0001
0001
0001
,
0000
0010
0010
0010
0000
0000
0100
0000
,
0100
0100
0100
0000
0000
1000
1000
1000
,
1000
0000
0010
0000
0001
0010
1000
0000
,
0010
0000
0100
0000
0001
0100
0001
0100
,
0010
0000
1000
0000
0100
1000
0001
0000
,
0010
0000
0001
0000
1000
0010
1000
0010
,
0100
0000
0001
0000
0010
0100
1000
0000
,
0010
0000
0100
0000
0001
0100
0001
0100
,
0010
0000
1000
0000
0100
1000
0001
0000
,
0010
0000
0001
0000
1000
0001
1000
0001
,
0100
0000
0010
0000
1000
0010
0100
0000
,
0001
0000
1000
0000
0100
1000
0100
1000
,
0010
0000
0100
0000
0001
0010
0100
0000
,
1000
0000
0001
0000
0010
0100
1000
0001
,
1000
0000
0000
0000
,
0100
0000
0000
0000
,
1000
0000
1000
0000
,
0001
0000
0001
0000
,
1000
0000
1000
0000
,
0001
0000
0001
0000
,
0010
0000
0010
0000
,
0100
0000
0100
0000
,
0010
0000
0010
0000
,
0001
0000
0000
0000
,
1000
0000
1000
0000
,
0010
0000
0010
0000
,
0100
0000
0100
0000
,
0010
0000
0010
0000
,
1000
0000
1000
0000
,
0100
0000
0100
0000
,
0010
0000
0010
0000
,
0001
0000
0000
0000
,
1000
0000
1000
0000
,
0001
0000
0001
0000
,
0100
0000
0100
0000
,
0010
0000
0010
0000
,
1000
0000
1000
0000
,
0010
0000
0010
0000
,
0100
0000
0100
0000
,
0001
0000
0000
0000
,
0010
0000
0010
0000
,
0100
0000
0100
0000
,
1000
0000
1000
0000
,
0100
0000
0100
0000
,
0010
0000
0010
0000
,
0001
0000
0001
0000
,
1000
0000
1000
0000
,
0010
0000
0000
0000
,
1000
0000
0100
0000
,
0010
0000
0010
0000
,
0001
0000
1000
0000
,
0010
0000
0010
0000
,
0100
0000
0001
0000
,
0010
0000
0010
0000
,
0100
0000
1000
0000
,
0001
0000
0000
0000
,
1000
0000
0010
0000
,
0100
0000
0100
0000
,
0001
0000
0010
0000
,
0100
0000
0100
0000
,
1000
0000
0100
0000
,
0010
0000
0010
0000
,
0001
0000
0010
0000
,
0100
0000
0000
0000
,
1000
0000
0010
0000
,
0100
0000
0001
0000
,
0010
0000
0100
0000
,
0010
0000
0001
0000
,
0010
0000
0100
0000
,
1000
0000
0100
0000
,
1000
0000
0010
0000
,
1000
0000
0000
0000
,
0010
0000
0100
0000
,
0001
0000
0010
0000
,
0100
0000
1000
0000
,
0010
0000
1000
0000
,
0100
0000
0010
0000
,
0100
0000
1000
0000
,
0001
0000
1000
0000
,
0010
0000
0000
0000
,
0100
0000
0001
0000
,
0010
0000
0100
0000
,
0010
0000
0001
0000
,
0100
0000
0001
0000
,
0010
0000
0100
0000
,
1000
0000
0010
0000
,
1000
0000
0100
0000
,
0010
0000
0000
0000
,
0001
0000
1000
0000
,
0010
0000
0100
0000
,
0001
0000
0010
0000
,
0100
0000
1000
0000
,
0010
0000
1000
0000
,
0010
0000
0001
0000
,
0010
0000
1000
0000
,
0010
0000
0001
0000
,
0020
0000
0000
0000
,
0000
0000
0030
0000
;

//---------------dance-single - ----------------
#NOTES:
     dance-single:
     :
     Beginner:
     3:
     0.150156,0.266264,0.000000,0.007350,0.000000,143.000000,143.000000,0.000000,1.000000,0.000000,0.000000,0.150156,0.266264,0.000000,0.007350,0.000000,143.000000,143.000000,0.000000,1.000000,0.000000,0.000000:
0000
0000
0000
0000
,
0000
0000
0000
0000
,
1000
1000
1000
0000
,
0010
0000
0100
0000
,
0001
0001
0001
0000
,
0010
0000
0100
0000
,
1000
0000
0010
0010
,
0010
0010
0000
0000
,
1000
1000
1000
1000
,
1000
0000
0010
0000
,
0001
0001
0001
0001
,
0001
0000
0010
0000
,
1000
1000
1000
1000
,
1000
0000
0100
0000
,
0001
0001
0001
0001
,
0001
0000
0100
0000
,
1000
1000
1000
0000
,
0010
0010
0010
0000
,
0100
0100
0100
0000
,
0001
0001
0001
0000
,
0010
0000
0000
0000
,
0100
0000
0000
0000
,
1000
0000
0000
0000
,
1000
0000
0000
0000
,
0010
0000
0000
0000
,
0010
0000
0000
0000
,
0001
0000
0000
0000
,
0001
0000
0000
0000
,
0010
0000
0000
0000
,
0010
0000
0010
0000
,
0010
0000
0000
0000
,
0100
0000
0000
0000
,
1000
0000
0000
0000
,
0100
0000
0000
0000
,
0010
0000
0000
0000
,
0001
0000
0000
0000
,
0100
0000
0000
0000
,
0100
0000
0100
0000
,
0100
0000
0000
0000
,
0010
0000
0000
0000
,
1000
0000
0000
0000
,
0001
0000
0000
0000
,
0010
0000
0000
0000
,
0100
0000
0000
0000
,
1000
0000
0000
0000
,
0001
0000
0001
0000
,
0001
0000
0000
0000
,
0010
0000
0000
0000
,
0001
0000
0000
0000
,
1000
0000
0000
0000
,
0010
0000
0000
0000
,
1000
0000
0000
0000
,
0100
0000
0000
0000
,
0010
0000
0010
0000
,
0010
0000
0000
0000
,
0100
0000
0000
0000
,
1000
0000
0000
0000
,
1000
0000
0000
0000
,
0010
0000
0000
0000
,
0100
0000
0000
0000
,
0001
0000
0000
0000
,
0010
0000
0010
0000
,
0010
0000
0000
0000
,
0100
0000
0000
0000
,
1000
0000
0000
0000
,
0010
0000
0000
0000
,
0100
0000
0000
0000
,
0001
0000
0000
0000
,
0010
0000
0000
0000
,
0100
0000
0100
0000
,
0100
0000
0000
0000
,
0000
0000
0000
0000
,
0000
0000
1000
0000
,
1000
0000
1000
0000
,
0000
0000
0000
0000
,
0000
0000
0000
0000
,
0000
0000
0010
0000
,
0010
0000
0010
0000
,
0000
0000
0000
0000
,
0000
0000
0000
0000
,
0000
0000
0100
0000
,
0100
0000
0100
0000
,
0000
0000
0000
0000
,
0000
0000
0000
0000
,
0000
0000
0001
0000
,
0001
0000
0001
0000
,
0000
0000
0000
0000
,
0000
0000
0000
0000
,
0000
0000
0010
0000
,
0010
0000
0010
0000
,
0000
0000
0000
0000
,
0000
0000
0000
0000
,
0000
0000
0100
0000
,
0100
0000
0100
0000
,
0001
0000
0001
0000
,
0100
0000
0100
0000
,
1000
0000
1000
0000
,
0100
0000
0100
0000
,
0001
0000
0001
0000
,
1000
0000
1000
0000
,
0001
0000
1000
0000
,
0001
0000
1000
0000
,
0200
0000
0000
0000
,
0000
0000
0300
0000
;
