#TITLE:Crystal C;
#SUBTITLE:;
#ARTIST:Ryan Henwood;
#TITLETRANSLIT:;
#SUBTITLETRANSLIT:;
#ARTISTTRANSLIT:;
#GENRE:Lovers in a Dangerous Spacetime;
#CREDIT:;
#BANNER:Crystal C-bn.jpg;
#BACKGROUND:Crystal C-bg.jpg;
#LYRICSPATH:;
#CDTITLE:;
#MUSIC:Crystal C.mp3;
#OFFSET:-0.040000;
#SAMPLESTART:40.013332;
#SAMPLELENGTH:21.818176;
#LASTBEATHINT:320.000000;
#SELECTABLE:YES;
#DISPLAYBPM:132.000000;
#BPMS:0.000000=132.000000
,32.000000=66.000000
,34.000000=132.000000
;
#STOPS:
;
#BGCHANGES:;
#KEYSOUNDS:;
#ATTACKS:;

//---------------dance-single - ----------------
#NOTES:
     dance-single:
     :
     Hard:
     9:
     0.534317,0.639457,0.180978,0.248008,0.278171,558.000000,531.000000,27.000000,37.000000,0.000000,0.000000,0.534317,0.639457,0.180978,0.248008,0.278171,558.000000,531.000000,27.000000,37.000000,0.000000,0.000000:
0000
0000
0000
0000
,
0000
0000
0000
0000
,
0000
0000
0000
0000
,
0000
0000
0000
0000
,
0001
0000
0001
0000
1000
0000
1000
0000
0010
0000
0010
0000
0100
0001
0100
0001
,
0100
0000
0100
0000
0010
0000
0010
0000
1000
0000
1000
0000
0100
1000
0100
1000
,
0100
0000
0010
0000
0001
0010
0001
0000
0100
0000
0010
0000
1000
0010
1000
0000
,
0001
0100
0001
0000
1000
0010
1000
0000
0001
0100
0001
0000
1000
0010
0100
0001
,
0000
0000
1000
0001
,
0100
0000
0010
0000
1000
0001
0100
0010
1000
0000
0000
0000
0001
0100
0000
0100
,
0010
0000
1000
0000
0001
0000
1000
0001
1000
0000
0000
0000
0010
0100
0000
0100
,
0001
0000
0010
0000
0100
0000
1000
0100
1000
0000
0000
0000
0001
0010
0000
0010
,
0100
0000
1000
0000
0001
0000
0010
0000
0100
1000
0100
0000
1000
0001
0000
0001
,
0100
0001
0100
0000
0001
1000
0000
1000
0100
0000
1000
0000
0001
0100
0000
0100
,
0010
0000
1000
0000
0001
0000
0010
0001
0010
0001
0000
0000
1000
0010
0000
1000
,
0010
0000
0100
0000
0001
0000
1000
0001
1000
0001
0000
0000
0100
0010
0000
0100
,
0010
0000
1000
0000
0100
0000
0010
0000
0001
0010
0001
0000
0001
0100
0000
0100
,
0010
1000
0010
0000
1000
0100
0000
1000
0100
0000
1000
0000
0010
0000
0001
0000
,
0010
1000
0200
0000
0300
1000
0010
0001
,
0010
1000
0200
0000
0300
1000
0010
0001
,
0010
0000
1000
0000
0200
0000
0000
0000
0310
0001
0010
0000
0001
1000
0000
1000
,
0010
1000
0010
0000
1000
0001
0000
0001
0010
0000
0001
0000
0100
0000
1000
0000
,
0100
0001
0020
0000
0030
0001
0100
1000
,
0100
0001
0020
0000
0030
0001
0100
1000
,
0100
0000
0001
0000
0020
0000
0000
0000
0130
1000
0100
0000
1000
0010
0000
0100
,
0001
0100
0001
0000
0010
0100
0000
1000
0001
0000
0100
0000
0001
0000
0010
0000
,
1000
0010
0001
0100
0010
1000
0100
0000
,
0010
0001
1001
0000
0100
0010
0110
0000
,
1000
0001
0110
0000
1010
1000
0010
0000
,
0001
0100
0101
0000
0001
0010
0100
1000
,
0010
1000
1100
0000
0100
1000
0001
0000
,
0010
0100
0110
0000
1000
0001
0101
0000
,
0001
1000
1010
0000
0011
0001
1000
0000
,
1000
0001
1100
0000
0000
0000
2001
0000
,
3200
0000
0320
0000
0031
0010
1000
0010
,
0001
0100
0010
0000
1000
0000
1002
0000
,
0203
0000
0000
0000
0320
0000
0000
0000
1030
0010
1000
0000
1000
0001
0000
0001
,
0010
0001
0010
0000
0001
1000
0000
1000
0010
0000
0000
0000
0210
0000
0000
0000
,
0302
0000
2003
0000
3100
1000
0010
1000
,
0100
0010
0001
0000
1000
0000
1010
1000
,
0001
0000
0011
0001
0100
0000
0101
0100
,
0010
1000
0100
0100
0010
0000
0001
0010
,
0001
0000
0100
0000
0100
0000
1000
0010
,
1000
0000
0100
0000
0100
0000
0001
0010
,
0001
0000
0100
0000
0100
0000
1000
0010
,
1000
0000
0100
0000
0100
0000
0001
0010
,
1000
0010
0001
0000
0100
0000
0001
0010
,
1000
0010
0001
0000
0100
0000
0001
0010
,
1000
0010
0001
0000
0100
0000
0001
0010
,
1000
0010
0001
0010
1000
0100
0001
0100
,
1000
0100
0001
0000
1000
0010
0001
0010
,
1000
0010
0001
0000
1000
0100
0001
0100
,
1000
0100
0001
0000
1000
0010
0001
0010
,
1000
0100
0010
0001
1000
0010
0100
0001
,
0010
0100
2000
0000
3000
0010
0100
0001
,
0010
0100
2000
0000
3000
0010
0100
0001
,
0010
0100
2000
0000
3000
0100
1000
0001
,
0100
0001
2000
0000
3000
0001
0100
0010
,
1000
0010
0200
0000
0300
1000
0100
0010
,
1000
0001
0200
0000
0300
0010
0001
0010
,
0100
0001
2000
0000
3000
0100
1000
0100
,
0110
0000
0000
0000
0100
0001
0100
0001
0100
0000
0000
0000
0001
1000
0000
1000
,
0100
0000
0010
0000
0001
0000
1000
0100
1000
0100
0000
0000
0010
0001
0000
1000
,
0010
0000
0100
0000
0001
0000
1000
0010
1000
0010
0000
0000
0100
0001
0000
1000
,
0010
0000
0100
0000
0001
0000
0010
0000
0100
1000
0001
0000
1000
0100
0000
0100
,
1000
0001
0100
0000
0100
0000
0001
0000
2000
0000
0000
0000
3010
0000
0001
0000
,
0010
1000
0100
0010
0100
1000
0001
0000
,
1000
0100
1100
0000
0001
0010
0011
0000
,
0100
1000
0110
0000
1001
0010
1000
0000
,
1000
0100
1001
0000
0000
0000
0201
0000
,
0302
0000
0023
0000
0130
1000
0010
1000
,
0100
0001
0100
0000
0010
0000
0210
0000
,
2300
0000
3020
0000
1030
0010
0001
0010
,
1000
0100
0001
0000
0100
0000
0210
0000
,
2300
0000
3002
0000
0103
1000
0100
0001
,
0010
0001
0200
0000
0310
0000
1020
0000
,
0230
0000
0000
0000
0302
0000
0000
0000
1003
0010
1000
0000
1000
0001
0000
0001
,
0010
0001
0010
0000
0100
1000
0000
0001
0200
0000
0000
0000
0000
0000
0000
0000
,
0000
0000
0000
0000
,
0000
0000
0300
0000
;

//---------------dance-single - ----------------
#NOTES:
     dance-single:
     :
     Medium:
     7:
     0.340891,0.373017,0.046920,0.368660,0.000000,356.000000,349.000000,7.000000,55.000000,0.000000,0.000000,0.340891,0.373017,0.046920,0.368660,0.000000,356.000000,349.000000,7.000000,55.000000,0.000000,0.000000:
0000
0000
0000
0000
,
0000
0000
0000
0000
,
0000
0000
0000
0000
,
0000
0000
0000
0000
,
0001
0000
0010
0000
0100
1000
0100
1000
,
0100
0000
0010
0000
0001
1000
0001
1000
,
0001
0000
0100
0000
0010
1000
0010
1000
,
0010
0000
0100
0000
0001
1000
0001
1000
,
0001
0000
0010
0010
,
0001
1000
0001
1000
0001
0000
1000
0000
,
0010
1000
0100
0000
0100
0000
0100
0000
,
0100
0001
0010
0000
0010
0000
1000
0000
,
1000
0100
0001
0000
0001
0100
1000
0000
,
1000
0100
0001
0000
0001
0000
0010
0000
,
1000
0010
0001
0000
0001
0000
0001
0000
,
0001
0010
1000
0000
1000
0000
1000
0000
,
1000
0100
0001
0000
0001
0010
1000
0000
,
1000
0100
0001
0000
0001
0100
1000
0000
,
1000
0100
0002
0000
0000
0000
1003
0000
,
1000
0100
0002
0000
0000
0000
1003
0000
,
1000
0100
0001
0000
0001
0010
1000
0000
,
1000
0010
0001
0000
0001
0000
0001
0000
,
0001
0100
2000
0000
0000
0000
3001
0000
,
0001
0100
2000
0000
0000
0000
3001
0000
,
0001
0100
1000
0000
1000
0010
0001
0000
,
0001
0100
1000
0000
1000
0010
0001
0000
,
0001
0010
0001
0000
0001
0100
0001
0000
,
0001
0100
1000
0000
1000
0100
1000
0000
,
1000
0010
1000
0000
2020
0000
3030
0000
,
2002
3003
1000
0100
,
0001
0100
1000
0000
1000
0010
0001
0000
,
0001
0100
1000
0000
1000
0000
0010
0000
,
0001
0100
1000
0000
2020
0000
3030
0000
,
0202
0000
0303
0020
,
2030
0000
3002
0000
1003
0100
0010
0002
,
0000
0000
0000
2003
,
3020
0000
0230
0000
0301
0100
0010
2000
,
0000
0000
0000
3002
,
0023
0000
0230
0000
1300
0100
0010
0002
,
0000
0000
0000
2003
,
3020
0000
0230
0000
0301
2000
0000
0200
,
0000
0000
0000
0000
3300
0000
0010
1000
,
0010
0000
0100
0000
0100
0000
0010
0001
,
0010
0000
0100
0000
0100
0000
0010
1000
,
0010
0000
0100
0000
0100
0000
0010
0001
,
0010
0000
0100
0000
0100
0000
0100
0001
,
1000
0000
1000
0000
1000
0000
0100
0001
,
1000
0000
1000
0000
1000
0000
0100
0001
,
1000
0000
1000
0000
1000
0000
0100
0001
,
1000
0000
1000
0000
0010
0000
0010
0001
,
0100
0000
1000
0000
0010
0000
0001
0100
,
1000
0000
0010
0000
0001
0000
0100
1000
,
0010
0000
0001
0000
0100
0000
1000
0010
,
0001
0100
1000
1000
,
1000
0100
0002
0000
0000
0000
1003
0000
,
1000
0100
0002
0000
0000
0000
1003
0000
,
1000
0100
0002
0000
0000
0000
0013
0000
,
0001
0100
2000
0000
0000
0000
3001
0000
,
0001
0100
2000
0000
0000
0000
3001
0000
,
0001
0100
2000
0000
0000
0000
3001
0000
,
0001
0100
2000
0000
0000
0000
3010
0000
,
1000
0100
0002
0000
0000
0000
1003
0010
,
1000
0000
0100
0000
0100
0000
0001
0100
,
1000
0000
1000
0000
1000
0000
1000
0010
,
0001
0000
0001
0000
1000
0100
0001
0000
,
0001
0100
1000
0000
1000
0010
0001
0000
,
0001
0010
0001
0000
0001
0100
0001
0000
,
0001
0100
1000
0000
1000
0100
1000
0000
,
1000
0010
1000
0000
2020
0000
3030
0000
,
0202
0000
0303
0000
0001
0010
0200
0000
,
2300
0000
3002
0000
0013
0001
1000
0200
,
0000
0000
0000
0000
1300
0010
0200
0000
,
0320
0000
2030
0000
3001
0100
0010
2000
,
0000
0000
0000
0000
3001
0010
0002
0000
,
2003
0000
3200
0000
0310
0001
1000
0200
,
0000
0000
0000
0000
1300
0010
1000
0000
,
1000
0100
0001
0000
0001
0010
0001
0000
,
0001
0100
1000
0000
2002
0000
0000
0000
,
0000
0000
0000
0000
,
0000
0000
3003
0000
;

//---------------dance-single - ----------------
#NOTES:
     dance-single:
     :
     Easy:
     5:
     0.291098,0.293085,0.167573,0.207790,0.000000,304.000000,279.000000,25.000000,31.000000,0.000000,0.000000,0.291098,0.293085,0.167573,0.207790,0.000000,304.000000,279.000000,25.000000,31.000000,0.000000,0.000000:
0000
0000
0000
0000
,
0000
0000
0000
0000
,
0000
0000
0000
0000
,
0000
0000
0000
0000
,
0010
0000
0010
0000
0010
0000
0001
0001
,
0001
0000
0001
0000
0001
0000
1000
1000
,
1000
0000
1000
0000
1000
0000
0010
0010
,
0010
0000
0010
0000
0010
0000
0100
0100
,
0100
0000
0001
0010
,
0100
1000
0010
2000
,
0100
0100
3100
0002
,
0010
0010
0013
2000
,
0010
0010
3010
1001
,
0010
1001
0002
0100
,
0100
0100
0103
2000
,
0010
0010
3010
0002
,
0010
0010
0013
1001
,
0010
1001
0001
0010
,
0100
1000
1000
0100
,
0010
0001
0001
0010
,
0100
1000
1000
0010
,
0001
0010
1000
0100
,
0010
0001
0001
0010
,
0100
1000
1000
0100
,
0010
0001
0001
0010
,
1000
0010
0001
0100
,
1000
0100
0001
0100
,
1000
1100
0001
0010
,
1000
0010
0022
0033
,
2200
3300
0001
0100
,
1000
0100
0001
0100
,
1000
1100
1000
0010
,
0001
0010
2020
3030
,
0202
0303
0000
1000
,
0010
0001
0100
0010
,
0100
1001
0010
0100
,
0010
1000
2200
3300
,
0202
0303
0010
0100
,
0001
0010
0100
1000
,
0010
1001
0010
1000
,
0100
0010
0220
0330
,
2002
0000
3003
0000
0000
0000
0001
0100
,
1000
0000
0100
0000
0100
0000
0001
0100
,
1000
0000
0100
0000
0100
0000
0001
0100
,
1000
0000
0100
0000
0100
0000
0001
0100
,
1000
0000
0100
0000
0100
0000
0001
0100
,
1000
0000
0100
0000
0100
0000
0001
0100
,
1000
0000
0100
0000
0100
0000
0001
0100
,
1000
0000
0100
0000
0100
0000
0001
0100
,
1000
0000
0000
0000
0000
0000
1000
0100
,
0001
0000
0100
0000
0100
0000
0001
0100
,
1000
0000
0100
0000
0100
0000
1000
0100
,
0001
0000
0100
0000
0100
0000
0001
0100
,
1000
0100
0001
0000
,
0000
0000
0000
0000
,
0000
0000
0000
0000
,
0000
0000
0000
0000
,
0000
0000
0000
0000
0000
1000
0010
0000
,
0100
0000
0100
0000
0000
0001
0010
0000
,
0100
0000
0100
0000
0000
1000
0010
0000
,
0100
0000
0100
0000
0000
0001
0010
0000
,
0100
0100
0000
2000
,
0010
0010
3010
0002
,
0100
0100
0103
2000
,
0001
3001
0010
1001
,
0010
1001
1000
0100
,
0001
0100
1000
0100
,
0001
0101
1000
0010
,
0001
0010
0220
0330
,
2002
3003
0000
0001
,
0010
1000
0100
0010
,
0100
1001
0100
0001
,
0010
1000
0010
0100
,
0010
1001
1000
0100
,
0010
0001
1000
0100
,
0001
1001
0010
0001
,
0100
1000
0001
0010
,
1000
0100
2002
0000
,
0000
0000
0000
0000
,
0000
0000
3003
0000
;

//---------------dance-single - ----------------
#NOTES:
     dance-single:
     :
     Beginner:
     2:
     0.237474,0.319729,0.502718,0.180978,0.000000,248.000000,173.000000,75.000000,27.000000,0.000000,0.000000,0.237474,0.319729,0.502718,0.180978,0.000000,248.000000,173.000000,75.000000,27.000000,0.000000,0.000000:
// measure 0
0000
0000
0000
0000
,  // measure 1
0000
0000
0000
0000
,  // measure 2
0000
0000
0000
0000
,  // measure 3
0000
0000
0000
0000
,  // measure 4
0010
0000
0100
0100
,  // measure 5
0100
0000
1000
1000
,  // measure 6
1000
0000
0001
0001
,  // measure 7
0001
0000
0010
0010
,  // measure 8
0010
0000
0100
0100
,  // measure 9
0100
0100
0100
0000
,  // measure 10
1000
1000
1000
0000
,  // measure 11
0001
0001
0001
0000
,  // measure 12
0010
0010
0020
0030
,  // measure 13
0200
0300
1000
1000
,  // measure 14
1000
0000
0001
0001
,  // measure 15
0001
0000
0100
0100
,  // measure 16
0100
0000
0020
0030
,  // measure 17
2000
3000
0100
0100
,  // measure 18
0100
0200
0300
0010
,  // measure 19
0010
0020
0030
0001
,  // measure 20
0001
0002
0003
1000
,  // measure 21
1000
2000
3000
0010
,  // measure 22
0010
0020
0030
0100
,  // measure 23
0100
0200
0300
0001
,  // measure 24
0001
0002
0003
1000
,  // measure 25
1000
1000
1000
0000
,  // measure 26
0010
0000
0100
0000
,  // measure 27
0110
0110
0110
0000
,  // measure 28
0001
0000
2002
3003
,  // measure 29
0220
0330
2002
3003
,  // measure 30
0010
0000
0100
0000
,  // measure 31
1001
1001
1001
0000
,  // measure 32
0100
0000
0220
0330
,  // measure 33
2002
3003
0000
1001
,  // measure 34
1001
1001
1001
0000
,  // measure 35
1001
0000
0000
0110
,  // measure 36
0110
0110
0110
0000
,  // measure 37
0110
0000
0000
1001
,  // measure 38
1001
1001
1001
0000
,  // measure 39
0110
0000
0000
0110
,  // measure 40
0110
0110
0110
0000
,  // measure 41
1001
0000
0000
0001
,  // measure 42
0001
0001
0000
1001
,  // measure 43
1001
1001
0000
1000
,  // measure 44
1000
1000
0000
1001
,  // measure 45
1001
1001
0000
0010
,  // measure 46
0010
0010
0000
0110
,  // measure 47
0110
0110
0000
0100
,  // measure 48
0100
0100
0000
0110
,  // measure 49
0110
0000
0000
1001
,  // measure 50
0000
0110
0000
1001
,  // measure 51
0000
0110
0000
1001
,  // measure 52
0000
0110
0000
1001
,  // measure 53
0000
0110
0110
0000
,  // measure 54
0000
0000
0000
0000
,  // measure 55
0000
0000
0000
0000
,  // measure 56
0000
0000
0000
0000
,  // measure 57
0000
0000
0000
0000
,  // measure 58
0000
0000
0000
0000
,  // measure 59
0000
0000
0000
0000
,  // measure 60
0000
0000
0000
0000
,  // measure 61
0000
0000
0000
0001
,  // measure 62
0001
0001
0000
1000
,  // measure 63
1000
1000
0000
0010
,  // measure 64
0010
0010
0000
0100
,  // measure 65
0100
0100
0000
0001
,  // measure 66
0000
0010
0000
0000
,  // measure 67
0110
0110
0110
0000
,  // measure 68
1000
0000
2002
3003
,  // measure 69
0220
0330
0000
1001
,  // measure 70
1001
1001
1001
0000
,  // measure 71
0110
0000
0000
1001
,  // measure 72
1001
1001
1001
0000
,  // measure 73
0110
0000
0000
0110
,  // measure 74
0110
0110
0110
0000
,  // measure 75
1001
0000
0000
0110
,  // measure 76
0000
1001
0000
0110
,  // measure 77
0000
0000
2002
0000
,  // measure 78
0000
0000
0000
0000
,  // measure 79
0000
0000
3003
0000
;
