#TITLE:Corneria (Vector U Remix);
#SUBTITLE:;
#ARTIST:Hajime Wakai;
#TITLETRANSLIT:;
#SUBTITLETRANSLIT:;
#ARTISTTRANSLIT:;
#GENRE:Star Fox;
#CREDIT:;
#BANNER:Corneria (Vector U Remix)-bn.jpg;
#BACKGROUND:Corneria (Vector U Remix)-bg.jpg;
#LYRICSPATH:;
#CDTITLE:;
#MUSIC:Corneria (Vector U Remix).mp3;
#OFFSET:-0.021006;
#SAMPLESTART:95.939606;
#SAMPLELENGTH:11.497002;
#LASTBEATHINT:313.000000;
#SELECTABLE:YES;
#BPMS:0.000000=167.000000
;
#STOPS:
;
#BGCHANGES:;
#KEYSOUNDS:;
#ATTACKS:;

//---------------dance-single - ----------------
#NOTES:
     dance-single:
     :
     Hard:
     7:
     0.514820,0.595131,0.736156,0.333838,0.000000,421.000000,335.000000,86.000000,39.000000,0.000000,0.000000,0.514820,0.595131,0.736156,0.333838,0.000000,421.000000,335.000000,86.000000,39.000000,0.000000,0.000000:
0000
0000
0000
0000
,
0000
0000
0000
0000
,
0000
0000
0000
0000
,
0000
0000
0000
0000
,
0000
0000
0000
0000
,
0000
0000
0000
0000
,
0000
0000
0000
0000
,
0000
0000
0000
0000
,
0100
0101
0100
1010
,
0100
0000
0101
0000
0010
1000
0100
0000
,
1000
1100
0100
0011
,
0001
0000
1100
0000
0010
1000
0001
0000
,
0010
0101
0010
1001
,
0100
0000
1010
0000
0100
1000
0010
0000
,
0100
1001
0100
1001
,
0100
0000
1001
0000
0010
0001
0100
0010
,
0100
0100
0001
0000
1000
1000
0100
0000
,
0010
0001
1000
0001
0100
0010
0100
0000
,
0010
0010
1000
0000
0001
0001
1000
0000
,
0001
0010
0100
1000
0010
0100
0010
0000
,
1000
1000
0001
0000
0100
0100
0010
0000
,
1000
0100
0001
0100
0010
0100
1000
0000
,
0010
0010
0100
0000
0001
0001
1000
0000
,
0010
1000
0010
0100
0010
1000
0001
0000
,
2002
0000
3003
0202
0000
0303
2200
0000
,
0000
3300
0220
0330
,
0022
0000
0033
2020
0000
3030
2002
0000
,
0000
3003
0220
0330
,
0202
0000
0303
2200
0000
3300
0220
0000
,
0000
0330
2002
3003
,
2020
0000
3030
0110
0000
0011
0000
2020
,
0000
0000
3030
0000
,
1001
0100
0001
0100
,
1000
0000
0100
0000
0001
0100
1000
0100
,
0001
0100
1000
0100
,
0001
0000
0100
0000
1000
0100
0001
0100
,
1000
1010
0010
0011
,
0001
0000
1001
0000
0001
0010
1000
0000
,
0001
1000
0001
1000
0001
1000
0001
1000
,
0100
0010
0100
0010
0100
0010
0100
0010
,
0100
0000
0000
0000
,
1001
0101
1001
1100
,
0010
0000
0100
0000
0001
0020
0000
0130
,
1000
1100
0100
1001
,
0101
0000
1001
0000
0100
0001
1000
0000
,
1001
1010
1001
0011
,
0010
0000
0100
0000
1000
0002
0000
1003
,
0100
0101
0100
1001
,
1000
1010
0010
1001
,
0011
1001
1010
1001
,
0010
1000
0010
0100
0000
0001
0100
0010
,
1000
0000
1000
0002
0000
0013
0001
0010
,
0200
0000
0300
2000
0000
0000
3001
0000
,
0100
0000
0001
2000
0000
3000
1100
0000
,
0100
0000
1000
0002
0000
0003
0101
0000
,
0010
0000
0001
2000
0000
3000
1010
0000
,
0001
0100
0010
0001
0100
0010
0001
0100
,
0010
0001
0100
0010
0001
0100
0010
0000
,
1010
0010
1001
0010
,
1010
0000
1000
0002
0000
0013
0100
0000
,
1100
0100
1001
0101
,
1000
0000
0001
1000
0100
1000
0011
0000
,
0110
1010
0110
0011
,
0100
0000
1000
0020
0000
0130
1001
0000
,
0101
1001
1100
1001
,
0010
0000
0100
0001
1000
0000
1001
0000
,
0100
0100
0100
1001
,
1010
0000
0110
0000
1010
0000
1000
0100
,
0010
0002
0000
0013
0100
0010
0001
0000
,
1000
0001
0000
0001
0100
0010
1000
0000
,
1000
0010
0000
0100
0001
0000
1001
0000
,
0100
0001
0000
0001
0100
0001
1001
0000
,
1000
0100
0000
0100
1000
0100
1001
0000
,
0010
0001
0000
0010
1000
0000
0001
0010
,
0100
1000
0010
0100
0001
0010
0100
0100
,
1001
0000
1001
0000
0100
0100
1001
0000
,
0100
0010
1001
0000
1001
0000
0100
0001
,
1001
0011
0000
0000
;

//---------------dance-single - ----------------
#NOTES:
     dance-single:
     :
     Medium:
     5:
     0.364410,0.495943,0.239679,0.171199,0.000000,298.000000,270.000000,28.000000,20.000000,0.000000,0.000000,0.364410,0.495943,0.239679,0.171199,0.000000,298.000000,270.000000,28.000000,20.000000,0.000000,0.000000:
0000
0000
0000
0000
,
0000
0000
0000
0000
,
0000
0000
0000
0000
,
0000
0000
0000
0000
,
0000
0000
0000
0000
,
0000
0000
0000
0000
,
0000
0000
0000
0000
,
0000
0000
0000
0000
,
1000
0000
0100
0000
0001
1000
0001
0000
,
0100
0010
0100
0000
,
0001
0000
0010
0000
0001
1000
0001
0000
,
1000
0010
0100
0000
,
0010
0000
1000
0000
0100
1000
0100
0000
,
0010
0001
1000
0000
,
0001
0000
0100
0000
0010
1000
0010
0000
,
0100
0001
1000
0000
,
0001
0010
1000
0010
,
0001
0010
1000
0010
,
0001
0100
1000
0100
,
0001
0010
1000
0010
,
0001
0010
0001
0100
,
0001
0100
1000
0100
,
1000
0010
1000
0010
,
0001
0010
1000
0100
,
0001
0000
0000
0101
0000
0000
2002
0000
,
0000
3003
0020
0030
,
0011
0000
0000
1001
0000
0000
0202
0000
,
0000
0303
0020
0030
,
1010
0000
0000
1100
0000
0000
0220
0000
,
0000
0330
0001
0000
,
1001
0000
0000
0110
0000
0110
0000
2002
,
0000
0000
3003
0000
,
0010
1000
0010
1000
,
0001
0010
0100
1000
,
0001
0100
0001
0100
,
1000
0100
0001
0010
,
0100
1000
0010
0100
,
0001
0010
0100
1000
,
0001
1000
0001
1000
,
0001
0010
0100
1000
,
0001
0000
0000
0000
,
1002
0100
1000
0100
,
1000
0000
0103
0000
1000
0001
0000
0010
,
0200
1000
0010
1300
,
0020
0001
0100
0031
,
0100
1000
0001
0100
,
0010
0000
1000
0000
0001
1000
0000
0010
,
0200
0001
0010
0301
,
0020
1000
0100
1030
,
0100
0001
1000
0100
,
1000
0000
0001
0100
0000
0100
0001
0000
,
1000
0000
0001
0010
0000
0010
0001
0000
,
0010
0000
0100
1000
0000
1000
0100
0000
,
1000
0000
0010
0100
0000
0100
0010
0000
,
1000
0000
0001
0100
0000
0100
0001
0000
,
1000
0000
0010
1000
0000
1000
0010
0000
,
1000
0000
0000
1100
0000
0000
1001
0000
,
0000
0101
0000
0000
1001
0000
2001
0000
,
0100
0001
0100
0001
,
3100
0000
0001
1000
0000
0010
0200
0000
,
1000
0010
1300
0020
,
0001
0100
0031
0100
,
0010
1000
0001
0010
,
0100
0000
1000
0001
0000
0100
0020
0000
,
1000
0100
1030
0200
,
0001
0010
0301
0010
,
0010
0010
0010
1000
,
0100
0010
0001
1000
,
0010
1000
0000
0010
1000
0000
0001
0000
,
0010
0001
0000
0010
0001
0000
1000
0000
,
0100
0010
0000
0100
0010
0000
0001
0000
,
1000
0010
0000
0000
1001
0000
0010
0000
,
0100
0010
0000
0000
1001
0000
0010
0000
,
0001
1000
0000
0000
1001
0000
0010
0000
,
0001
1000
0100
0001
,
0101
1001
0001
0011
,
1000
1010
1001
1000
,
0110
1001
0000
0000
;

//---------------dance-single - ----------------
#NOTES:
     dance-single:
     :
     Easy:
     3:
     0.213999,0.297566,0.085600,0.171199,0.000000,175.000000,165.000000,10.000000,20.000000,0.000000,0.000000,0.213999,0.297566,0.085600,0.171199,0.000000,175.000000,165.000000,10.000000,20.000000,0.000000,0.000000:
// measure 0
0000
0000
0000
0000
,  // measure 1
0000
0000
0000
0000
,  // measure 2
0000
0000
0000
0000
,  // measure 3
0000
0000
0000
0000
,  // measure 4
0000
0000
0000
0000
,  // measure 5
0000
0000
0000
0000
,  // measure 6
0000
0000
0000
0000
,  // measure 7
0000
0000
0000
0000
,  // measure 8
1000
0000
0010
0000
,  // measure 9
0001
0000
0010
0100
,  // measure 10
1000
0000
0100
0000
,  // measure 11
0001
0000
0100
0010
,  // measure 12
0001
0000
1000
0000
,  // measure 13
0001
0000
1000
0010
,  // measure 14
0100
0000
0001
0000
,  // measure 15
0100
0000
0010
1000
,  // measure 16
0100
0000
1000
0000
,  // measure 17
0001
0000
1000
0010
,  // measure 18
1000
0000
0001
0000
,  // measure 19
0010
0000
0001
0100
,  // measure 20
0001
0000
1000
0000
,  // measure 21
0100
0000
1000
0010
,  // measure 22
1000
0000
0001
0000
,  // measure 23
0010
0000
0001
0100
,  // measure 24
0002
0000
0000
1000
0000
0000
2000
0000
,  // measure 25
0000
0003
0020
3030
,  // measure 26
2000
0000
0000
0001
0000
0000
0002
0000
,  // measure 27
0000
3000
0020
0033
,  // measure 28
0002
0000
0000
1000
0000
0000
2000
0000
,  // measure 29
0000
0003
0200
3300
,  // measure 30
2000
0000
0000
0001
0000
0001
0000
0002
,  // measure 31
0000
0000
3003
0000
,  // measure 32
0010
0010
0000
0100
,  // measure 33
0000
0010
0000
0100
,  // measure 34
0000
0001
0000
1000
,  // measure 35
0000
0001
0000
1000
,  // measure 36
0010
0010
0100
0100
,  // measure 37
0001
0001
1000
1000
,  // measure 38
0010
0010
0100
0100
,  // measure 39
0001
1000
0010
0100
,  // measure 40
0001
0000
0000
0000
,  // measure 41
2002
0000
0000
0000
,  // measure 42
3003
0000
0010
1000
,  // measure 43
0200
0000
0300
0010
,  // measure 44
0002
0000
0003
1000
,  // measure 45
0010
0000
1010
0000
,  // measure 46
0010
0000
1010
0000
,  // measure 47
0100
0000
1100
0000
,  // measure 48
0100
0000
1100
0000
,  // measure 49
0001
0000
1000
0000
,  // measure 50
0010
0000
0100
0000
,  // measure 51
0001
0000
1000
0000
,  // measure 52
0010
0000
0100
0000
,  // measure 53
0001
0001
0000
0001
,  // measure 54
0010
0010
0000
0010
,  // measure 55
0100
0100
0000
0100
,  // measure 56
1000
0000
1000
0000
,  // measure 57
1000
0010
0001
2002
,  // measure 58
0000
0000
0000
3003
,  // measure 59
0000
0010
0001
0200
,  // measure 60
0000
0300
0010
2000
,  // measure 61
0000
3000
0001
0010
,  // measure 62
0000
0011
0000
0010
,  // measure 63
0000
0011
0000
0100
,  // measure 64
0000
0101
0000
0100
,  // measure 65
0000
0101
0000
0200
,  // measure 66
0000
0300
0000
1000
,  // measure 67
0000
0001
0000
0010
,  // measure 68
0000
0100
0000
1000
,  // measure 69
0000
0001
0000
0010
,  // measure 70
0000
0100
0000
1000
,  // measure 71
1000
0000
1000
0010
,  // measure 72
0010
0000
0010
0100
,  // measure 73
0100
0000
0100
0001
,  // measure 74
0000
0001
0000
0001
,  // measure 75
0010
0010
1000
0010
,  // measure 76
0001
0010
0010
1000
,  // measure 77
0010
0010
0000
0000
;

//---------------dance-single - ----------------
#NOTES:
     dance-single:
     :
     Beginner:
     1:
     0.117394,0.198377,0.000000,0.000000,0.000000,96.000000,96.000000,0.000000,0.000000,0.000000,0.000000,0.117394,0.198377,0.000000,0.000000,0.000000,96.000000,96.000000,0.000000,0.000000,0.000000,0.000000:
// measure 0
0000
0000
0000
0000
,  // measure 1
0000
0000
0000
0000
,  // measure 2
0000
0000
0000
0000
,  // measure 3
0000
0000
0000
0000
,  // measure 4
0000
0000
0000
0000
,  // measure 5
0000
0000
0000
0000
,  // measure 6
0000
0000
0000
0000
,  // measure 7
0000
0000
0000
0000
,  // measure 8
1000
0000
0000
0000
,  // measure 9
0001
0000
0000
0000
,  // measure 10
0100
0000
0000
0000
,  // measure 11
0010
0000
0000
0000
,  // measure 12
1000
0000
0000
0000
,  // measure 13
0100
0000
0000
0000
,  // measure 14
0010
0000
0000
0000
,  // measure 15
0001
0000
0000
0000
,  // measure 16
1000
0000
1000
0000
,  // measure 17
1000
0000
0000
0000
,  // measure 18
0100
0000
0100
0000
,  // measure 19
0100
0000
0000
0000
,  // measure 20
0001
0000
0001
0000
,  // measure 21
0001
0000
0000
0000
,  // measure 22
0010
0000
0010
0000
,  // measure 23
0010
0000
0000
0000
,  // measure 24
0100
0000
0000
0000
,  // measure 25
0000
0000
0000
0000
,  // measure 26
1000
0000
0000
0000
,  // measure 27
0000
0000
0000
0000
,  // measure 28
0001
0000
0000
0000
,  // measure 29
0000
0000
0000
0000
,  // measure 30
0010
0000
0000
0000
,  // measure 31
0000
0000
0000
0000
,  // measure 32
0000
0100
0000
0100
,  // measure 33
0000
0100
0000
0100
,  // measure 34
0000
1000
0000
1000
,  // measure 35
0000
1000
0000
1000
,  // measure 36
0000
0001
0000
0001
,  // measure 37
0000
0001
0000
0001
,  // measure 38
0000
0010
0000
0010
,  // measure 39
0000
0000
0000
0000
,  // measure 40
0000
0000
0000
0000
,  // measure 41
0100
0000
0000
0000
,  // measure 42
0000
0000
1000
0000
,  // measure 43
0001
0000
0000
0000
,  // measure 44
0100
0000
0000
0000
,  // measure 45
0010
0000
0000
0000
,  // measure 46
0000
0000
1000
0000
,  // measure 47
0001
0000
0000
0000
,  // measure 48
0010
0000
0000
0000
,  // measure 49
0100
0000
0100
0000
,  // measure 50
0100
0000
0100
0000
,  // measure 51
0100
0000
0100
0000
,  // measure 52
0100
0000
0000
0000
,  // measure 53
0010
0000
0000
0000
,  // measure 54
0001
0000
0000
0000
,  // measure 55
1000
0000
0000
0000
,  // measure 56
0010
0000
0000
0000
,  // measure 57
0000
0000
0000
0100
,  // measure 58
0000
0100
0000
0100
,  // measure 59
0000
0100
0000
0001
,  // measure 60
0000
0001
0000
1000
,  // measure 61
0000
1000
0000
0100
,  // measure 62
0000
0100
0000
0100
,  // measure 63
0000
0100
0000
0010
,  // measure 64
0000
0010
0000
0001
,  // measure 65
0000
0001
0000
1000
,  // measure 66
0000
0000
0000
0001
,  // measure 67
0000
0001
0000
0001
,  // measure 68
0000
0001
0000
0010
,  // measure 69
0000
0010
0000
0100
,  // measure 70
0000
0100
0000
1000
,  // measure 71
1000
0000
0000
0001
,  // measure 72
0001
0000
0000
1000
,  // measure 73
1000
0000
0000
0010
,  // measure 74
0000
0000
0000
0000
,  // measure 75
0100
0100
0000
0100
,  // measure 76
0000
0100
0100
0000
,  // measure 77
0100
0100
0000
0000
;
