#TITLE:Civilizations (The Rak'tika Greatwood);
#SUBTITLE:;
#ARTIST:Masayoshi Soken;
#TITLETRANSLIT:;
#SUBTITLETRANSLIT:;
#ARTISTTRANSLIT:;
#GENRE:Shadowbringers;
#CREDIT:;
#BANNER:Civilizations-bn.jpg;
#BACKGROUND:Civilizations-bg.jpg;
#LYRICSPATH:;
#CDTITLE:;
#MUSIC:Civilizations.mp3;
#OFFSET:-0.339000;
#SAMPLESTART:125.536781;
#SAMPLELENGTH:20.869583;
#LASTBEATHINT:480.000000;
#SELECTABLE:YES;
#BPMS:0.000000=184.000000
;
#STOPS:
;
#BGCHANGES:;
#KEYSOUNDS:;
#ATTACKS:;

//---------------dance-single - ----------------
#NOTES:
     dance-single:
     :
     Hard:
     8:
     0.419568,0.593631,0.349195,0.430258,0.006236,471.000000,415.000000,56.000000,69.000000,0.000000,0.000000,0.419568,0.593631,0.349195,0.430258,0.006236,471.000000,415.000000,56.000000,69.000000,0.000000,0.000000:
0000
0000
0000
0000
,
0000
0000
0000
0000
,
0000
0000
0000
0000
,
0000
0000
0000
0000
,
0000
0000
0000
0000
,
0000
0000
0000
0000
,
0000
0000
0000
0000
,
0000
0000
0000
0000
,
2000
0001
0000
3000
,
0100
0000
0020
0000
0000
0100
0030
0010
,
0002
1000
0100
0010
,
1000
0000
0103
0000
0000
0001
0010
0100
,
2000
0000
0000
0000
,
0000
0000
3000
0000
0000
0010
0100
0010
,
0002
0000
0003
0010
,
0000
1000
0000
0000
0001
0000
0000
0000
,
1000
1100
0001
0101
,
1000
1010
0001
0011
,
1000
1100
0001
0101
,
1000
1010
0001
0011
,
1000
0110
0001
1100
,
0010
0101
0001
1010
,
0100
1001
0010
1100
,
0010
0000
0001
1000
0000
0001
0100
0000
,
0010
1000
0001
0100
0020
0000
1000
0000
,
0130
0110
0001
1001
,
0100
0001
1000
0000
0020
0000
1000
0000
,
0100
1030
0010
0100
,
0001
0010
0100
1000
0002
0000
1003
0000
,
0100
1001
0010
1001
,
0100
1000
0001
0000
0020
0000
1000
0000
,
0100
0031
0010
0110
,
0001
1000
0010
0100
0002
0000
0000
1003
,
0000
1000
0100
0010
0100
1000
0001
1000
,
0100
0010
0001
0010
0200
0000
0000
1300
,
0000
1000
0010
0100
0020
0000
0000
0000
,
1030
0010
0100
0010
2000
0000
0000
3001
,
0000
0010
0100
0010
0001
0100
0010
0100
,
0001
1000
0100
1000
0002
0000
0000
1003
,
0000
1000
0010
0100
0010
1000
0100
1000
,
0001
2002
3003
0000
,
0110
2002
3003
0011
,
1001
0101
0011
1001
,
0101
1001
0000
0000
,
0020
0000
2030
0000
3200
0000
0000
1300
,
0000
1000
0001
0100
0002
0000
0000
0000
,
0013
0000
0100
1000
0200
0000
0000
0310
,
0000
0001
1000
0001
0100
0010
0000
0000
,
1000
1100
0010
0110
,
0001
1000
0010
0100
0001
0100
0010
1000
,
0100
0000
0010
0000
0001
1000
0200
0000
,
0000
1300
1001
0100
,
0001
0100
1000
0100
0001
0100
0001
0100
,
0010
1000
0010
0001
0010
1000
0010
1000
,
0000
0001
0100
0010
1000
0010
0100
0001
,
1000
0010
0100
0001
0000
2002
0000
0000
,
3003
0011
1001
2200
,
3300
0000
0010
0000
0100
0010
0100
0010
,
2000
0001
3100
0101
,
0100
1000
0100
0000
0101
0000
1000
0000
,
0010
0100
0010
0000
0010
0001
0010
0000
,
0100
0110
1010
0100
,
0001
0000
1000
0000
0001
0010
0100
1000
,
0100
0000
0010
0000
0001
0000
1000
0000
0000
0000
0100
1000
0200
0000
0000
0000
,
0000
0000
0300
0000
,
0000
0000
0000
0000
,
0000
0000
0001
0000
1000
0010
0100
0002
,
0000
0023
0000
0030
,
0000
0000
0001
0000
0001
0010
0100
2000
,
0000
3010
0100
0002
,
0000
2003
0001
3100
,
0000
0010
0001
2000
,
0000
3001
0100
0202
,
0003
2000
0000
0000
,
0000
0000
3300
0000
,
0000
0000
0000
0010
,
1000
2020
0000
3030
,
0000
0000
0000
0001
,
0010
0022
0000
0033
,
0000
0000
0000
0000
,
0001
0010
0100
0000
1000
0000
0202
0000
,
0000
0303
0000
0010
,
2200
0300
0002
3003
,
0022
0030
2000
3003
,
0000
0000
0000
0020
,
0000
2000
0030
0000
,
3002
0000
0023
0000
,
0230
0000
0000
2300
,
3001
0000
0100
0010
1001
0000
0100
0000
,
0001
0010
0000
0100
0020
0000
0000
0000
,
0031
0000
1000
0010
0110
0000
0010
0000
,
1000
0001
0000
1000
0200
0000
0000
0000
,
0310
0000
0001
1000
0110
0000
0010
0000
,
1000
0001
0000
1000
0020
0000
0000
0000
,
0130
0000
0001
1000
1100
0000
0010
0000
,
0100
1000
0000
0001
0200
0000
0000
0000
,
0310
1010
0011
0101
,
0200
1000
0010
0301
,
0100
0000
0110
0000
0000
0000
0000
0001
,
0000
1000
0100
0000
1100
0000
0002
0000
,
0013
0000
0200
0000
1000
0000
0000
0001
,
0000
0000
0000
0010
0000
0000
0000
0000
1300
0000
0000
0000
0001
0000
0000
0000
,
0100
0000
0000
0010
,
1000
0002
0000
0013
,
0100
0000
1001
0000
0010
0000
0000
0001
,
0000
0001
1000
0001
0100
0010
0000
1000
,
0100
0010
0100
1000
0002
0000
0000
1003
,
0000
1000
0010
0100
0010
1000
0000
0000
,
0001
0100
0010
0100
0002
0000
0000
0013
,
0000
0100
1000
0100
0010
0001
0000
1000
,
0010
0100
0010
1000
0200
0000
0000
0310
,
0000
0001
1000
0001
0100
0010
0000
1000
,
0200
0000
0000
0000
,
0000
0000
0000
0000
,
0000
0000
0000
0000
,
0000
0000
0000
0000
,
0000
0000
0000
0000
,
0000
0000
0000
0000
,
0000
0000
0000
0000
,
0300
0000
0000
0000
;

//---------------dance-single - ----------------
#NOTES:
     dance-single:
     :
     Medium:
     6:
     0.276149,0.445223,0.056121,0.224482,0.000000,310.000000,301.000000,9.000000,36.000000,0.000000,0.000000,0.276149,0.445223,0.056121,0.224482,0.000000,310.000000,301.000000,9.000000,36.000000,0.000000,0.000000:
0000
0000
0000
0000
,
0000
0000
0000
0000
,
0000
0000
0000
0000
,
0000
0000
0000
0000
,
0000
0000
0000
0000
,
0000
0000
0000
0000
,
0000
0000
0000
0000
,
0000
0000
0000
0000
,
2000
0000
0000
0000
,
0000
0000
0000
0100
,
3002
0000
0000
0000
,
0000
0000
0000
0010
,
2003
0000
0000
0000
,
0000
0000
0000
0100
,
3002
0000
0000
0010
,
0000
1000
0000
0000
0100
0000
0000
0000
,
1003
0000
0100
0000
,
0001
0000
0010
0100
,
1000
0000
0001
0000
,
0100
0000
0010
0100
,
0001
0001
1000
1000
,
0010
0010
0100
0100
,
0001
0010
0100
1000
,
0010
0100
0001
1000
,
0002
0010
0010
0000
,
1003
0010
1000
0010
,
2000
0010
0010
0000
,
3001
0010
0100
0000
,
1000
0100
0002
0000
,
0100
1000
0100
1000
,
0103
0010
0100
0010
,
0000
1000
0000
0000
0100
0000
0000
0000
,
1001
0000
0100
0000
0001
0000
0000
0010
,
0000
0100
1000
0000
,
0001
0000
0010
0000
0100
0000
0000
1000
,
0000
0010
0100
0000
,
0010
0000
1000
0000
0001
0000
0000
0010
,
0000
0100
1000
0000
,
0001
0000
1000
0000
0010
0000
0000
0100
,
0000
0001
1000
0000
,
1001
1001
0000
0000
,
0010
0100
0000
1000
,
0100
0001
0010
0100
,
1000
0001
0000
0000
,
0100
0010
1000
0001
,
0010
0100
1000
0000
,
0002
0000
0000
1003
,
0100
0010
0000
0000
,
1001
0001
1000
0001
,
0000
0010
0100
1000
,
0001
0000
0010
0000
0001
0010
0002
0000
,
0000
0000
0000
0003
,
0000
1000
0010
1000
,
0001
0100
0001
0000
1000
0000
0010
0000
,
1000
0100
0010
0100
,
1000
0100
1000
0000
0001
0000
0010
0000
,
0100
1000
0010
0002
,
0000
0013
1000
0010
,
0001
0100
0010
0100
,
0001
0010
0100
0000
,
1000
0100
0010
0001
,
1000
0010
0100
0000
,
0010
1000
0001
0010
,
0100
0010
0100
0000
0000
0110
0000
0000
,
1001
0000
0000
0000
,
0000
0000
0000
0000
,
0000
0001
0010
0100
,
0000
2000
0000
3000
,
0000
1000
0010
0001
,
0000
0001
0010
1000
,
0000
1000
0100
0010
,
0000
0001
1000
0001
,
0000
0010
0100
2000
,
0000
0002
0000
0000
,
0000
0000
0000
3003
,
0000
0000
0000
0001
,
0010
0200
0000
0000
,
0000
0300
0000
0010
,
0001
2000
0000
0000
,
0000
0000
0000
0000
,
3010
0100
0001
2000
,
0000
0000
0000
3100
,
0010
0000
0001
0000
,
2000
0000
3010
0000
,
0000
0000
0000
0200
,
0000
0302
0000
0000
,
0023
0000
0230
0000
,
1000
0000
0001
0000
,
0310
0001
1000
0010
,
0100
0001
0000
1000
0002
0000
0003
0000
,
0010
0100
1000
0010
,
1000
0100
0000
1000
0200
0000
0300
0000
,
0010
0001
1000
0010
,
0100
0001
0000
1000
0100
0000
0010
0000
,
0001
1000
0010
0100
,
0010
1000
0000
0001
0020
0000
0030
0000
,
0100
0000
1000
0000
0001
0000
1000
0010
,
0000
0100
0001
0100
0002
0000
0003
0000
,
0010
0000
0100
0000
0010
0000
0001
1000
,
0000
0001
1000
0001
2000
0000
3000
0000
,
0010
0000
1000
0000
0100
0000
0010
0001
,
0000
1000
0001
1000
0002
0000
0003
0000
,
0100
0000
0010
0000
1000
0000
0001
0100
,
0000
0001
0100
0001
0200
0000
0300
0000
,
0110
0220
0330
0000
,
2000
0200
3300
0001
,
0010
0100
1000
0010
,
0100
0002
0003
0000
,
1000
0010
0001
0010
,
1000
0100
0010
0001
,
2000
0000
0000
3010
,
0001
0200
0000
0300
,
0210
0000
0000
0000
,
0000
0000
0000
0000
,
0000
0000
0000
0000
,
0000
0000
0000
0000
,
0000
0000
0000
0000
,
0000
0000
0000
0000
,
0000
0000
0000
0000
,
0300
0000
0000
0000
;

//---------------dance-single - ----------------
#NOTES:
     dance-single:
     :
     Easy:
     4:
     0.208448,0.371019,0.049885,0.268132,0.000000,234.000000,226.000000,8.000000,43.000000,0.000000,0.000000,0.208448,0.371019,0.049885,0.268132,0.000000,234.000000,226.000000,8.000000,43.000000,0.000000,0.000000:
// measure 0
0000
0000
0000
0000
,  // measure 1
0000
0000
0000
0000
,  // measure 2
0000
0000
0000
0000
,  // measure 3
0000
0000
0000
0000
,  // measure 4
0000
0000
0000
0000
,  // measure 5
0000
0000
0000
0000
,  // measure 6
0000
0000
0000
0000
,  // measure 7
0000
0000
0000
0000
,  // measure 8
2000
0000
0000
0000
,  // measure 9
3000
0000
0000
0010
,  // measure 10
0200
0000
0000
0000
,  // measure 11
0300
0000
0000
0001
,  // measure 12
0020
0000
0000
0000
,  // measure 13
0030
0000
0000
0100
,  // measure 14
1000
0000
0000
0001
,  // measure 15
0000
1000
0000
0001
,  // measure 16
0000
0010
0000
1000
,  // measure 17
0000
0010
0000
0001
,  // measure 18
0000
1000
0000
0001
,  // measure 19
0000
1000
0000
0100
,  // measure 20
0000
0001
0000
0100
,  // measure 21
0000
1000
0000
0010
,  // measure 22
0000
0100
0000
0001
,  // measure 23
0000
0010
0000
0100
,  // measure 24
1000
0001
0100
0010
,  // measure 25
0000
0010
1000
0010
,  // measure 26
0100
0000
0001
0000
,  // measure 27
0010
0000
0100
0000
,  // measure 28
1000
0001
1000
0010
,  // measure 29
0000
0100
0000
0010
,  // measure 30
1000
0000
0001
0000
,  // measure 31
0010
0000
0100
0000
,  // measure 32
1001
2002
0000
3003
,  // measure 33
0010
1000
0100
0010
,  // measure 34
0001
2000
0000
0000
,  // measure 35
3000
0000
0000
0010
,  // measure 36
1000
0100
0010
0001
,  // measure 37
1000
0001
0200
0000
,  // measure 38
0000
0300
0000
0010
,  // measure 39
0100
0001
0000
1000
,  // measure 40
0010
0002
0000
0003
,  // measure 41
0010
0200
0300
1000
,  // measure 42
0100
0010
0001
1000
,  // measure 43
0010
0200
0000
0300
,  // measure 44
0001
0010
0100
1000
,  // measure 45
0001
1000
0100
0000
,  // measure 46
0010
0000
0000
0001
,  // measure 47
1000
0002
0000
0003
,  // measure 48
0100
0100
0010
0010
,  // measure 49
0000
1000
0000
0100
,  // measure 50
0000
0010
0000
0001
,  // measure 51
0000
1000
0000
0001
,  // measure 52
0010
0010
0100
0100
,  // measure 53
0000
1000
0000
0001
,  // measure 54
0000
0100
0000
1000
,  // measure 55
0000
0100
0000
0001
,  // measure 56
1000
1000
0001
0001
,  // measure 57
0000
0010
0000
0100
,  // measure 58
0000
1000
0000
0001
,  // measure 59
0000
0100
0000
0010
,  // measure 60
0010
0010
0100
0100
,  // measure 61
0000
0001
0000
0010
,  // measure 62
0000
0100
0000
1000
,  // measure 63
0000
0000
0001
0000
0000
2002
0000
0000
,  // measure 64
0000
0000
0000
3003
,  // measure 65
0000
0000
0000
0000
,  // measure 66
0000
0000
0020
0000
,  // measure 67
0000
1030
0000
0000
,  // measure 68
0000
0000
0200
0000
,  // measure 69
0000
0301
0000
0000
,  // measure 70
0000
0020
0000
0130
,  // measure 71
0000
2000
0000
3001
,  // measure 72
0000
1000
0000
1000
,  // measure 73
0000
0002
0000
0013
,  // measure 74
0000
0000
0000
0000
,  // measure 75
0000
0000
0000
0100
,  // measure 76
0100
0200
0000
0000
,  // measure 77
0300
0000
0000
1000
,  // measure 78
1000
0020
0000
0000
,  // measure 79
0030
0000
0000
0000
,  // measure 80
0001
0010
0001
0200
,  // measure 81
0000
0000
0000
0310
,  // measure 82
2000
3000
0002
0003
,  // measure 83
0020
0030
0200
0300
,  // measure 84
0000
0000
0000
2000
,  // measure 85
3000
0002
0003
0000
,  // measure 86
0200
0300
0020
0030
,  // measure 87
2000
3000
0200
0300
,  // measure 88
1001
0000
0100
0000
,  // measure 89
0010
1000
0100
0000
,  // measure 90
1000
0000
0010
0000
,  // measure 91
0001
0010
0100
0000
,  // measure 92
0010
0000
0001
0000
,  // measure 93
1000
0100
0010
0000
,  // measure 94
0001
0000
1000
0000
,  // measure 95
0001
0100
0010
0000
,  // measure 96
1001
2002
3003
0010
,  // measure 97
1000
0100
0010
0001
,  // measure 98
1000
0002
0000
0000
,  // measure 99
0003
0000
0000
0010
,  // measure 100
0001
0100
0010
1000
,  // measure 101
0001
1000
0020
0000
,  // measure 102
0000
0030
0000
0100
,  // measure 103
0001
2000
3000
0010
,  // measure 104
0100
0002
0000
0003
,  // measure 105
0110
0220
0330
1000
,  // measure 106
0100
0010
0001
1000
,  // measure 107
0010
0200
0000
0300
,  // measure 108
0010
1000
0100
0010
,  // measure 109
0001
1000
0020
0030
,  // measure 110
0100
0000
0000
0001
,  // measure 111
0010
2000
0000
3000
,  // measure 112
0200
0000
0000
0000
,  // measure 113
0000
0000
0000
0000
,  // measure 114
0000
0000
0000
0000
,  // measure 115
0000
0000
0000
0000
,  // measure 116
0000
0000
0000
0000
,  // measure 117
0000
0000
0000
0000
,  // measure 118
0000
0000
0000
0000
,  // measure 119
0300
0000
0000
0000
;

//---------------dance-single - ----------------
#NOTES:
     dance-single:
     :
     Beginner:
     2:
     0.122931,0.222612,0.006236,0.081063,0.000000,138.000000,137.000000,1.000000,13.000000,0.000000,0.000000,0.122931,0.222612,0.006236,0.081063,0.000000,138.000000,137.000000,1.000000,13.000000,0.000000,0.000000:
// measure 0
0000
0000
0000
0000
,  // measure 1
0000
0000
0000
0000
,  // measure 2
0000
0000
0000
0000
,  // measure 3
0000
0000
0000
0000
,  // measure 4
0000
0000
0000
0000
,  // measure 5
0000
0000
0000
0000
,  // measure 6
0000
0000
0000
0000
,  // measure 7
0000
0000
0000
0000
,  // measure 8
0020
0000
0000
0000
,  // measure 9
0030
0000
0000
0000
,  // measure 10
0200
0000
0000
0000
,  // measure 11
0300
0000
0000
0000
,  // measure 12
0002
0000
0000
0000
,  // measure 13
0003
0000
0000
0000
,  // measure 14
2000
0000
0000
0000
,  // measure 15
3000
0000
0000
0000
,  // measure 16
0200
0000
0000
0000
,  // measure 17
0300
0000
0000
0000
,  // measure 18
0020
0000
0000
0000
,  // measure 19
0030
0000
0000
0000
,  // measure 20
0002
0000
0000
0000
,  // measure 21
0003
0000
0000
0000
,  // measure 22
1000
0000
0000
0000
,  // measure 23
0010
0000
0000
0000
,  // measure 24
0100
0000
0000
0000
,  // measure 25
0001
0000
0000
0000
,  // measure 26
0010
0000
0000
0000
,  // measure 27
0100
0000
0000
0000
,  // measure 28
1000
0000
0000
0000
,  // measure 29
0001
0000
0000
0000
,  // measure 30
0100
0000
0000
0000
,  // measure 31
0010
0000
0000
0000
,  // measure 32
1000
0000
1000
0000
,  // measure 33
1000
0000
1000
0000
,  // measure 34
0100
0000
0100
0000
,  // measure 35
0100
0000
0100
0000
,  // measure 36
0010
0000
0010
0000
,  // measure 37
0010
0000
0010
0000
,  // measure 38
0001
0000
0001
0000
,  // measure 39
0001
0000
0001
0000
,  // measure 40
1000
0000
0001
0000
,  // measure 41
0100
0000
0010
0000
,  // measure 42
1000
0000
0100
0000
,  // measure 43
0010
0000
0001
0000
,  // measure 44
1000
0000
0001
0000
,  // measure 45
0100
0000
0010
0000
,  // measure 46
1000
0000
0100
0000
,  // measure 47
0010
0000
0001
0000
,  // measure 48
1000
0000
0000
0000
,  // measure 49
0000
0000
0010
0000
,  // measure 50
0100
0000
0010
0000
,  // measure 51
0000
0000
1000
0000
,  // measure 52
0100
0000
0010
0000
,  // measure 53
0000
0000
0001
0000
,  // measure 54
0100
0000
0010
0000
,  // measure 55
0000
0000
1000
0000
,  // measure 56
0001
0000
0010
0000
,  // measure 57
0000
0000
0100
0000
,  // measure 58
1000
0000
0001
0000
,  // measure 59
0000
0000
0100
0000
,  // measure 60
0010
0000
1000
0000
,  // measure 61
0000
0000
0001
0000
,  // measure 62
0010
0000
0100
0000
,  // measure 63
0000
0000
1000
0000
,  // measure 64
0001
0000
0000
0000
,  // measure 65
0000
0000
0000
0000
,  // measure 66
0000
0000
0000
0000
,  // measure 67
0000
0000
0000
0000
,  // measure 68
0000
0000
0000
0000
,  // measure 69
0000
0000
0000
0000
,  // measure 70
0000
0000
0000
0000
,  // measure 71
0000
0000
0000
0000
,  // measure 72
0000
0100
0000
0100
,  // measure 73
0000
0200
0000
0300
,  // measure 74
0000
0000
0000
0000
,  // measure 75
0000
0000
0000
0010
,  // measure 76
0000
0020
0000
0030
,  // measure 77
0000
0000
0000
1000
,  // measure 78
0000
2000
0000
3000
,  // measure 79
0000
0000
0000
0000
,  // measure 80
0001
0000
0002
0000
,  // measure 81
0003
0000
0000
0000
,  // measure 82
0010
0000
0010
0000
,  // measure 83
0100
0000
0200
0000
,  // measure 84
0300
0000
0000
1000
,  // measure 85
0000
0001
0000
0000
,  // measure 86
0100
0000
0010
0000
,  // measure 87
1000
0000
0001
0000
,  // measure 88
1001
0000
0000
0000
,  // measure 89
0010
0000
0010
0000
,  // measure 90
1000
0000
0000
0000
,  // measure 91
0001
0000
0010
0000
,  // measure 92
0001
0000
0000
0000
,  // measure 93
1000
0000
0100
0000
,  // measure 94
1000
0000
0000
0000
,  // measure 95
0010
0000
0100
0000
,  // measure 96
0010
0000
0010
0000
,  // measure 97
1000
0000
1000
0000
,  // measure 98
0001
0000
0001
0000
,  // measure 99
0010
0000
0010
0000
,  // measure 100
0100
0000
0100
0000
,  // measure 101
1000
0000
1000
0000
,  // measure 102
0001
0000
0001
0000
,  // measure 103
0100
0000
0100
0000
,  // measure 104
0010
0000
1000
0000
,  // measure 105
0100
0000
0001
0000
,  // measure 106
0010
0000
1000
0000
,  // measure 107
0001
0000
0010
0000
,  // measure 108
1000
0000
0100
0000
,  // measure 109
0001
0000
0100
0000
,  // measure 110
1000
0000
0100
0000
,  // measure 111
0001
0000
1000
0000
,  // measure 112
0200
0000
0000
0000
,  // measure 113
0000
0000
0000
0000
,  // measure 114
0000
0000
0000
0000
,  // measure 115
0000
0000
0000
0000
,  // measure 116
0000
0000
0000
0000
,  // measure 117
0000
0000
0000
0000
,  // measure 118
0000
0000
0000
0000
,  // measure 119
0300
0000
0000
0000
;
