#TITLE:By The Throat;
#SUBTITLE:;
#ARTIST:CHVRCHES;
#TITLETRANSLIT:;
#SUBTITLETRANSLIT:;
#ARTISTTRANSLIT:CHVRCHES;
#GENRE:The Bones of What You Believe;
#CREDIT:;
#BANNER:By The Throat-bn.jpg;
#BACKGROUND:By The Throat-bg.jpg;
#LYRICSPATH:;
#CDTITLE:;
#MUSIC:By The Throat.mp3;
#OFFSET:-0.032000;
#SAMPLESTART:55.960209;
#SAMPLELENGTH:17.288136;
#LASTBEATHINT:280.000000;
#SELECTABLE:YES;
#BPMS:0.000000=118.000000
;
#STOPS:
;
#BGCHANGES:;
#KEYSOUNDS:;
#ATTACKS:;

//---------------dance-single - ----------------
#NOTES:
     dance-single:
     :
     Challenge:
     11:
     0.652374,0.696255,0.000000,0.000000,0.853254,669.000000,0.000000,0.000000,0.000000,0.000000,0.000000,0.652374,0.696255,0.000000,0.000000,0.853254,669.000000,0.000000,0.000000,0.000000,0.000000,0.000000:
0000
0000
0000
0000
,
0000
0000
0000
0000
,
0000
0000
0000
0000
,
0000
0000
0000
0000
,
1000
0010
1000
0010
1000
0100
1000
0100
,
0001
0100
0001
0100
0001
0010
0001
0010
,
0001
0100
0001
0100
1000
0100
1000
0100
,
1000
0001
1000
0001
0100
0010
0100
0010
,
1000
0000
0001
0100
0000
0100
0001
0000
1000
0010
0000
0010
1000
0000
0100
0000
,
0010
0000
0000
0001
0000
0000
0100
0000
0010
0000
1000
0000
0100
0000
0100
0000
,
0010
0000
0001
1000
0000
1000
0010
0000
0100
0001
0000
0001
1000
0000
0100
0000
,
0010
0000
0000
0100
0000
0000
1000
0000
0010
0000
0100
0000
0001
0000
0001
0000
,
1000
0100
1000
0100
0001
0100
0001
0100
,
1000
0010
1000
0010
0100
0001
0100
0001
,
0010
0100
0010
0100
1000
0001
1000
0001
,
0100
1000
0100
1000
0100
0001
0100
0001
,
0010
0000
0100
1000
0000
1000
0001
0000
0100
0010
0000
0010
1000
0000
0100
0000
,
0010
0000
0000
0001
0000
0000
0100
0000
0001
0000
1000
0000
0010
0000
0010
0000
,
0100
0000
0001
1000
0000
1000
0100
0000
0010
0001
0000
0001
1000
0000
0010
0000
,
0100
0000
0000
0010
0000
0000
1000
0000
0001
0000
0000
0010
0000
0000
0100
0000
,
1000
1000
0001
0001
,
0100
0100
0010
0010
,
1000
1000
0100
0100
,
0010
0010
0001
0001
,
1000
0100
0010
0001
1000
0100
0010
0001
,
1000
0100
0010
0001
1000
0100
0010
0001
,
0100
0100
0010
0010
0100
0100
0010
0010
,
1000
0000
0000
0010
0000
0000
0100
0000
0000
0001
0000
0000
1000
0000
0000
0010
0000
0000
0100
0000
0000
0001
0000
0000
1000
0000
0001
0000
1000
0000
0001
0000
1000
0000
0001
0000
1000
0000
0001
0000
1000
0000
0001
0000
1000
0000
0001
0000
,
1000
0100
0010
0001
0010
0100
1000
0100
0000
0010
0001
0010
0100
1000
0100
0010
,
0001
0100
0010
1000
0010
0100
0001
0100
0000
0010
1000
0010
0100
0001
1000
0010
,
0100
0010
1000
0100
0010
0001
0100
0010
0000
1000
0001
1000
0100
0010
0001
0100
,
0010
0100
0001
0010
0100
1000
0010
0100
0000
0001
0100
0010
1000
0010
0100
0001
,
1000
0100
0010
0001
0010
0100
1000
0010
0000
0100
0001
1000
0010
1000
0001
0100
,
0010
1000
0100
0010
0100
1000
0010
0100
0000
0010
1000
0100
0010
0100
1000
0001
,
0100
0010
0100
0001
0010
0100
0010
0001
0000
0100
0010
0100
0001
0010
0100
0010
,
0001
0100
0010
1000
0100
0010
0001
0100
0000
0010
0100
0001
1000
0010
0100
0010
,
1000
0000
0100
1000
0001
0000
0100
0010
,
1000
0000
0000
0001
0000
0000
0100
0000
0010
0000
1000
0000
0100
0000
0000
0000
,
0010
0000
0000
0001
0000
0000
0100
0000
0010
0000
0000
1000
0000
0000
0001
0000
,
0100
0000
0001
0100
0010
0000
1000
0001
,
0000
0000
1000
0100
0000
0100
0010
0000
0010
0001
0000
0001
1000
0000
0100
0000
,
0010
0000
0000
0100
0000
0000
1000
0000
0010
0000
1000
0000
0100
0000
0100
0000
,
0010
0000
0001
1000
0000
1000
0100
0000
1000
0001
0000
0001
0100
0000
0010
0000
,
1000
0000
0000
0100
0000
0000
0010
0000
0001
0000
0010
0000
0100
0000
1000
0000
,
0010
0010
0100
0100
,
0001
0001
1000
1000
,
0010
0010
1000
1000
,
0100
0100
0001
0001
,
0100
0010
0100
0010
1000
0001
1000
0001
,
0010
0100
0010
0100
0001
1000
0001
1000
,
0100
0010
0001
0100
0010
1000
0100
0010
,
0001
0000
0000
0100
0000
0000
0010
0000
0000
1000
0000
0000
0100
0000
0000
0010
0000
0000
0001
0000
0000
0100
0000
0000
0010
0000
0100
0000
0010
0000
0100
0000
0010
0000
0100
0000
0010
0000
0100
0000
0010
0000
0100
0000
0010
0000
0100
0000
,
0010
1000
0100
0010
0001
0100
0010
1000
0000
1000
0010
0100
0001
0010
0100
1000
,
0100
0010
0001
0100
0010
1000
0100
1000
0000
0001
0010
0100
1000
0100
0010
0001
,
1000
0100
0010
0100
1000
0010
0100
0001
0000
0100
0010
1000
0100
0010
0100
1000
,
0010
0100
0001
1000
0010
0100
0010
1000
0000
0001
0010
0100
1000
0010
0100
0001
,
1000
0100
0010
0100
1000
0010
0100
0010
0000
1000
0001
0100
0010
0100
0001
0010
,
0100
0010
0001
1000
0100
0010
0100
1000
0000
0010
0100
0010
1000
0100
0010
0001
,
0100
0010
0100
0001
1000
0100
0010
0100
0000
0010
0001
1000
0100
0010
0100
1000
,
0010
0100
0001
0010
0100
0010
0001
0100
0000
0010
0100
0001
1000
0010
1000
0100
,
0010
0100
1000
0001
0100
0010
1000
0100
0000
0010
0100
1000
0010
0100
0001
0010
,
0100
0010
0001
1000
0010
0100
0001
1000
0000
0100
0010
0100
1000
0010
0100
0001
,
0010
0001
1000
0100
0010
0100
1000
0001
0000
0100
0010
0100
0001
0010
0100
1000
,
0010
1000
0100
0010
0100
1000
0001
0100
0000
0010
1000
0001
0100
0010
1000
0100
,
0010
0001
0100
0010
0100
0001
1000
0100
0000
0010
0001
0100
0010
0100
0001
0010
,
0100
1000
0100
0010
0001
1000
0010
0100
0000
0010
0100
0001
1000
0100
0010
0001
,
1000
0010
0100
0001
0010
0100
0010
0001
0000
1000
0100
0010
0001
0100
0010
1000
,
0100
0010
0100
1000
0001
0100
0010
1000
0000
0010
0100
0001
0010
0100
1000
0001
,
0100
0000
0000
0000
;

//---------------dance-single - ----------------
#NOTES:
     dance-single:
     :
     Hard:
     8:
     0.399810,0.371336,0.000000,0.000000,0.276454,410.000000,0.000000,0.000000,0.000000,0.000000,0.000000,0.399810,0.371336,0.000000,0.000000,0.276454,410.000000,0.000000,0.000000,0.000000,0.000000,0.000000:
// measure 0
0000
0000
0000
0000
,  // measure 1
0000
0000
0000
0000
,  // measure 2
0000
0000
0000
0000
,  // measure 3
0000
0000
0000
0000
,  // measure 4
0010
0000
1000
0100
1000
0000
0001
0010
,  // measure 5
0001
0100
0000
0010
0000
1000
0100
0010
,  // measure 6
0001
0000
0000
1000
0000
0000
0010
0000
0000
0000
0100
0000
0001
0000
1000
0000
,  // measure 7
0100
0000
0000
0010
0000
0000
0001
0000
1000
0000
0000
0000
0010
0000
1000
0000
,  // measure 8
0001
0000
1000
0100
0000
0100
1000
0000
0001
0100
0000
0100
0001
0000
0100
0000
,  // measure 9
0010
0000
0000
0100
0000
0000
0001
0000
0000
0000
0000
0000
0010
0000
0000
0000
,  // measure 10
0000
0000
0100
1000
0000
1000
0100
0000
0010
0001
0000
0001
0010
0000
0100
0000
,  // measure 11
1000
0000
0000
0100
0000
0000
0010
0000
0000
0000
0000
0000
0001
0000
0000
0000
,  // measure 12
0100
0000
0010
1000
0100
0000
0010
0001
,  // measure 13
1000
0000
0000
0010
0000
0000
0100
0000
0000
0000
0001
0000
0010
0001
0010
0000
,  // measure 14
0001
0000
1000
0010
0100
0000
0010
1000
,  // measure 15
0001
0000
0000
0010
0000
0000
0100
0000
1000
0000
0000
0000
0010
0000
1000
0000
,  // measure 16
0100
0000
0010
0001
0000
0001
0010
0000
0001
0100
0000
0100
0001
0000
0100
0000
,  // measure 17
0010
0000
0000
1000
0000
0000
0100
0000
0000
0000
0000
0000
1000
0000
0000
0000
,  // measure 18
0000
0000
0010
1000
0000
1000
0001
0000
0010
0001
0000
0001
1000
0000
0100
0000
,  // measure 19
0010
0000
0000
0100
0000
0000
1000
0000
0010
0000
0000
0100
0000
0000
0001
0000
,  // measure 20
0010
0010
0100
0100
,  // measure 21
1000
1000
0001
0001
,  // measure 22
0100
0100
0010
0010
,  // measure 23
1000
1000
0001
0001
,  // measure 24
0010
0001
0010
0000
0100
1000
0100
0000
,  // measure 25
1000
0010
1000
0000
0001
0100
0001
0000
,  // measure 26
1000
0010
0100
0000
0001
0010
0100
0000
,  // measure 27
1000
0000
0100
0000
0010
0000
0001
0000
1000
0000
0000
0001
0000
0000
0100
0000
,  // measure 28
0010
1000
0100
0010
0000
0001
0010
1000
,  // measure 29
0000
0000
1000
0000
0010
0000
0001
0000
0100
0000
0000
0010
0000
0000
1000
0000
,  // measure 30
0100
0010
0100
1000
0000
0010
1000
0001
,  // measure 31
0000
0000
0010
0000
0001
0000
1000
0000
0100
0000
0000
0010
0000
0000
0001
0000
,  // measure 32
1000
0000
0010
1000
0000
1000
0010
0000
0100
0001
0000
0001
0100
0000
0010
0000
,  // measure 33
1000
0000
0000
0001
0000
0000
0100
0000
0000
0000
0000
0000
0010
0000
0000
0000
,  // measure 34
1000
0000
0100
0010
0000
0010
0100
0000
1000
0001
0000
0001
1000
0000
0010
0000
,  // measure 35
0100
0000
0000
0001
0000
0000
0010
0000
0000
0000
0000
0000
0001
0000
0000
0000
,  // measure 36
0100
0000
0010
1000
0100
0000
1000
0010
,  // measure 37
0001
0000
0000
0010
0000
0000
0100
0000
0000
0000
0001
0000
0100
0000
0010
0000
,  // measure 38
1000
0000
0000
0100
0000
0000
0010
0000
0001
0000
0000
0100
0000
0000
0010
0000
,  // measure 39
1000
0000
0001
1000
0100
0000
0010
0100
,  // measure 40
0010
0000
0001
0100
0000
0100
0001
0000
1000
0010
0000
0010
1000
0000
0100
0000
,  // measure 41
0010
0000
0000
0001
0000
0000
1000
0000
0000
0000
0000
0000
0100
0000
0000
0000
,  // measure 42
0010
0000
0100
1000
0000
1000
0100
0000
1000
0001
0000
0001
1000
0000
0010
0000
,  // measure 43
0100
0000
0000
0001
0000
0000
1000
0000
0010
0000
0000
1000
0000
0000
0100
0000
,  // measure 44
0010
0010
0001
0001
,  // measure 45
1000
1000
0100
0100
,  // measure 46
0010
0010
0100
0100
,  // measure 47
1000
1000
0010
0010
,  // measure 48
0100
0001
0100
0000
0010
1000
0010
0000
,  // measure 49
1000
0100
1000
0000
0001
0010
0001
0000
,  // measure 50
1000
0010
0100
0000
0001
0100
0010
0000
,  // measure 51
1000
0000
0001
0000
0100
0000
0010
0000
1000
0000
0000
0001
0000
0000
0100
0000
,  // measure 52
0010
1000
0100
1000
0000
0001
0100
1000
,  // measure 53
0000
0000
1000
0000
0100
0000
0001
0000
0010
0000
0000
0100
0000
0000
1000
0000
,  // measure 54
0010
1000
0010
0100
0000
0001
0010
0100
,  // measure 55
0000
0000
1000
0000
0100
0000
0010
0000
0001
0000
0000
1000
0000
0000
0010
0000
,  // measure 56
1000
0000
0100
1000
0000
1000
0100
0000
0010
0001
0000
0001
0010
0000
0001
0000
,  // measure 57
1000
0000
0000
0010
0000
0000
0100
0000
0001
0000
0000
0010
0000
0000
0100
0000
,  // measure 58
1000
0000
0001
0100
0000
0100
0001
0000
1000
0100
0000
0100
1000
0000
0001
0000
,  // measure 59
1000
0000
0000
0010
0000
0000
0100
0000
0001
0000
0000
1000
0000
0000
0100
0000
,  // measure 60
0010
0001
1000
0100
0000
1000
0010
0001
,  // measure 61
0000
0000
0001
0000
0010
0000
1000
0000
0010
0000
0000
0100
0000
0000
0001
0000
,  // measure 62
1000
0100
0001
0100
0000
0010
0001
0100
,  // measure 63
0000
0000
0001
0000
1000
0000
0100
0000
0010
0000
0000
0100
0000
0000
1000
0000
,  // measure 64
0010
0000
1000
0010
0000
0010
1000
0000
0001
0100
0000
0100
0001
0000
0010
0000
,  // measure 65
0100
0000
0000
1000
0000
0000
0001
0000
0100
0000
0000
0010
0000
0000
1000
0000
,  // measure 66
0100
0000
0010
0001
0000
0001
0010
0000
0100
1000
0000
1000
0100
0000
0010
0000
,  // measure 67
0001
0000
0000
1000
0000
0000
0010
0000
0000
0000
0000
0000
0100
0000
0000
0000
,  // measure 68
0001
0000
0000
0000
;

//---------------dance-single - ----------------
#NOTES:
     dance-single:
     :
     Medium:
     6:
     0.272066,0.278502,0.006826,0.000000,0.000000,278.000000,1.000000,0.000000,0.000000,0.000000,0.000000,0.272066,0.278502,0.006826,0.000000,0.000000,278.000000,1.000000,0.000000,0.000000,0.000000,0.000000:
0000
0000
0000
0000
,
0000
0000
0000
0000
,
0000
0000
0000
0000
,
0000
0000
0000
0000
,
0010
0000
1000
0001
0010
0000
0001
0010
,
0001
0100
0010
0000
,
1000
0001
0010
0000
,
0100
0000
1000
0100
0010
0000
0001
0000
,
1000
0000
0010
0000
1000
0000
0001
0010
,
0100
0010
0100
0000
,
1000
0000
0001
0000
0100
0000
0010
0100
,
0001
0010
0100
0000
,
1000
0000
0010
1000
0010
0000
1000
0001
,
1000
0000
0100
0000
0010
0000
0001
1000
,
0001
0000
0010
0001
0010
0000
0100
0000
,
1000
0000
0010
0000
0100
0000
0010
1000
,
0100
0000
0010
0000
0001
0000
1000
0001
,
0100
0010
1000
0000
,
0010
0000
1000
0000
0100
0000
0010
0100
,
1000
0001
0100
0010
,
1000
1000
0001
0001
,
0100
0100
0010
0010
,
1000
1000
0001
0001
,
0010
0010
0100
0100
,
1000
0100
1000
0000
0001
0010
0001
0000
,
1000
0010
1000
0000
0001
0100
0001
0000
,
0010
0010
0100
0100
,
1000
0010
0100
0001
,
1001
0010
0000
0010
,
0000
0000
0100
0000
0001
0000
1000
0001
,
0100
0010
0000
1000
,
0000
0000
0100
0000
0010
0000
0100
1000
,
0001
0000
0100
0000
0010
0000
1000
0001
,
1000
0010
0001
0000
,
0010
0000
0100
0000
1000
0000
0100
1000
,
0001
0100
0010
0000
,
1000
0000
0010
1000
0001
0000
0010
0001
,
1000
0100
0010
0000
,
0001
0000
0100
0010
1000
0000
0010
0100
,
0001
0010
0100
1000
,
0001
0000
0010
0000
0001
0000
1000
0100
,
0010
0100
1000
0000
,
0010
0000
1000
0000
0010
0000
0100
0001
,
1000
0010
0100
0001
,
1000
1000
0100
0100
,
0010
0010
0001
0001
,
1000
1000
0001
0001
,
0100
0100
0010
0010
,
1000
0010
1000
0000
0001
0100
0001
0000
,
1000
0100
1000
0000
0001
0010
0001
0000
,
0010
0100
1000
0000
0010
0100
0001
0000
,
1000
0000
0001
0000
0100
0000
0010
1000
,
0001
0010
0000
0100
,
1000
0000
0001
0000
0100
0000
0001
1000
,
0010
0100
0000
0001
,
1000
0000
0010
0000
1000
0000
0001
0100
,
0010
0000
1000
0000
0100
0000
0010
0100
,
1000
0100
0010
0000
,
0001
0000
1000
0000
0010
0000
0100
0001
,
1000
0010
1000
0100
,
0010
0001
0000
1000
,
0010
0000
0100
0000
0001
0000
1000
0010
,
1000
0100
0000
0010
,
0001
0000
1000
0000
0010
0000
0100
0001
,
1000
0000
0100
0000
0010
0000
0001
0100
,
1000
0010
0100
0000
,
0010
0000
1000
0000
0100
0000
0010
0100
,
1000
0001
0100
0000
,
0010
0000
0000
0000
;

//---------------dance-single - ----------------
#NOTES:
     dance-single:
     :
     Easy:
     3:
     0.182353,0.185668,0.000000,0.000000,0.000000,187.000000,0.000000,0.000000,0.000000,0.000000,0.000000,0.182353,0.185668,0.000000,0.000000,0.000000,187.000000,0.000000,0.000000,0.000000,0.000000,0.000000:
0000
0000
0000
0000
,
0000
0000
0000
0000
,
0000
0000
0000
0000
,
0000
0000
0000
0000
,
1000
0100
1000
0000
,
0010
1000
0100
0000
,
0010
0001
1000
0000
,
0001
0100
0010
1000
,
0100
0010
0100
0010
,
0001
0000
1000
0000
,
0010
0100
0010
0100
,
0001
0000
1000
0000
,
0100
1000
0010
0000
,
1000
0001
0010
0000
,
0001
0100
0010
0000
,
1000
0010
0100
0001
,
1000
0001
1000
0001
,
0100
0000
0000
0000
,
0001
1000
0001
1000
,
0010
0000
0100
0000
,
0001
0000
0010
0000
,
1000
0000
0010
0000
,
0001
0000
0100
0000
,
1000
0000
0010
0000
,
0100
0100
0001
0001
,
1000
1000
0010
0010
,
0100
0001
1000
0010
,
0100
0000
0001
0010
,
0001
0100
0000
0100
,
0000
0010
0000
1000
,
0100
0010
0000
0001
,
0000
1000
0000
0010
,
0100
0010
0100
0010
,
1000
0000
0001
0000
,
0010
0100
0010
0100
,
1000
0000
0001
0000
,
0100
0010
1000
0000
,
0010
0100
0001
0000
,
1000
0001
1000
0000
,
0100
0000
0010
0001
,
1000
0001
1000
0001
,
0100
0000
0010
0000
,
1000
0001
1000
0001
,
0010
0000
0100
0000
,
1000
0000
0100
0000
,
0010
0000
0001
0000
,
1000
0000
0010
0000
,
0100
0000
0001
0000
,
1000
1000
0001
0001
,
0010
0010
0100
0100
,
1000
0001
0010
0100
,
1000
0000
0010
1000
,
0100
0010
0000
0001
,
0000
1000
0000
0010
,
0100
0001
0000
0010
,
0000
0100
0000
1000
,
0001
1000
0001
1000
,
0100
0000
0100
0000
,
0010
0100
0010
0100
,
0010
0000
0001
0000
,
1000
0100
0000
1000
,
0000
0010
0000
0100
,
0001
0010
0000
0100
,
0000
1000
0010
0001
,
0010
0100
0010
0100
,
1000
0000
0001
0000
,
0100
0010
0100
0010
,
1000
0000
0001
0000
,
0100
0000
0000
0000
;

//---------------dance-single - ----------------
#NOTES:
     dance-single:
     :
     Beginner:
     1:
     0.143347,0.116043,0.000000,0.000000,0.000000,147.000000,0.000000,0.000000,0.000000,0.000000,0.000000,0.143347,0.116043,0.000000,0.000000,0.000000,147.000000,0.000000,0.000000,0.000000,0.000000,0.000000:
0000
0000
0000
0000
,
0000
0000
0000
0000
,
0000
0000
0000
0000
,
0000
0000
0000
0000
,
0010
0000
1000
0000
,
0100
0000
0010
0000
,
0001
0000
1000
0000
,
0010
0000
0100
0000
,
0001
0001
0001
0000
,
0010
0000
0100
0000
,
1000
1000
1000
0000
,
0100
0000
0010
0000
,
0001
0000
1000
0000
,
0010
0000
0100
0000
,
0001
0000
0010
0000
,
0100
0000
1000
0000
,
0010
0010
0010
0000
,
0100
0000
0001
0000
,
0100
0100
0100
0000
,
0010
0000
1000
0000
,
0010
0000
0010
0000
,
1000
0000
1000
0000
,
0100
0000
0100
0000
,
0010
0000
0010
0000
,
0001
0000
0001
0000
,
1000
0000
1000
0000
,
0010
0000
0010
0000
,
0100
0000
0100
0000
,
0001
0001
0000
0001
,
0000
1000
0000
1000
,
1000
1000
0000
1000
,
0000
1000
0000
0010
,
0010
0010
0000
0100
,
0000
0100
0000
0100
,
0100
0100
0000
0010
,
0000
0010
0000
0010
,
0010
0000
1000
0000
,
0100
0000
0010
0000
,
0001
0000
0010
0000
,
0100
0000
1000
0000
,
0010
0010
0010
0000
,
0100
0000
0001
0000
,
0100
0100
0100
0000
,
0010
0000
1000
0000
,
0100
0000
0100
0000
,
0010
0000
0010
0000
,
0001
0000
0001
0000
,
1000
0000
1000
0000
,
0010
0000
1000
0000
,
0100
0000
0001
0000
,
0100
0000
1000
0000
,
0100
0000
0001
0000
,
0100
0100
0000
0010
,
0000
1000
0000
0001
,
0001
0001
0000
0010
,
0000
0100
0000
1000
,
1000
1000
0000
0010
,
0000
0100
0000
0001
,
0001
0001
0000
0010
,
0000
0100
0000
1000
,
1000
1000
0000
0100
,
0000
0010
0000
0001
,
0001
0001
0000
0010
,
0000
0100
0000
1000
,
1000
1000
0000
0010
,
0000
0100
0000
0001
,
0001
0001
0000
0010
,
0000
0100
0000
1000
,
1000
0000
0000
0000
;
