#TITLE:Brinstar (Remix);
#SUBTITLE:;
#ARTIST:Koji Kondo;
#TITLETRANSLIT:;
#SUBTITLETRANSLIT:;
#ARTISTTRANSLIT:;
#GENRE:Metroid;
#CREDIT:;
#BANNER:Brinstar-bn.jpg;
#BACKGROUND:Brinstar-bg.jpg;
#LYRICSPATH:;
#CDTITLE:;
#MUSIC:Brinstar (Remix).mp3;
#OFFSET:-0.022006;
#SAMPLESTART:62.621155;
#SAMPLELENGTH:27.826084;
#LASTBEATHINT:276.000000;
#SELECTABLE:YES;
#BPMS:0.000000=138.000000
;
#STOPS:
;
#BGCHANGES:;
#KEYSOUNDS:;
#ATTACKS:;

//---------------dance-single - ----------------
#NOTES:
     dance-single:
     :
     Hard:
     8:
     0.380170,0.535387,0.196833,0.354300,0.248010,338.000000,313.000000,25.000000,45.000000,0.000000,0.000000,0.380170,0.535387,0.196833,0.354300,0.248010,338.000000,313.000000,25.000000,45.000000,0.000000,0.000000:
0000
0000
0000
0000
,
0000
0000
0000
0000
,
0000
0000
0000
0000
,
0000
0000
0000
0000
,
0000
0000
0000
0000
,
0000
0000
0000
0000
,
0010
0011
0010
1100
,
0100
1001
0100
0010
,
0100
1010
0100
1001
,
0100
0011
0100
0010
,
0200
0000
0000
0000
,
0302
0000
0000
0000
,
0203
0000
0320
0000
,
2030
0000
3002
0000
,
0203
0000
0320
0000
,
2030
0000
3002
0000
,
0023
0000
0000
0000
,
0230
0000
2300
0000
,
3002
0100
0000
0100
0000
0100
0003
0100
,
0020
0100
0000
0100
0000
0100
0030
0100
,
0002
0100
0000
0100
0000
0100
0003
0100
,
0020
0100
0030
0100
0002
0100
0003
0100
,
0001
1000
0200
1000
0000
1000
0300
1000
,
0002
1000
0000
1000
0003
1000
0010
1000
,
0200
0010
0000
0010
0000
0010
0000
0010
,
0000
0010
0000
0010
0300
0010
1001
0000
,
0102
0010
0100
0103
,
2010
0000
0000
0000
0100
0000
0000
0000
0010
0000
0000
0000
3100
1000
0001
1000
,
0200
0001
1000
0301
,
0020
0000
0000
0000
0100
0000
0000
0000
0001
0000
0000
0000
0130
0010
0001
0010
,
0200
1000
0010
1300
,
0002
0000
0000
0000
0010
0000
0000
0000
0100
0000
0000
0000
1003
0001
0100
0001
,
2000
0010
0001
3100
,
1000
0100
0010
0001
,
0100
0010
1000
0000
0010
0100
0001
0000
,
1000
0000
0010
0000
1000
0000
0000
0000
0001
0000
0010
0000
0100
1000
0001
1000
,
0010
1000
0100
0000
1000
0010
0100
0000
,
0010
0000
0100
0000
0001
0000
0000
0000
1000
0000
0010
0000
0100
0001
0010
0100
,
1000
0001
0010
0000
0001
1000
0010
0000
,
1000
0000
0010
0000
0100
0000
0000
0000
0010
0000
0100
0000
0001
1000
0100
0010
,
0001
1000
1100
0000
1000
0010
0110
0000
,
0010
1000
1001
0000
0100
0010
1001
0000
,
0012
0000
0000
1000
0000
0000
0010
0000
0000
0103
0001
1000
,
0200
0000
0000
0310
0000
0000
2000
0000
0000
3001
0010
0100
,
1000
0000
0000
2010
0000
0000
3001
0000
0000
1000
0010
0100
,
0001
0000
0000
0102
0000
0000
1003
0000
0000
0001
0100
0010
,
1000
1001
0100
1001
,
0010
0110
0001
1001
,
0100
0000
0000
1100
0000
0000
0100
0000
0000
0010
0001
1000
,
0010
0000
0000
0110
0000
0000
0100
0000
0000
0001
1000
0100
,
0020
0001
1000
0001
,
0100
1000
0130
0110
,
2002
0000
0000
3003
,
0020
0000
0000
0030
,
0002
0000
0000
0003
,
0020
0000
0000
0030
,
0100
0000
0100
1000
0000
1000
0001
0000
0001
0100
0000
0000
,
0010
0000
0010
1000
0000
1000
0001
0000
0001
0010
0000
0000
,
0100
0000
0100
1000
0000
1000
0010
0000
0010
0001
0000
0001
,
0010
0000
0010
1000
0000
1000
0100
0000
0100
0001
0000
0001
,
0100
0000
0100
0010
0000
0010
1000
0000
1000
0002
0000
0000
,
0013
0000
0010
0100
0000
0100
1000
0000
1000
0020
0000
0000
,
0130
0000
0100
0001
0000
0001
1000
0000
1000
0200
0000
0000
,
0310
0000
0010
0001
0000
0001
1000
0000
1000
0020
0000
0000
,
0130
0000
0100
0001
0000
0001
1000
0000
1000
0200
0000
0000
,
0310
0000
0010
0001
0000
0001
1000
0000
1000
0020
0000
0000
,
0130
0000
0100
0001
0000
0001
0010
0000
0010
0100
0000
0100
,
1000
0000
1000
0010
0000
0010
0100
0000
0100
0001
0000
0000
,
1001
0000
0000
0000
;

//---------------dance-single - ----------------
#NOTES:
     dance-single:
     :
     Medium:
     5:
     0.287939,0.374771,0.236200,0.165340,0.000000,256.000000,226.000000,30.000000,21.000000,0.000000,0.000000,0.287939,0.374771,0.236200,0.165340,0.000000,256.000000,226.000000,30.000000,21.000000,0.000000,0.000000:
0000
0000
0000
0000
,
0000
0000
0000
0000
,
0000
0000
0000
0000
,
0000
0000
0000
0000
,
0000
0000
0000
0000
,
0000
0000
0000
0000
,
0001
0100
0010
0100
,
1000
0010
1000
0100
,
0001
0100
0010
0100
,
1000
0010
1000
0100
,
2002
0000
0000
3003
,
0020
0000
0000
0030
,
0002
0000
0023
0000
,
0230
0000
2300
0000
,
3002
0000
0023
0000
,
0032
0000
2003
0000
,
3020
0000
0000
0000
,
0230
0000
0302
0000
,
1003
1000
1000
1000
,
0100
0100
0100
0100
,
0001
0001
0001
0001
,
0100
0100
1000
1000
,
0001
1000
0100
0000
0100
0000
0100
0000
,
1000
0000
1000
0000
1000
0000
0100
0010
,
0001
0001
0001
0001
,
0001
0001
0001
1001
,
0010
0010
0010
0010
,
1000
0000
1000
0000
1000
0000
0001
0010
,
0100
0100
0100
0100
,
1000
0000
1000
0000
1000
0000
0010
1000
,
0001
0001
0001
0001
,
0010
0000
0010
0000
0010
0000
0100
1000
,
0010
0010
0010
0010
,
0010
0010
0010
0010
,
0100
1001
0100
1001
,
0010
0000
1001
0000
0010
0000
1000
0001
,
1000
1001
0001
1001
,
0010
0000
1001
0000
1000
0000
0001
0100
,
0001
1001
0100
1001
,
0100
0000
1001
0000
0100
0000
0010
0100
,
0010
1000
0100
0010
,
0001
0100
0010
1001
,
0010
0000
1001
0000
0010
0000
1000
0001
,
0010
0000
1001
0000
0010
0000
0001
0100
,
0001
0000
1001
0000
0100
0000
1000
0010
,
1000
0000
1001
0000
0010
0000
0100
0010
,
0100
1001
0100
0001
,
0010
1100
0010
0101
,
0100
0000
0010
0000
0100
0000
0010
1000
,
0001
0000
1001
0000
0010
0000
0001
1000
,
0001
1001
0100
0010
,
0100
0010
0100
0110
,
2002
0000
0000
3003
,
0020
0000
0000
0030
,
0002
0000
0000
0003
,
0020
0000
0000
0030
,
0200
0000
0000
0300
,
2000
0000
0000
3000
,
0001
0001
0001
0001
,
0010
0010
0100
0100
,
1000
0100
1000
1001
,
0001
0100
0001
1001
,
1000
0010
1000
1001
,
0001
0010
0001
1001
,
0010
0100
0010
1001
,
0100
0010
0100
1001
,
1000
0010
1000
0100
,
0001
0100
0001
0010
,
1001
0000
0000
0000
;

//---------------dance-single - ----------------
#NOTES:
     dance-single:
     :
     Easy:
     3:
     0.166465,0.267693,0.070860,0.393667,0.000000,148.000000,139.000000,9.000000,50.000000,0.000000,0.000000,0.166465,0.267693,0.070860,0.393667,0.000000,148.000000,139.000000,9.000000,50.000000,0.000000,0.000000:
// measure 0
0000
0000
0000
0000
,  // measure 1
0000
0000
0000
0000
,  // measure 2
0000
0000
0000
0000
,  // measure 3
0000
0000
0000
0000
,  // measure 4
0000
0000
0000
0000
,  // measure 5
0000
0000
0000
0000
,  // measure 6
0001
0000
0010
0000
,  // measure 7
0100
0000
0010
0000
,  // measure 8
0001
0001
0001
0001
,  // measure 9
1000
1000
1000
1000
,  // measure 10
2002
0000
0000
3003
,  // measure 11
0020
0000
0000
0030
,  // measure 12
0002
0003
0020
0030
,  // measure 13
0200
0300
2000
3000
,  // measure 14
0002
0003
0020
0030
,  // measure 15
0002
0003
2000
3000
,  // measure 16
0020
0000
0000
0030
,  // measure 17
0200
0300
0002
0003
,  // measure 18
1000
1000
1000
0000
,  // measure 19
0100
0100
0100
0000
,  // measure 20
0001
0001
0001
0000
,  // measure 21
0200
0300
0020
0030
,  // measure 22
1000
0100
0100
0100
,  // measure 23
0010
0010
0010
0001
,  // measure 24
0100
0100
0100
0100
,  // measure 25
0100
0100
0200
0300
,  // measure 26
0020
0030
0010
0010
,  // measure 27
2000
3000
1000
0001
,  // measure 28
0020
0030
0100
0100
,  // measure 29
2000
3000
1000
0010
,  // measure 30
0200
0300
0001
0001
,  // measure 31
0020
0030
0010
0100
,  // measure 32
2000
3000
0002
0003
,  // measure 33
0200
0300
0020
0030
,  // measure 34
0200
0300
0100
0100
,  // measure 35
0002
0003
1000
0010
,  // measure 36
2000
3000
0001
1000
,  // measure 37
0002
0003
0010
0001
,  // measure 38
0020
0030
0100
1000
,  // measure 39
0200
0300
1000
0001
,  // measure 40
2000
3000
0020
0030
,  // measure 41
0002
0003
0020
0030
,  // measure 42
2000
0000
3000
0100
,  // measure 43
0002
0003
0200
0300
,  // measure 44
0002
0000
0003
0100
,  // measure 45
2000
3000
0200
0300
,  // measure 46
0020
0000
0000
0030
,  // measure 47
0002
0003
2000
3000
,  // measure 48
0002
0000
0003
0010
,  // measure 49
2000
3000
0020
0030
,  // measure 50
0002
0000
0000
0000
,  // measure 51
0000
0000
0000
0003
,  // measure 52
1001
0000
0000
0000
,  // measure 53
0010
0000
0000
0000
,  // measure 54
1000
0000
0000
0000
,  // measure 55
0010
0000
0000
0000
,  // measure 56
0001
0000
0000
0000
,  // measure 57
0010
0000
0000
0000
,  // measure 58
1000
0000
0000
0000
,  // measure 59
0001
0000
0010
0000
,  // measure 60
0010
0000
0000
0110
,  // measure 61
0100
0000
0000
1001
,  // measure 62
1000
0000
0000
0110
,  // measure 63
0010
0000
0000
1001
,  // measure 64
0001
0000
0000
0110
,  // measure 65
0100
0000
0000
1001
,  // measure 66
1000
0000
0001
0000
,  // measure 67
0100
0100
0100
0100
,  // measure 68
1001
0000
0000
0000
;

//---------------dance-single - ----------------
#NOTES:
     dance-single:
     :
     Beginner:
     1:
     0.107977,0.160616,0.055113,0.023620,0.000000,96.000000,89.000000,7.000000,3.000000,0.000000,0.000000,0.107977,0.160616,0.055113,0.023620,0.000000,96.000000,89.000000,7.000000,3.000000,0.000000,0.000000:
// measure 0
0000
0000
0000
0000
,  // measure 1
0000
0000
0000
0000
,  // measure 2
0000
0000
0000
0000
,  // measure 3
0000
0000
0000
0000
,  // measure 4
0000
0000
0000
0000
,  // measure 5
0000
0000
0000
0000
,  // measure 6
0001
0000
0010
0000
,  // measure 7
0001
0000
0010
0000
,  // measure 8
0100
0000
1000
0000
,  // measure 9
0100
0000
1000
0000
,  // measure 10
1001
0000
0000
0000
,  // measure 11
0010
0000
0000
0000
,  // measure 12
0001
0000
0010
0000
,  // measure 13
0001
0000
0010
0000
,  // measure 14
0100
0000
1000
0000
,  // measure 15
0100
0000
1000
0000
,  // measure 16
0100
0000
0000
0000
,  // measure 17
1000
0000
0001
0000
,  // measure 18
1000
0000
0000
0000
,  // measure 19
0010
0000
0000
0000
,  // measure 20
1000
0000
0000
0000
,  // measure 21
0010
0000
0100
0000
,  // measure 22
0001
0002
0000
0003
,  // measure 23
0020
0000
0030
0100
,  // measure 24
0200
0000
0000
0000
,  // measure 25
0000
0000
0000
0300
,  // measure 26
1001
0000
0000
0000
,  // measure 27
0010
0000
0000
0000
,  // measure 28
1001
0000
0000
0000
,  // measure 29
0010
0000
0000
0000
,  // measure 30
1001
0000
0000
0000
,  // measure 31
0010
0000
0000
0000
,  // measure 32
1001
0000
0000
0000
,  // measure 33
0000
0000
0000
0000
,  // measure 34
0001
0001
0000
0001
,  // measure 35
0000
1000
0000
1000
,  // measure 36
0000
0010
0000
0010
,  // measure 37
0000
0100
0000
0100
,  // measure 38
0000
0010
0000
0010
,  // measure 39
0000
1000
0000
1000
,  // measure 40
0000
0001
0000
0001
,  // measure 41
0000
1000
0000
1000
,  // measure 42
1000
0000
0000
0100
,  // measure 43
0100
0000
0010
0000
,  // measure 44
0001
0000
0000
0010
,  // measure 45
0010
0000
1000
0000
,  // measure 46
0010
0000
0000
0000
,  // measure 47
0010
0000
0010
0000
,  // measure 48
0100
0000
0000
1000
,  // measure 49
1000
0000
0001
0000
,  // measure 50
0010
0000
0000
0000
,  // measure 51
0000
0000
0000
0000
,  // measure 52
1001
0000
0000
0000
,  // measure 53
0010
0000
0000
0000
,  // measure 54
0001
0000
0000
0000
,  // measure 55
0010
0000
0000
0000
,  // measure 56
0001
0000
0000
0000
,  // measure 57
0010
0000
0000
0000
,  // measure 58
0001
0000
0001
0000
,  // measure 59
1000
0000
1000
0000
,  // measure 60
0001
0000
0000
0000
,  // measure 61
0010
0000
0000
0000
,  // measure 62
1000
0000
0000
0000
,  // measure 63
0010
0000
0000
0000
,  // measure 64
0100
0000
0000
0000
,  // measure 65
0001
0000
0000
0000
,  // measure 66
1000
0000
0000
0000
,  // measure 67
0000
0000
0000
0000
,  // measure 68
1001
0000
0000
0000
;
