#TITLE:Blue Jeans (Kris Menace Remix);
#SUBTITLE:;
#ARTIST:Lana Del Rey;
#TITLETRANSLIT:;
#SUBTITLETRANSLIT:;
#ARTISTTRANSLIT:;
#GENRE:Born To Die;
#CREDIT:;
#BANNER:Blue Jeans (Kris Menace Remix)-bn.jpg;
#BACKGROUND:Blue Jeans (Kris Menace Remix)-bg.jpg;
#LYRICSPATH:;
#CDTITLE:;
#MUSIC:Blue Jeans (Kris Menace Remix).mp3;
#OFFSET:-0.022000;
#SAMPLESTART:65.093002;
#SAMPLELENGTH:24.402000;
#LASTBEATHINT:227.927689;
#SELECTABLE:YES;
#DISPLAYBPM:118.000000;
#BPMS:0.000000=118.025002
;
#STOPS:
;
#BGCHANGES:;
#KEYSOUNDS:;
#ATTACKS:;

//---------------dance-single - Blank----------------
#NOTES:
     dance-single:
     :
     Hard:
     7:
     0.372888,0.427126,0.110171,0.008475,0.033899,294.000000,13.000000,1.000000,0.000000,0.000000,0.000000,0.372888,0.427126,0.110171,0.008475,0.033899,294.000000,13.000000,1.000000,0.000000,0.000000,0.000000:
0000
0000
0000
0000
,
0000
0000
0000
0000
,
0000
0000
0000
0000
,
0000
0000
0000
0000
,
1000
0010
0100
0000
0001
0000
1000
0000
,
0001
1000
0100
0000
1000
0000
0001
0000
,
1000
0010
0100
0001
,
0010
0001
0100
0010
,
1000
0001
0100
0000
0010
0000
0100
0000
,
0001
1000
0100
0000
0010
0000
0100
0000
,
1000
0010
1000
0000
0001
0000
0100
0000
,
0010
0100
0001
1000
,
0001
0010
0001
0000
0100
0000
1000
0000
,
0100
0010
0100
0000
0010
0000
1000
0000
,
0100
1000
0001
0000
1000
0000
0100
0000
,
0010
0100
1000
0001
,
0100
0000
0010
1000
0100
0000
1000
0000
,
0001
0000
0010
0001
0100
0000
0001
0000
,
1000
0010
1000
0000
0100
0000
0010
0000
,
0100
0000
1001
0000
1100
0000
1000
0001
,
1000
0000
0001
0100
0010
0000
0100
0000
,
0001
0000
1000
0100
0010
0000
0100
0000
,
1000
0001
0100
0010
,
0100
0101
1100
1000
,
0001
1000
0100
1000
0001
0000
0001
0000
,
1000
0001
0100
0001
1000
0000
1000
0001
,
0100
0010
0100
0001
1000
0000
0001
0000
,
0100
0010
0100
0001
1000
0000
0001
0000
,
0010
0000
0100
0010
0001
0000
1000
0000
,
0100
0000
0010
0100
1000
0000
0001
0000
,
0100
0001
1000
0010
1000
0001
0001
1000
,
0100
1000
0001
1000
1000
0001
1000
0100
,
0110
0000
0010
0000
0001
1000
0100
1000
,
0001
0000
1000
0001
0100
0000
0010
0000
,
1001
0100
0001
1000
,
0010
0010
1000
1000
0001
1000
0001
1000
,
0100
0000
0010
0000
0001
1000
0010
0100
,
0001
0000
0010
0100
0010
0000
0011
0000
,
1100
0000
0100
0000
1000
0001
0100
0000
,
0001
0100
0010
1000
0001
1000
0100
1000
,
0001
2100
0001
3100
,
1000
0001
0100
0101
0001
1000
0100
0000
,
0010
0001
0100
0010
1000
0000
0001
0000
,
0010
0001
0100
0010
1000
0000
0001
1000
,
0010
0000
1000
0000
0100
1000
0001
0100
,
0010
0000
0100
0010
1000
0000
0001
0000
,
1001
0010
0001
0100
,
0010
1000
0100
0010
,
0100
1000
0001
0000
1000
0100
1000
0000
,
0010
1000
0001
0000
0100
0001
0100
0000
,
0010
0000
0110
0000
0100
0001
1000
0000
,
0100
0000
0110
0000
0100
1000
0001
0000
,
1000
0000
0010
0000
0100
0000
0010
0000
1000
0000
0001
0000
1000
0100
0000
0100
,
1000
0000
0010
0000
0100
0000
0001
0000
0010
0000
0100
0000
0010
0001
0000
0001
,
1000
0000
0001
0000
0100
0000
0010
0000
0100
0000
0001
0000
1000
0100
0000
0100
,
0010
0000
0001
0000
1000
0000
0100
0000
0010
0000
0100
0000
1000
0010
0000
0010
,
0100
0000
0000
0000
;

//---------------dance-single - Blank----------------
#NOTES:
     dance-single:
     :
     Medium:
     5:
     0.265138,0.284751,0.042374,0.144070,0.000000,197.000000,5.000000,17.000000,0.000000,0.000000,0.000000,0.265138,0.284751,0.042374,0.144070,0.000000,197.000000,5.000000,17.000000,0.000000,0.000000,0.000000:
0000
0000
0000
0000
,
0000
0000
0000
0000
,
0000
0000
0000
0000
,
0000
0000
0000
0000
,
1000
0100
1000
0000
,
0001
0100
0010
0000
,
1000
0001
0100
0000
,
0001
0010
0100
1000
,
0001
0010
0001
0000
,
1000
0100
0010
0000
,
0100
1000
0001
0000
,
0100
0010
0100
0001
,
1000
0100
0010
0000
,
0100
1000
0001
0000
,
1000
0010
0100
0000
,
0001
1000
0100
0010
,
0100
0010
0010
0000
,
0001
1000
1000
0000
,
0010
1000
0010
0000
1000
0000
0001
0000
,
0100
0001
0100
0000
0010
0000
0100
0000
,
0001
1000
1000
0000
,
0100
0010
0010
0000
,
0001
0100
0001
0000
1000
0000
0100
0000
,
0010
0100
0010
0000
0001
0000
1000
0000
,
0100
0010
0100
0100
,
0010
0001
0100
0100
,
0010
0000
1000
0001
1000
0000
0001
0000
,
0100
0000
0010
0100
0010
0000
1000
0000
,
0100
0000
0010
0100
0010
0000
0001
0000
,
1000
0001
0001
0000
,
0100
0010
0100
0000
0001
0000
1000
0000
,
0010
0100
0010
0000
1000
0000
0001
0000
,
0110
0000
0010
0010
,
0200
0302
0023
2030
,
3200
0000
0000
0300
,
0010
0100
1000
0001
1000
0000
0001
0000
,
0100
0000
0010
0100
,
0020
2030
3200
0302
,
0023
0000
0000
0030
,
1000
0001
1000
0100
0010
0000
0001
0000
,
0200
0010
0001
0310
,
0000
0002
0010
1003
,
0001
1000
0001
1000
0100
0000
0000
0000
,
0001
1000
0001
1000
0100
0000
0010
0000
,
1001
0000
0010
0010
,
2000
3200
0302
0023
,
0230
0000
0000
0300
,
0010
0000
0100
0100
,
1001
0010
1000
0100
,
1000
0001
0100
0001
,
1000
0010
1000
1100
,
0001
0010
0001
0101
,
1000
0100
0010
0001
,
1000
0001
0100
0010
,
0100
0001
1000
0100
,
0010
0001
0100
0010
,
0100
0000
0000
0000
;

//---------------dance-single - Blank----------------
#NOTES:
     dance-single:
     :
     Easy:
     3:
     0.186444,0.189834,0.008475,0.033899,0.000000,149.000000,1.000000,4.000000,0.000000,0.000000,0.000000,0.186444,0.189834,0.008475,0.033899,0.000000,149.000000,1.000000,4.000000,0.000000,0.000000,0.000000:
// measure 0
0000
0000
0000
0000
,  // measure 1
0000
0000
0000
0000
,  // measure 2
0000
0000
0000
0000
,  // measure 3
0000
0000
0000
0000
,  // measure 4
1000
0000
0100
0000
,  // measure 5
0010
0001
0100
0000
,  // measure 6
0001
0000
1000
0000
,  // measure 7
0010
1000
0100
0000
,  // measure 8
1000
0100
1000
0000
,  // measure 9
0001
0100
0001
0000
,  // measure 10
1000
0000
0010
0000
,  // measure 11
1000
0001
0100
0000
,  // measure 12
0010
0000
0100
0000
,  // measure 13
0001
1000
0100
0000
,  // measure 14
0010
0100
1000
0000
,  // measure 15
0001
0100
0010
0000
,  // measure 16
2000
0001
3001
0000
,  // measure 17
0002
1000
1003
0000
,  // measure 18
0010
0000
0100
0000
,  // measure 19
0001
1000
0100
0000
,  // measure 20
0020
0100
0130
0000
,  // measure 21
0200
0010
0310
0000
,  // measure 22
0001
1000
0010
0000
,  // measure 23
0100
0010
1000
0000
,  // measure 24
0001
0100
0001
0100
,  // measure 25
0010
1000
0010
1000
,  // measure 26
0100
0100
0100
0000
,  // measure 27
0010
0100
1000
0000
,  // measure 28
0001
1000
0100
0000
,  // measure 29
1000
0001
0100
0000
,  // measure 30
0010
0000
1000
0000
,  // measure 31
0001
0000
0100
0000
,  // measure 32
1001
0000
0001
0001
,  // measure 33
1000
0010
1000
0010
,  // measure 34
0100
0000
0010
0000
,  // measure 35
1000
0100
0010
0001
,  // measure 36
1000
0000
0001
1000
,  // measure 37
0001
0100
0001
0100
,  // measure 38
0010
0000
0100
0000
,  // measure 39
0010
0100
0010
0100
,  // measure 40
0001
1000
0100
0100
,  // measure 41
0001
1000
0100
0100
,  // measure 42
0001
0000
0001
0000
,  // measure 43
1000
0000
1000
0000
,  // measure 44
0010
0000
1000
1000
,  // measure 45
0001
0100
0001
0100
,  // measure 46
0010
0000
1000
0000
,  // measure 47
0100
0000
0010
0000
,  // measure 48
0100
0000
0100
0000
,  // measure 49
1000
0000
0001
1000
,  // measure 50
0100
0000
0010
0000
,  // measure 51
0001
0000
0100
0010
,  // measure 52
0100
0000
0001
0000
,  // measure 53
1000
0001
0100
0000
,  // measure 54
0010
0000
0100
0000
,  // measure 55
0001
1000
0100
0000
,  // measure 56
0010
0000
0000
0000
;

//---------------dance-single - Blank----------------
#NOTES:
     dance-single:
     :
     Beginner:
     1:
     0.108961,0.142375,0.016949,0.000000,0.000000,88.000000,2.000000,0.000000,0.000000,0.000000,0.000000,0.108961,0.142375,0.016949,0.000000,0.000000,88.000000,2.000000,0.000000,0.000000,0.000000,0.000000:
0000
0000
0000
0000
,
0000
0000
0000
0000
,
0000
0000
0000
0000
,
0000
0000
0000
0000
,
1000
0000
0001
0000
,
1000
0000
0001
0000
,
0100
0000
0000
0000
,
0000
0000
0000
0000
,
0001
0000
1000
0000
,
0001
0000
1000
0000
,
0100
0000
0000
0000
,
0100
0000
0000
0000
,
0010
0000
0100
0000
,
0010
0000
0100
0000
,
1000
0000
0000
0000
,
1000
0000
0000
0000
,
0000
0010
0010
0000
,
0000
0010
0010
0000
,
1000
0000
0001
0000
,
1000
0000
0001
0000
,
0000
0100
0100
0000
,
0000
0100
0100
0000
,
0001
0000
1000
0000
,
0001
0000
1000
0000
,
0100
0000
0100
0000
,
0010
0000
0010
0000
,
0001
0000
0100
0000
,
1000
0000
0100
0000
,
0000
0010
0010
0000
,
0000
0100
0100
0000
,
0001
0000
0000
0000
,
1000
0000
0000
0000
,
1001
0000
0010
0000
,
1000
0000
0100
0000
,
0001
0000
0000
0000
,
1000
0000
0000
0000
,
0001
0000
0010
0000
,
1000
0000
0100
0000
,
0001
0000
0000
0000
,
1000
0000
0000
0000
,
0000
0100
0100
0100
,
0000
0010
0010
0010
,
0010
0000
0010
0000
,
0010
0000
0010
0000
,
1000
0000
0100
0000
,
0001
0000
0010
0000
,
1000
0000
0000
0000
,
0001
0000
0000
0000
,
1001
0000
1000
0000
,
0001
0000
1000
0000
,
0100
0000
0000
0000
,
0010
0000
0000
0000
,
0001
0000
0100
0000
,
0010
0000
1000
0000
,
0100
0000
0000
0000
,
0010
0000
0000
0000
,
0001
0000
0000
0000
;

//---------------dance-single - ----------------
#NOTES:
     dance-single:
     :
     Challenge:
     10:
     0.621076,0.759335,0.093222,0.101697,0.457635,490.000000,11.000000,12.000000,0.000000,0.000000,0.000000,0.621076,0.759335,0.093222,0.101697,0.457635,490.000000,11.000000,12.000000,0.000000,0.000000,0.000000:
0000
0000
0000
0000
,
0000
0000
0000
0000
,
0000
0000
0000
0000
,
0000
0000
0000
0000
,
1000
0010
0100
0010
1000
0001
0100
0001
1000
0010
0100
0001
1000
0000
0000
0000
,
0001
0000
0010
0100
1000
0000
0001
0000
0010
0000
0100
1000
0001
0000
0000
0000
,
0100
0000
0010
1000
0100
0000
1000
0000
1000
0000
0001
0100
0010
0000
0000
0000
,
0010
0000
0010
0100
0001
0000
1000
0000
1000
0000
0010
0100
0001
0000
1000
0000
,
0001
0100
0010
1000
0001
0100
0010
1000
0001
0010
0100
1000
0001
0100
0010
1000
,
0001
0000
0010
0100
1000
0000
0000
0000
0001
0000
0010
0100
1000
0010
0100
0001
,
1000
0010
0100
0001
0010
0100
1000
0001
0010
0100
1000
0001
0010
0100
1000
0001
,
0010
0001
0100
0010
1000
0100
0010
0001
0100
0010
1000
0100
0010
0001
0100
0010
,
1000
0100
0010
0001
0100
0010
1000
0100
0010
0001
1000
0010
0100
0001
1000
0010
,
0100
0001
1000
0010
0100
0001
1000
0010
0100
0001
1000
0010
0100
0001
1000
0010
,
0100
0000
0001
1000
0100
0000
0000
0000
0100
0000
0000
0000
0100
0000
0000
0000
,
0100
1000
0100
1000
0000
0100
1000
0100
1000
0001
0100
0001
0000
0100
0001
0100
,
0001
0000
1000
0010
0100
0000
0001
0000
0001
0000
1000
0010
0100
0000
0000
0000
,
0001
0000
0010
0100
1000
0000
0001
0000
0001
0000
0010
0100
1000
0000
0000
0000
,
0001
0000
1000
0100
0010
0000
0100
0000
1000
0000
0001
0100
0010
0000
0100
0000
,
0010
0000
1000
0010
0100
0000
0000
0000
0001
0000
1000
0100
1000
0000
0001
0000
,
0001
0000
1000
0010
1000
0000
0001
0000
0100
0000
0010
0100
0001
0000
0000
0000
,
1000
0000
0010
0100
0001
0000
1000
0000
0010
0000
1000
0001
1000
0000
0000
0000
,
0100
0000
1000
0001
0100
0000
0001
0000
1000
0000
0010
1000
0100
0000
1000
0000
,
0001
1000
0001
0100
1001
0000
0100
0000
,
0010
0000
1000
0100
0010
0000
0001
0000
1000
0000
0001
0000
0101
0000
0000
0000
,
0100
0000
0001
0100
0010
0000
1000
0000
0001
0000
1000
0000
1100
0000
0100
0000
,
1000
0001
0100
0001
1000
0001
0101
0000
,
0001
1000
0100
1000
0001
1000
0001
0100
,
0000
0000
0010
0000
1000
0000
0100
0000
1000
0000
0010
0100
0001
0000
0000
0000
,
1000
0000
0001
0100
0010
0000
0100
0000
0001
0000
1000
0010
0100
0000
0000
0000
,
0001
1000
0010
0100
0001
1000
0100
0010
,
0100
1000
0001
0010
0100
0010
0001
1000
,
0120
0130
1001
0100
2000
0010
3001
0100
,
0010
1000
0001
0100
0020
0100
1030
0000
,
1001
0100
0001
0100
1000
0002
0103
0000
,
0001
0100
1000
0100
0001
0010
0100
1000
,
0010
1000
0100
1000
0002
0010
1003
0001
,
1000
0100
0010
0001
0200
0010
0301
1000
,
0010
0100
0001
1000
0010
2000
3100
0000
,
0010
0100
1000
0001
0010
0200
1300
0001
,
1100
0000
1000
0010
0001
0100
0101
0000
,
0100
0001
0010
1000
0100
1000
1100
0000
,
1000
0100
0001
1000
0010
0001
1000
0000
,
0001
0100
1000
0001
0010
1000
0001
1000
,
0100
0010
1001
0100
0002
0010
1003
0001
,
0100
0010
1000
0100
0020
0100
0031
1000
,
0100
1000
0001
0100
0020
0100
1030
0001
,
0100
0010
1000
0100
0020
0100
0031
1000
,
0100
0000
0010
0001
0100
0000
0001
0000
1000
0000
0010
1000
0010
0000
0000
0000
,
1000
0000
0100
0010
0001
0000
1000
0000
0001
0000
0100
0010
1000
0000
0000
0000
,
0001
0000
1000
0001
0100
0000
0001
0000
1000
0000
0001
1000
0100
0000
0000
0000
,
0010
0000
0001
0010
0100
0000
1000
0000
0001
0000
0100
0010
1000
0000
0001
0000
,
1000
0000
0010
0000
0001
0000
0010
1000
0100
0000
0010
1000
0100
0010
0000
0010
,
0001
0000
0010
0000
1000
0000
0010
0001
0100
0000
0010
0001
0100
0010
0000
0010
,
1000
0000
0010
0000
0001
0000
0010
1000
0100
0000
0010
1000
0100
0010
0000
0010
,
0001
0000
0010
0000
1000
0000
0010
0001
0100
0000
0010
0001
0100
0010
0000
0010
,
1000
0000
0000
0000
;
