#TITLE:Blood In The Wine;
#SUBTITLE:;
#ARTIST:Aurora;
#TITLETRANSLIT:;
#SUBTITLETRANSLIT:;
#ARTISTTRANSLIT:;
#GENRE:The Gods We Can Touch;
#CREDIT:[Ness];
#BANNER:Blood In The Wine.png;
#BACKGROUND:Blood In The Wine-bg.png;
#LYRICSPATH:;
#CDTITLE:;
#MUSIC:Blood In The Wine.mp3;
#OFFSET:-0.015000;
#SAMPLESTART:106.653610;
#SAMPLELENGTH:21.333336;
#LASTBEATHINT:201.976044;
#SELECTABLE:YES;
#BPMS:0.000000=90.000000
;
#STOPS:
;
#BGCHANGES:;
#KEYSOUNDS:;
#ATTACKS:;

//---------------dance-single - ----------------
#NOTES:
     dance-single:
     :
     Hard:
     8:
     0.349125,0.378477,0.180227,0.324408,0.410917,339.000000,314.000000,25.000000,45.000000,0.000000,0.000000,0.349125,0.378477,0.180227,0.324408,0.410917,339.000000,314.000000,25.000000,45.000000,0.000000,0.000000:
0000
0000
0000
0000
,
0000
0000
0000
0000
,
0000
0000
0000
0000
,
0000
0000
0000
0000
,
0000
0000
0000
0000
,
2000
0000
3000
2000
0000
3000
2000
0000
3010
1000
0100
0010
,
0002
0000
0003
0002
0000
1003
0001
0100
0010
0100
0001
1000
,
0200
0000
0300
0200
0000
0310
0200
0000
1300
0100
0010
0001
,
0020
0000
0000
0000
0030
0000
0020
0000
0000
0000
0031
0000
0010
0000
0100
0000
1000
0000
0100
0000
0000
0010
0000
0000
,
0001
0000
1000
0100
0000
0010
0000
0100
0000
1000
0000
0001
0000
0000
0000
1000
,
0010
0000
0000
0000
0000
0000
0100
0000
0000
0000
0000
0000
0001
0000
0000
0100
0000
0000
0000
0000
0000
0010
0000
0000
0000
0000
0000
1000
0000
0000
0000
0000
0000
0001
0000
0000
0000
0000
0000
0000
0010
0000
0000
0000
0100
0000
0000
0000
,
1000
0000
0000
1000
0010
0100
0002
0000
0000
1000
0000
0000
,
0103
0000
0000
0000
0001
0000
0000
0001
1000
0000
0100
0000
0010
0000
0001
0000
,
0200
0000
0000
1000
0000
0000
0010
0000
0000
0301
0000
1000
,
0010
0000
1000
0000
0100
0000
1000
0000
0001
0000
1000
0000
0100
0000
0000
0010
0000
0000
0001
0000
0000
0100
0000
0000
,
0001
1000
0000
0000
0101
0000
0100
0001
0000
0000
0000
0000
0101
0100
0000
0000
,
0010
1000
0000
0000
1010
0000
0001
0010
0000
0000
0001
1000
0010
0100
0000
0000
,
2000
0001
0000
0000
3100
0000
0000
0000
0002
1000
0000
0000
0013
0000
0000
0000
,
1000
0010
0000
0000
0100
0001
0000
0000
1000
0000
0001
0100
0010
0100
0010
0000
,
1000
0100
0000
0000
0011
0000
1000
0010
0000
0000
0000
0000
0110
0100
0000
0000
,
1000
0001
0000
0000
1010
0000
1000
0100
0000
0000
0000
0000
1001
0001
0000
0000
,
0020
0100
0000
0000
0031
0000
0000
0000
0200
0010
0000
0000
1300
0000
0000
0000
,
0001
0100
0000
0000
0100
1000
0000
0000
1000
0001
0000
0000
0001
0100
0000
0000
,
0001
0000
0000
0000
0101
0000
0000
0000
0001
0000
1000
0100
0010
0000
0200
0000
,
0000
0000
1300
0000
1100
0000
0000
0000
1000
0000
0010
0100
0001
0000
0200
0000
,
0000
0000
0310
0000
0101
0000
0000
0000
0001
0000
1000
0001
0010
0000
0200
0000
,
0000
0310
1001
0100
1000
0100
1001
0000
,
1000
0000
0000
1000
0001
0000
0000
0001
0100
0000
0010
0000
1000
0000
0001
0000
,
0100
0200
0000
0000
0310
0000
0100
0002
0000
0000
0000
0000
1000
0000
0000
0000
,
1003
0200
0000
0000
0310
0000
0100
2000
0000
0000
0000
0000
0001
0000
0000
0000
,
3001
0020
0000
0000
0001
0000
0000
0030
0010
0200
0000
0000
0010
0000
0000
0300
,
0100
1000
0000
0000
1000
0010
0000
0000
0100
0000
0001
1000
0001
1000
0100
0000
,
2000
0001
0000
0000
3010
0000
0100
0020
0000
0000
0000
0000
0130
0100
0000
0000
,
0001
0200
0000
0000
0310
0000
1000
0200
0000
0000
0000
0000
0310
0001
0000
0000
,
2000
0002
0000
0000
0000
0000
3003
0000
0200
0020
0000
0000
0000
0000
0330
0000
,
1000
0010
0000
0000
0010
0001
0000
0000
1000
0010
0000
0000
0001
0010
0000
0000
,
0000
0000
0000
0000
2200
0000
0000
0000
3300
0000
0010
1000
0100
0000
1000
0000
,
0001
0000
1000
0000
0101
0000
0000
0000
0000
0000
0010
0001
0100
0000
0001
0000
,
1000
0001
0110
0000
0000
1000
0100
0001
,
0100
0010
1001
0000
0100
0000
1001
0000
,
0001
1000
0000
0000
1100
0000
0001
1000
0000
0000
0000
0000
0110
0010
0000
0000
,
1000
0001
0000
0000
0110
0000
1000
0100
0000
0000
1000
0001
0100
0010
0000
0000
,
2000
0010
0000
0000
3001
0000
0000
0000
0200
1000
0000
0000
0310
0000
0000
0000
,
0100
0001
0000
0000
1000
0100
0000
0000
0010
0000
0001
1000
0100
0010
0100
0000
,
1000
0200
0000
0000
0310
0000
1000
0100
0000
0000
0000
0000
0101
0100
0000
0000
,
0001
0010
0000
0000
0011
0000
0100
0020
0000
0000
0000
0000
0031
0100
0000
0000
,
0200
1000
0000
0000
0301
0000
0000
0000
0020
0001
0000
0000
1030
0000
0000
0000
,
1000
0100
0000
0000
0100
0010
0000
0000
0010
1000
0000
0000
1000
0001
0000
0000
,
0102
0013
0102
0013
,
2200
0000
0000
0000
,
3300
0000
0000
0000
;

//---------------dance-single - ----------------
#NOTES:
     dance-single:
     :
     Medium:
     5:
     0.197735,0.252318,0.086509,0.309990,0.028836,192.000000,180.000000,12.000000,43.000000,0.000000,0.000000,0.197735,0.252318,0.086509,0.309990,0.028836,192.000000,180.000000,12.000000,43.000000,0.000000,0.000000:
0000
0000
0000
0000
,
0000
0000
0000
0000
,
0000
0000
0000
0000
,
0000
0000
0000
0000
,
0000
0000
0000
0000
,
0100
0000
0100
0000
1000
0000
1000
0100
,
0001
0000
0001
0000
1000
0100
1000
0000
,
0001
0000
0001
0000
0010
0000
0100
0010
,
0001
0000
0100
0000
0010
1000
0010
0000
,
1000
0100
0001
0010
,
2000
3100
0002
0013
,
0110
0100
1001
0100
,
0002
0000
1003
0001
,
0200
0000
0000
0300
,
0010
1000
0100
0010
,
0002
0000
1003
0100
0010
0000
0110
0000
,
2000
0000
3010
0100
0001
1000
0100
0000
,
2000
0002
0000
0000
0000
0000
3003
0000
0200
0020
0000
0000
0000
0000
0330
0000
,
1000
0010
1000
0000
0100
0000
0101
0000
,
1000
0001
0100
0010
2000
0000
3100
0000
,
1000
0001
0100
0010
2000
0000
3100
0000
,
0002
0020
0000
0000
0000
0000
0033
0000
2000
0020
0000
0000
0000
0000
3030
0000
,
0100
0010
1000
0001
,
0200
0000
0000
0000
0300
0001
1000
0200
,
0000
0000
0300
0000
0000
1000
0001
0200
,
0000
0000
0300
0000
0000
1000
0001
0200
,
0000
0300
0000
0000
,
0001
0001
0010
0100
,
1000
0020
0130
0000
,
0001
0020
0130
0000
,
2000
0000
3002
0000
,
0103
0010
1000
0001
,
0200
0010
0310
0000
,
2000
0100
3100
0000
,
0020
0000
0230
0000
,
0310
0001
0100
1000
,
0000
1001
0100
1001
,
0010
0000
1001
0000
0100
0001
1000
0000
,
0100
1001
0010
1001
,
0100
0000
1001
0000
1000
0001
0100
0000
,
0002
0000
0013
0100
1000
0000
1001
0000
,
2000
0000
3100
0010
0001
0100
0010
0000
,
2000
0200
0000
0000
0000
0000
3300
0000
0002
0020
0000
0000
0000
0000
0033
0000
,
0100
0000
1000
0000
0001
0100
0010
0000
,
0100
0001
1000
0100
0020
0000
0130
0000
,
0100
0001
1000
0100
0020
0000
0130
0000
,
2000
0002
0000
0000
0000
0000
3003
0000
0200
0020
0000
0000
0000
0000
0330
0000
,
2000
3100
0002
0103
,
1001
0010
1000
0001
,
0200
0000
0000
0000
,
0300
0000
0000
0000
;

//---------------dance-single - ----------------
#NOTES:
     dance-single:
     :
     Easy:
     3:
     0.147271,0.198250,0.057673,0.187436,0.000000,143.000000,135.000000,8.000000,26.000000,0.000000,0.000000,0.147271,0.198250,0.057673,0.187436,0.000000,143.000000,135.000000,8.000000,26.000000,0.000000,0.000000:
// measure 0
0000
0000
0000
0000
,  // measure 1
0000
0000
0000
0000
,  // measure 2
0000
0000
0000
0000
,  // measure 3
0000
0000
0000
0000
,  // measure 4
0000
0000
0000
0000
,  // measure 5
0000
0000
0100
0010
,  // measure 6
0001
0000
1000
0010
,  // measure 7
0100
0000
0001
1000
,  // measure 8
0100
0000
0010
0100
,  // measure 9
1000
0001
0100
0000
,  // measure 10
0010
1000
0100
0000
,  // measure 11
0001
0000
1000
0000
,  // measure 12
0100
0000
0010
0001
,  // measure 13
0100
0000
0000
0000
,  // measure 14
0001
0001
1000
1000
,  // measure 15
0200
0010
0310
0110
,  // measure 16
0002
1000
1003
1001
,  // measure 17
0020
0030
0200
0300
,  // measure 18
0001
1000
0010
0100
,  // measure 19
0002
0010
0013
0011
,  // measure 20
2000
0100
3100
1100
,  // measure 21
0020
0030
2000
3000
,  // measure 22
0001
0100
0010
1000
,  // measure 23
0200
0000
0000
0310
,  // measure 24
0001
0100
0000
0001
,  // measure 25
1000
0100
0000
1000
,  // measure 26
0010
0100
0000
0000
,  // measure 27
0002
0003
2000
3000
,  // measure 28
0100
0010
0010
0000
,  // measure 29
0100
0010
0010
0000
,  // measure 30
0002
0003
2000
3000
,  // measure 31
0010
0100
0001
1000
,  // measure 32
0200
0000
0300
0000
,  // measure 33
0020
0000
0030
0000
,  // measure 34
0002
0003
2000
3000
,  // measure 35
0010
0100
0001
1000
,  // measure 36
0100
0010
0100
0010
,  // measure 37
0001
0100
0001
0100
,  // measure 38
0010
1000
0010
1000
,  // measure 39
0100
0010
0100
0000
,  // measure 40
2000
0001
3001
1001
,  // measure 41
0020
0100
0130
0110
,  // measure 42
0002
0003
0020
0030
,  // measure 43
1000
0100
0010
0001
,  // measure 44
2000
0100
3100
1100
,  // measure 45
0002
0100
0103
0101
,  // measure 46
0020
0030
0200
0300
,  // measure 47
0001
0100
0010
1000
,  // measure 48
0100
0010
0100
0010
,  // measure 49
0200
0000
0000
0000
,  // measure 50
0300
0000
0000
0000
;

//---------------dance-single - ----------------
#NOTES:
     dance-single:
     :
     Beginner:
     1:
     0.100927,0.126159,0.000000,0.007209,0.000000,98.000000,98.000000,0.000000,1.000000,0.000000,0.000000,0.100927,0.126159,0.000000,0.007209,0.000000,98.000000,98.000000,0.000000,1.000000,0.000000,0.000000:
// measure 0
0000
0000
0000
0000
,  // measure 1
0000
0000
0000
0000
,  // measure 2
0000
0000
0000
0000
,  // measure 3
0000
0000
0000
0000
,  // measure 4
0000
0000
0000
0000
,  // measure 5
0000
0000
0001
0000
,  // measure 6
0001
0000
1000
0000
,  // measure 7
0100
0000
0100
0000
,  // measure 8
1000
0000
0001
0000
,  // measure 9
0100
0000
0010
0000
,  // measure 10
0100
0000
0010
0000
,  // measure 11
1000
0000
0100
0000
,  // measure 12
0010
0000
0001
0000
,  // measure 13
0100
0000
0000
0000
,  // measure 14
0001
0000
1000
0000
,  // measure 15
0100
0100
0100
0000
,  // measure 16
0100
0100
0100
0000
,  // measure 17
0010
0000
0001
0000
,  // measure 18
1000
0000
0100
0000
,  // measure 19
0010
0010
0010
0000
,  // measure 20
0100
0100
0100
0000
,  // measure 21
1000
0000
0001
0000
,  // measure 22
0100
0000
0010
0000
,  // measure 23
1000
0000
0000
0100
,  // measure 24
0100
0000
0000
0001
,  // measure 25
0001
0000
0000
0100
,  // measure 26
0100
0000
0000
0000
,  // measure 27
0010
0000
1000
0000
,  // measure 28
0100
0100
0100
0000
,  // measure 29
0100
0100
0100
0000
,  // measure 30
0100
0000
0100
0000
,  // measure 31
0100
0000
0100
0000
,  // measure 32
0010
0010
0010
0000
,  // measure 33
0010
0010
0010
0000
,  // measure 34
1000
0000
1000
0000
,  // measure 35
0001
0000
0001
0000
,  // measure 36
0000
0100
0000
0001
,  // measure 37
0000
0100
0000
1000
,  // measure 38
0000
0100
0000
0001
,  // measure 39
0000
0100
0000
1000
,  // measure 40
1000
1000
1000
0000
,  // measure 41
0001
0001
0001
0000
,  // measure 42
0100
0000
0010
0000
,  // measure 43
1000
0000
0001
0000
,  // measure 44
0100
0100
0100
0000
,  // measure 45
0010
0010
0010
0000
,  // measure 46
0100
0000
0001
0000
,  // measure 47
1000
0000
0010
0000
,  // measure 48
0100
0000
0100
0000
,  // measure 49
0200
0000
0000
0000
,  // measure 50
0300
0000
0000
0000
;
