#TITLE:Beneath The Brine;
#SUBTITLE:;
#ARTIST:The Family Crest;
#TITLETRANSLIT:;
#SUBTITLETRANSLIT:;
#ARTISTTRANSLIT:;
#GENRE:Beneath The Brine;
#CREDIT:;
#BANNER:Beneath The Brine-bn.jpg;
#BACKGROUND:Beneath The Brine-bg.jpg;
#LYRICSPATH:;
#CDTITLE:;
#MUSIC:Beneath The Brine.mp3;
#OFFSET:0.086470;
#SAMPLESTART:92.903877;
#SAMPLELENGTH:16.179771;
#LASTBEATHINT:469.999969;
#SELECTABLE:YES;
#BPMS:0.000000=178.500000
,24.000000=179.000000
,45.000000=178.000000
,52.000000=176.000000
,69.000000=176.250000
,71.000000=180.000000
,81.000000=179.000000
,84.000000=178.000000
,102.000000=179.000000
,114.000000=178.000000
,120.000000=176.000000
,135.000000=177.000000
,138.000000=178.000000
,189.000000=181.000000
,192.000000=179.000000
,198.000000=178.000000
,342.000000=177.500000
,358.000000=178.000000
,369.000000=177.000000
,372.000000=177.500000
,408.000000=179.000000
,417.000000=180.000000
,419.000000=183.000000
,420.000000=178.500000
;
#STOPS:
;
#BGCHANGES:;
#KEYSOUNDS:;
#ATTACKS:;

//---------------dance-single - ----------------
#NOTES:
     dance-single:
     :
     Challenge:
     10:
     0.725428,0.773985,0.504020,0.396915,0.056702,806.000000,726.000000,80.000000,63.000000,0.000000,0.000000,0.725428,0.773985,0.504020,0.396915,0.056702,806.000000,726.000000,80.000000,63.000000,0.000000,0.000000:
0000
0000
0000
0000
,
0000
0000
0000
0000
,
0000
0000
0000
0000
,
0000
0000
0000
0000
,
0000
0000
0000
0000
,
0000
0000
0000
0000
,
0001
0010
0100
0010
0001
0010
1000
0010
,
0001
0000
0010
0000
0001
0100
0001
0000
0100
0000
1000
0000
0100
0000
0010
0000
,
0100
0001
0100
0000
0001
0000
0010
0000
0100
0000
0010
0000
0001
1000
0001
0000
,
0100
1000
0100
0010
0100
0001
0100
0010
,
1000
0000
0001
0000
0010
0100
0010
0000
0001
0000
1000
0000
0100
0000
0010
0000
,
0001
1000
0100
0010
0001
0100
0010
1000
,
0200
0000
0310
0001
1000
0010
0200
0000
,
0310
1000
0100
1000
0002
0000
0023
0000
,
0230
0000
2300
0000
3010
0100
0001
1000
,
0010
0001
0010
1000
0100
0010
0001
0100
,
1000
0100
0001
0010
0100
0010
1000
0010
,
0001
0100
0010
1000
0001
0100
0010
1000
,
2100
0000
3001
1000
0001
0000
0102
0000
,
1003
0001
1000
0000
2100
0000
3001
1000
,
0001
0000
0102
0000
1003
0001
1000
0000
,
2100
0000
3001
1000
0001
0100
0102
0000
,
1003
0001
1000
0100
2100
0000
3001
1000
,
0001
0100
0102
0000
1003
0001
1000
0100
,
2010
0000
3001
1000
0001
0100
0012
0000
,
1003
0001
1000
0100
2010
0000
3001
1000
,
0001
0100
0012
0000
1003
0001
1000
0100
,
1020
0000
0130
1000
0100
0010
0201
0000
,
0310
0001
0010
0100
1020
0000
0130
1000
,
0100
0010
0201
0000
0310
0001
0010
1000
,
0200
0000
1300
0100
0001
1000
0020
0000
,
0031
0100
1000
0001
0020
0000
1030
0100
,
0001
1000
0020
0000
0031
0100
1000
0001
,
0020
0000
0130
0001
0010
0100
0020
0000
,
0130
1000
0010
0100
0020
0000
0130
0001
,
0010
0100
0020
0000
0130
1000
0010
0100
,
0020
0000
1030
0010
0001
0010
2000
0000
,
3100
1000
0010
1000
0200
0000
0301
0100
,
1000
0100
0002
0000
0013
0001
0100
0001
,
0020
0000
0130
1000
0001
1000
0200
0000
,
0310
0001
1000
0001
0020
0000
0130
0001
,
1000
0001
0200
0000
0310
1000
0001
1000
,
0020
0000
0000
0230
,
0000
0000
0302
0000
,
0000
2003
0000
0000
,
3002
0100
0103
2000
,
0010
3010
0200
0001
,
0301
0000
1100
0101
,
1001
0000
0010
1000
0100
1000
0010
0100
,
0010
0001
0010
0100
0001
1000
0100
0010
,
0001
1000
0100
0010
0100
0001
0100
0010
,
0100
1000
0010
1000
0001
1000
0010
0100
,
0010
0001
0010
0100
0010
1000
0001
1000
,
0100
1000
0010
0100
0001
1000
0100
0010
,
0011
0000
0001
0100
0010
1000
1100
0000
,
0010
0100
0001
1000
1010
0000
1000
0100
,
0010
0001
1001
0000
0100
0010
1000
0100
,
0110
0000
0010
0001
1000
0001
0101
0000
,
0100
0010
1000
0100
0110
0000
0010
0001
,
1000
0001
0101
0000
0100
0010
1000
0100
,
0110
0000
0100
0010
0001
0010
1000
0010
,
0001
0000
0010
0000
0001
0100
0001
0000
0100
0000
1000
0000
0100
0000
0010
0000
,
0100
0001
0100
0000
0001
0000
0010
0000
0100
0000
0010
0000
0001
1000
0001
0000
,
0100
0000
1000
0000
0100
0000
0010
0000
0100
0001
0100
0000
0010
0000
0100
0000
,
0001
0000
1000
0000
0100
0010
0100
0000
1000
0000
0001
0000
0010
0000
0100
0000
,
1000
0001
1000
0000
0001
0000
0100
0000
0010
0000
1000
0000
0001
0100
0001
0000
,
2200
0000
0000
0000
,
0000
0000
0000
0000
,
0000
3300
0000
0000
,
2002
0000
3003
0010
0100
0000
2002
0000
,
3003
0010
0100
0000
2002
0000
3003
0100
,
0010
0000
2002
0000
3003
0100
0010
0000
,
2002
0000
3003
1000
0001
0000
1100
0000
,
0101
0110
1001
1010
,
1001
0101
0010
0100
,
1001
0000
0100
0001
0100
0010
1000
0010
,
0100
0001
0010
0100
0010
0001
0010
1000
,
0010
0001
0010
0100
0001
1000
0100
0010
,
0100
1000
0010
1000
0100
0010
0100
0001
,
0100
0010
0001
1000
0010
0100
1000
0001
,
0100
0010
1000
0001
0010
0100
0001
1000
,
1100
0000
1000
0010
0100
0001
0011
0000
,
0100
0010
1000
0001
0101
0000
0001
0010
,
0100
1000
1001
0000
0010
0100
0001
0010
,
0110
0000
0100
1000
0001
1000
1010
0000
,
0010
0100
0001
0010
0110
0000
0100
1000
,
0001
1000
1010
0000
0010
0100
0001
0010
,
0110
0000
0010
0100
1000
0100
0001
0100
,
1000
0000
0100
0000
1000
0010
1000
0000
0010
0000
0001
0000
0010
0000
0100
0000
,
0010
1000
0010
0000
1000
0000
0100
0000
0010
0000
0100
0000
1000
0001
1000
0000
,
0010
0000
0001
0000
0010
0000
0100
0000
0010
1000
0010
0000
0100
0000
0010
0000
,
1000
0000
0001
0000
0010
0100
0010
0000
0001
0000
1000
0000
0100
0000
0010
0000
,
0001
1000
0001
0000
1000
0000
0010
0000
0100
0000
0001
0000
1000
0010
1000
0000
,
2100
0001
3100
0101
,
0110
1100
0102
1000
,
0103
0011
0110
1010
,
0021
0100
1030
2010
,
0100
3001
0102
1000
,
0103
2001
0010
3100
,
1001
0000
1000
0010
0100
0001
0010
0100
,
0010
0001
1000
0100
0010
0001
0100
0001
,
1000
0010
1000
0100
0010
0001
1000
0001
,
0100
0010
1000
0100
0010
0100
0010
0001
,
0100
0010
0100
0010
1000
0100
0010
0001
,
0100
0010
1000
0100
0010
0001
0100
0010
,
1001
1000
0001
1000
0100
0010
0100
0001
,
0100
0010
0100
1000
0010
0001
0010
0100
,
0010
1000
0010
0001
0010
1000
0100
0010
,
0100
0001
1000
0010
0001
0100
0010
1000
,
0001
0100
1000
0001
0010
1000
0100
0010
,
0001
1000
0100
0001
1000
0010
0001
0100
,
1010
0000
0001
0100
1000
0001
1100
0000
,
0011
0000
0101
0000
1010
0000
0001
0100
,
0010
1000
0101
0000
0011
0000
1100
0000
,
1010
0000
0100
0001
1000
0010
1100
0000
,
0011
0000
0101
0000
1010
0000
0001
1000
,
0100
0010
0101
0000
1000
0001
0010
0100
,
1010
0000
0000
0000
;

//---------------dance-single - ----------------
#NOTES:
     dance-single:
     :
     Hard:
     9:
     0.574222,0.663416,0.447317,0.472518,0.000000,638.000000,567.000000,71.000000,75.000000,0.000000,0.000000,0.574222,0.663416,0.447317,0.472518,0.000000,638.000000,567.000000,71.000000,75.000000,0.000000,0.000000:
0000
0000
0000
0000
,
0000
0000
0000
0000
,
0000
0000
0000
0000
,
0000
0000
0000
0000
,
0000
0000
0000
0000
,
0000
0000
0000
0000
,
0001
1000
0001
0100
0001
1000
0001
0100
,
0001
1000
0100
0000
1000
0010
1000
0001
,
1000
0010
1000
0001
1000
0100
1000
0000
,
0001
0100
0010
1000
0001
1000
0010
0100
,
0001
1000
0100
0000
0010
0001
1000
0001
,
0100
0010
1000
0010
0100
0001
0010
0001
,
0200
0000
0310
1000
0001
0010
0200
0000
,
0310
0001
0100
0001
2000
0000
3020
0000
,
0230
0000
0302
0000
0013
0100
1000
0000
,
0010
0100
0010
1000
0001
1000
0100
0010
,
0001
0100
0010
1000
0100
0010
0001
0100
,
0010
1000
0100
0010
0001
0100
0010
1000
,
2200
0000
3300
0202
,
0000
0303
2200
0000
,
0000
0000
0000
3300
,
0202
0000
0303
2020
,
0000
3030
0202
0000
,
0000
0000
0000
0303
,
2010
0100
3010
0102
,
0010
0103
2010
0100
,
3010
0102
0010
0103
,
0020
1000
0001
1030
,
0200
0001
1000
0301
,
0020
1000
0001
1030
,
0200
0010
1000
0320
,
0001
0100
0032
0100
,
0010
1000
0100
0010
,
2003
0100
0010
3200
,
0001
0010
2300
0010
,
0001
3020
0001
1000
,
0230
0001
0010
0302
,
0010
0100
0023
0001
,
0100
0032
0100
1000
,
0203
1000
0001
0320
,
1000
0100
2030
0100
,
0001
3200
0010
1300
,
0020
0000
0000
0230
,
0000
0000
0302
0000
,
0000
2003
0000
0000
,
3002
0100
0103
2000
,
0010
3010
0200
0001
,
0001
0301
0000
0000
,
0110
0000
0100
0001
0010
0100
0010
0000
,
1001
0000
1001
0000
1001
0000
0100
0010
,
0001
1000
0010
0000
0110
0000
0110
0000
,
0110
0000
1000
0100
0010
0001
0100
0000
,
1001
0000
0110
0000
1001
0000
0001
1000
,
0010
0100
1001
0000
1000
0001
0100
0010
,
1001
0000
1000
0100
1000
0000
1010
0000
,
0010
0100
0001
0000
0101
0000
1000
0010
,
0100
0000
1001
0000
0001
0010
0100
0000
,
0110
0000
0010
0001
0100
0000
0101
0000
,
1000
0010
0100
0000
1010
0000
0001
1000
,
0100
0000
1100
0000
1000
0001
0100
0000
,
0101
0000
1000
0001
0100
0010
1000
0100
,
0010
0001
0100
0000
1010
0000
1000
0100
,
0010
0001
1000
0001
0100
0010
0100
0000
,
0101
0000
0010
0100
0001
1000
0100
0010
,
0001
1000
0010
0100
0001
1000
0100
0010
,
0001
1000
0010
0100
0001
1000
0010
0100
,
2002
0000
0000
0000
,
0000
0000
0000
0000
,
0000
3003
0000
0000
,
2200
0000
3300
2002
,
0000
3003
0202
0000
,
0303
2002
0000
3003
,
0220
0000
0330
1010
,
1001
0101
1001
1010
,
2002
3003
0101
1100
,
1001
0000
0100
0001
0100
0010
1000
0010
,
0100
0001
0010
0100
0010
0001
0010
0100
,
0010
0001
0010
0100
1000
0001
0100
0010
,
0100
0001
0010
0001
0100
0010
0100
0001
,
0100
0010
1000
0001
0010
0100
1000
0001
,
0100
0010
1000
0001
0010
0100
0010
0100
,
0010
0000
0001
0100
0001
0000
0011
0000
,
0010
0100
1000
0000
1100
0000
0001
0010
,
0100
0000
1001
0000
1000
0010
0100
0000
,
0110
0000
0010
1000
0100
0000
1100
0000
,
0001
0010
0100
0000
0011
0000
1000
0001
,
0100
0000
0101
0000
0001
1000
0100
0000
,
1100
0000
0001
1000
0100
0010
0001
0100
,
0010
1000
0100
0000
0011
0000
0001
0100
,
0010
1000
0001
1000
0100
0010
0100
0000
,
1100
0000
0010
0100
1000
0001
0100
0010
,
1000
0001
0010
0100
1000
0001
0100
0010
,
1000
0001
0010
0100
1000
0001
0010
0100
,
2100
0001
3100
0101
,
0110
1100
0102
1000
,
0103
0011
0110
1010
,
0022
0000
0033
2020
,
0000
3030
0202
0000
,
0303
2002
0000
3003
,
0110
0000
1000
0010
0100
0001
0010
0100
,
0010
0001
1000
0100
0010
0001
0100
0001
,
1000
0010
1000
0100
0010
0001
1000
0001
,
0200
0000
0310
1000
0100
0000
0020
0000
,
0031
0100
0010
0000
2000
0000
3001
0100
,
0010
0000
0200
0000
0301
1000
0100
0000
,
0010
0001
0100
0001
1000
0001
0010
0001
,
1000
0001
0100
0001
1000
0010
0100
0001
,
1000
0010
1000
0100
1000
0001
1000
0010
,
1000
0100
0010
0001
0100
0010
0100
0001
,
0100
0010
0100
1000
0100
0001
1000
0001
,
0010
0100
0010
0001
0010
0100
0010
0001
,
0100
0001
1000
0001
0100
0000
0010
1000
,
0001
1000
0010
0000
1000
0100
0010
0001
,
0100
0000
0010
1000
0001
1000
0100
0000
,
0010
0001
0100
0001
1000
0000
0010
0100
,
0001
1000
0100
0000
0010
0001
1000
0100
,
0010
0000
0001
1000
0010
0100
0001
0000
,
0101
0000
0000
0000
;

//---------------dance-single - ----------------
#NOTES:
     dance-single:
     :
     Medium:
     6:
     0.319512,0.479134,0.132305,0.428417,0.000000,355.000000,334.000000,21.000000,68.000000,0.000000,0.000000,0.319512,0.479134,0.132305,0.428417,0.000000,355.000000,334.000000,21.000000,68.000000,0.000000,0.000000:
0000
0000
0000
0000
,
0000
0000
0000
0000
,
0000
0000
0000
0000
,
0000
0000
0000
0000
,
0000
0000
0000
0000
,
0000
0000
0000
0000
,
1000
0100
0010
0001
,
0100
0000
0010
1000
0010
0000
0100
0000
,
0001
0000
1000
0000
0100
0000
0010
0100
,
0010
0001
1000
0100
,
0010
0000
0100
1000
0100
0000
0010
0000
,
0001
1000
0001
0100
,
0020
0030
1000
0200
,
0300
0010
0001
1000
,
0010
0200
0300
0010
,
1000
0100
0010
0001
,
1000
0001
0100
0010
,
1000
0001
0100
0010
,
2000
0000
3000
0200
,
0000
0300
0020
0000
,
0000
0000
0030
0000
,
0002
0000
0003
0200
,
0000
0300
0020
0000
,
0000
0000
0030
0000
,
2000
0000
3000
0200
,
0000
0300
0020
0000
,
0030
0002
0000
0003
,
0200
0000
0300
0020
,
0000
0030
2000
0000
,
0000
0000
3000
0000
,
0002
0003
0100
0020
,
0030
1000
0200
0000
,
0000
0000
0300
0000
,
0020
0030
0001
0200
,
0300
0020
0000
0030
2000
0000
0000
0000
,
0000
0000
3000
0100
,
0020
0030
0001
0200
,
0300
0010
2000
3000
,
0001
0010
0100
0010
,
0002
0003
1000
0200
,
0300
0020
0000
0030
0002
0000
0000
0000
,
0000
0000
0003
0000
,
0200
0000
0300
0020
,
0000
0030
2000
0000
,
3000
0002
0000
0003
,
0200
0000
0300
0010
,
1000
0001
0100
0010
,
0100
0010
0000
0000
,
2002
0000
3003
0100
,
0010
0100
2002
0000
,
3003
0010
0100
0010
,
2002
0000
3003
1000
,
0001
1000
0100
0010
,
0001
0100
0010
1000
,
2002
0000
3003
0001
,
0010
0100
2000
0000
,
3000
0100
0010
0001
,
0200
0000
0300
0010
,
1000
0001
0200
0000
,
0300
0010
1000
0010
,
0100
0001
0010
0100
,
1000
0001
1000
0010
,
0100
0001
0010
0100
,
1000
0010
0100
0001
,
0010
0000
0100
0000
1000
0000
0001
1000
,
0001
0000
0110
0000
0100
0010
0100
0000
,
1001
0000
0000
0000
,
0000
0000
0000
0000
,
0000
0000
0000
0000
,
0200
0000
0300
0020
,
0000
0030
2000
0000
,
3000
0002
0000
0003
,
0200
0000
0300
0010
,
1000
0100
0010
0001
,
0200
0300
0010
1000
,
0001
0010
0001
1000
,
0100
0010
0001
0100
,
0010
1000
0001
0100
,
0010
1000
0100
0010
,
0001
1000
0100
0010
,
0100
0010
0001
0010
,
0001
0100
0010
1000
,
0100
0000
0010
0100
0010
0000
0001
0000
,
1000
0000
0100
0000
0010
0000
0001
1000
,
0001
0100
0010
1000
,
0001
0000
0100
0010
0100
0000
0010
0000
,
1000
0001
0100
0020
,
0000
1030
0100
1000
,
0001
0000
1000
0000
0010
0000
0100
0001
,
0100
0010
1000
0100
,
0010
0000
0001
1000
0001
0000
0100
0000
,
0010
1000
0100
0010
,
0100
1000
0001
1000
,
2200
0000
3300
0010
,
0100
0010
0220
0000
,
0330
0001
1000
0001
,
0202
0000
0303
2002
,
0000
3003
2200
0000
,
3300
0220
0000
0330
,
0010
0001
0100
0010
,
1000
0100
1000
0001
,
0100
0010
1000
0001
,
0020
0000
0030
0200
,
0000
0300
1000
0001
,
0100
0010
1000
0100
,
0010
0001
0010
0000
0001
0000
1000
0000
,
0100
0000
0010
0000
0100
1000
0100
0000
,
0010
0001
1000
0100
,
0010
0001
0010
0000
0100
0000
1000
0100
,
1000
0000
0010
0000
0100
0001
0100
0000
,
0010
0000
1000
0001
1000
0000
0200
0000
,
0000
0310
0001
0101
,
1000
0010
1010
0001
,
0010
0011
1000
0100
,
1100
0001
0100
0101
,
0010
0100
0110
0001
,
1000
1001
0100
0110
,
1001
0000
0000
0000
;

//---------------dance-single - ----------------
#NOTES:
     dance-single:
     :
     Easy:
     4:
     0.256510,0.331708,0.006300,0.384315,0.000000,285.000000,284.000000,1.000000,61.000000,0.000000,0.000000,0.256510,0.331708,0.006300,0.384315,0.000000,285.000000,284.000000,1.000000,61.000000,0.000000,0.000000:
0000
0000
0000
0000
,
0000
0000
0000
0000
,
0000
0000
0000
0000
,
0000
0000
0000
0000
,
0000
0000
0000
0000
,
0000
0000
0000
0000
,
1000
0100
1000
0100
,
1000
0000
0001
0100
,
0001
0100
0001
0000
,
0010
0100
1000
0100
,
0010
0000
0001
0100
,
0010
1000
0010
0000
,
0200
0300
0001
0200
,
0300
0001
1000
0001
,
1000
0200
0300
0010
,
0001
0010
0100
1000
,
0100
0010
0001
0010
,
0100
1000
0100
0010
,
0002
0000
0003
2000
,
0000
3000
0200
0000
,
0000
0000
0300
0000
,
0020
0000
0030
0002
,
0000
0003
0200
0000
,
0000
0000
0300
0000
,
0020
0000
0030
2000
,
0000
3000
0002
0000
,
0003
0200
0000
0300
,
0020
0000
0030
2000
,
0000
3000
0200
0000
,
0000
0000
0300
0000
,
0020
0030
0001
2000
,
3000
0001
0020
0000
,
0000
0000
0030
0000
,
0200
0300
1000
0002
,
0003
2000
0000
3000
0200
0000
0000
0000
,
0000
0300
0000
0010
,
0002
0003
0100
0020
,
0030
1000
0200
0300
,
0010
0001
0001
0001
,
0200
0300
0010
2000
,
3000
0002
0000
0003
2000
0000
0000
0000
,
0000
0000
3000
0000
,
0020
0000
0030
2000
,
0000
3000
0200
0000
,
0300
0020
0000
0030
,
0002
0000
0003
1000
,
0100
0010
0001
1000
,
0001
1000
0000
0000
,
2002
0000
3003
1000
,
0001
1000
0002
0000
,
0003
0100
0001
0100
,
0002
0000
0003
0010
,
0100
1000
0001
1000
,
0001
1000
0100
0010
,
0002
0000
0003
0010
,
0100
0010
0002
0000
,
0003
1000
0100
0010
,
0200
0000
0300
1000
,
0010
1000
0002
0000
,
0003
1000
0010
1000
,
0100
0010
0100
0010
,
0010
0010
0010
0001
,
0010
0001
0001
0001
,
0001
0100
0010
1000
,
1000
1000
1000
0010
,
0100
0001
0100
0010
,
1000
0000
0000
0000
,
0000
0000
0000
0000
,
0000
0000
0000
0000
,
2000
0000
3000
0200
,
0000
0300
0020
0000
,
0030
0002
0000
0003
,
0200
0000
0300
0010
,
1000
0010
1000
0001
,
2000
3000
0100
0010
,
0002
0000
0000
1000
,
1000
1000
1000
0000
,
0000
1000
1000
1000
,
1000
0000
0000
1000
,
1000
1000
1000
0000
,
0000
1000
1000
1000
,
1003
0000
0000
0010
,
0100
0010
0200
0000
,
0300
1000
0001
1000
,
0002
0000
0003
0100
,
0010
0100
0020
0000
,
0030
1000
0001
2000
,
3000
0200
0000
0010
,
0010
0010
0010
0000
,
0000
1000
1000
1000
,
1000
0000
0000
0010
,
0010
0010
0010
0000
,
0000
1000
1000
1000
,
1300
0000
0000
0010
,
0100
0010
0100
0000
,
0000
0001
1000
0001
,
2000
0000
3000
0200
,
0000
0300
0020
0000
,
0030
0002
0000
0003
,
1000
0100
1000
0001
,
0100
0001
1000
0010
,
1000
0001
0010
0001
,
0020
0000
0030
0200
,
0000
0300
1000
0100
,
0010
0001
0010
0100
,
1000
0000
0000
0001
,
0010
0100
1000
0000
,
0000
1000
0010
0100
,
0001
0000
0000
0001
,
0100
0010
1000
0000
,
0000
0100
0010
0100
,
0010
0001
0010
0001
,
0100
0001
0100
0010
,
0100
0010
1000
0010
,
1000
0100
0001
0100
,
1000
0100
0001
0100
,
1000
0100
0001
0100
,
1000
0000
0000
0000
;

//---------------dance-single - ----------------
#NOTES:
     dance-single:
     :
     Beginner:
     2:
     0.149406,0.294851,0.025201,0.138605,0.000000,166.000000,162.000000,4.000000,22.000000,0.000000,0.000000,0.149406,0.294851,0.025201,0.138605,0.000000,166.000000,162.000000,4.000000,22.000000,0.000000,0.000000:
// measure 0
0000
0000
0000
0000
,  // measure 1
0000
0000
0000
0000
,  // measure 2
0000
0000
0000
0000
,  // measure 3
0000
0000
0000
0000
,  // measure 4
0000
0000
0000
0000
,  // measure 5
0000
0000
0000
0000
,  // measure 6
1000
0000
0000
0010
,  // measure 7
0000
0100
0100
0000
,  // measure 8
0000
0001
0000
0010
,  // measure 9
0010
0000
0000
0100
,  // measure 10
0000
1000
1000
0000
,  // measure 11
0000
0001
0000
0000
,  // measure 12
0100
0000
0000
0010
,  // measure 13
0000
0000
1000
1000
,  // measure 14
1000
1000
0000
0000
,  // measure 15
0100
0000
0000
0010
,  // measure 16
0000
0000
0001
0000
,  // measure 17
0000
0100
0000
0000
,  // measure 18
0020
0030
0000
0002
,  // measure 19
0003
0000
0200
0000
,  // measure 20
0000
0300
0000
0000
,  // measure 21
0020
0030
0000
2000
,  // measure 22
3000
0000
0200
0000
,  // measure 23
0000
0300
0000
0000
,  // measure 24
0020
0030
0000
0002
,  // measure 25
0003
0000
2000
3000
,  // measure 26
0000
0200
0300
0000
,  // measure 27
0020
0030
0000
0002
,  // measure 28
0003
0000
0200
0300
,  // measure 29
0000
0020
0030
0000
,  // measure 30
1000
0000
0000
0100
,  // measure 31
0000
0000
0001
0000
,  // measure 32
0000
0000
0000
0000
,  // measure 33
0001
0000
0000
0100
,  // measure 34
0000
0100
0000
0000
0100
0000
0000
0000
,  // measure 35
0000
0010
0000
0000
,  // measure 36
1000
0000
0000
0100
,  // measure 37
0000
0000
0010
0000
,  // measure 38
0000
0001
0000
0000
,  // measure 39
0100
0000
0000
0010
,  // measure 40
0000
0010
0000
0000
0010
0000
0000
0000
,  // measure 41
0000
1000
0000
0000
,  // measure 42
0100
0000
0000
0010
,  // measure 43
0000
0000
0100
0000
,  // measure 44
0000
0010
0000
0000
,  // measure 45
0001
0000
0000
1000
,  // measure 46
0000
0000
0001
0000
,  // measure 47
0000
1000
0000
0000
,  // measure 48
1001
0000
0000
0000
,  // measure 49
0010
0010
0010
0000
,  // measure 50
0000
0000
0100
0100
,  // measure 51
0100
0000
0000
0000
,  // measure 52
0001
0001
0001
0000
,  // measure 53
0000
1000
0000
0000
,  // measure 54
0100
0000
0000
0010
,  // measure 55
0010
0010
0010
0000
,  // measure 56
0000
0001
0001
0001
,  // measure 57
0001
0000
0000
0100
,  // measure 58
0100
0100
0100
0000
,  // measure 59
0000
0010
0010
0020
,  // measure 60
0000
0000
0000
0000
,  // measure 61
0000
0000
0000
0000
,  // measure 62
0000
0000
0000
0000
,  // measure 63
0000
0000
0000
0000
,  // measure 64
0000
0000
0030
0000
,  // measure 65
0000
1000
0000
0000
,  // measure 66
0100
0000
0000
0000
,  // measure 67
0000
0000
0000
0000
,  // measure 68
0000
0000
0000
0000
,  // measure 69
0010
0000
0000
0001
,  // measure 70
0000
0000
0100
0000
,  // measure 71
0000
0010
0000
0000
,  // measure 72
1000
0000
0000
0100
,  // measure 73
0100
0100
0100
0100
,  // measure 74
0100
0000
0010
0010
,  // measure 75
0020
0000
0000
0000
,  // measure 76
0000
0000
0000
0000
,  // measure 77
0000
0000
0000
0000
,  // measure 78
0000
0000
0000
0000
,  // measure 79
0000
0000
0000
0000
,  // measure 80
0000
0030
0000
0000
,  // measure 81
0001
0000
0000
1000
,  // measure 82
1000
1000
1000
0000
,  // measure 83
0000
0010
0010
0010
,  // measure 84
0010
0000
0000
0100
,  // measure 85
0100
0100
0100
0000
,  // measure 86
0000
0001
0001
0002
,  // measure 87
0000
0000
0000
0000
,  // measure 88
0000
0000
0000
0000
,  // measure 89
0000
0000
0000
0000
,  // measure 90
0000
0000
0000
0000
,  // measure 91
0000
0000
0000
0000
,  // measure 92
0000
0003
0000
0000
,  // measure 93
1001
0000
0000
0010
,  // measure 94
0000
0000
1000
0000
,  // measure 95
0000
0100
0000
0000
,  // measure 96
0010
0000
0000
0001
,  // measure 97
0000
0000
0100
0000
,  // measure 98
0000
0010
0000
0000
,  // measure 99
1000
1000
1000
1000
,  // measure 100
0000
0000
0001
0001
,  // measure 101
0001
0001
0000
0000
,  // measure 102
0100
0000
0000
0010
,  // measure 103
0000
0000
0100
0000
,  // measure 104
0000
0010
0000
0000
,  // measure 105
2002
3003
0000
0010
,  // measure 106
0000
0000
2000
3000
,  // measure 107
0000
0010
0000
0000
,  // measure 108
0002
0003
0000
0010
,  // measure 109
0000
0000
2000
3000
,  // measure 110
0000
0010
0000
0000
,  // measure 111
0100
0000
0000
0001
,  // measure 112
0001
0001
0001
0000
,  // measure 113
0000
1000
1000
1000
,  // measure 114
1000
0000
0000
0100
,  // measure 115
0100
0100
0100
0000
,  // measure 116
0000
0010
0000
0000
,  // measure 117
1001
0000
0000
0000
;
