#TITLE:BURNING HEAT! (3 Option MIX);
#SUBTITLE:;
#ARTIST:Mr.T with Motoaki. F;
#TITLETRANSLIT:;
#SUBTITLETRANSLIT:;
#ARTISTTRANSLIT:;
#GENRE:DDRMAX 2/Gradius;
#CREDIT:;
#BANNER:BURNING HEAT ! 3 Option MIX-bn.jpg;
#BACKGROUND:BURNING HEAT ! 3 Option MIX-bg.jpg;
#LYRICSPATH:;
#CDTITLE:d.png;
#MUSIC:BURNING HEAT ! 3 Option MIX.mp3;
#OFFSET:-0.041000;
#SAMPLESTART:12.290000;
#SAMPLELENGTH:15.000000;
#SELECTABLE:YES;
#DISPLAYBPM:166.000000;
#BPMS:0.000000=166.000000
;
#STOPS:32.000000=0.361000,
243.000000=0.361000
;
#BGCHANGES:;
#KEYSOUNDS:;
#ATTACKS:;

//---------------dance-single - ----------------
#NOTES:
     dance-single:
     :
     Beginner:
     1:
     0.152068,0.222809,0.062616,0.000000,0.000000,102.000000,96.000000,6.000000,0.000000,0.000000,0.000000,0.152068,0.222809,0.062616,0.000000,0.000000,102.000000,96.000000,6.000000,0.000000,0.000000,0.000000:
// measure 0
0000
0000
0000
0000
,  // measure 1
0000
0000
0000
0000
,  // measure 2
0000
0000
0000
0000
,  // measure 3
0000
0000
0000
0000
,  // measure 4
1000
0000
1000
0000
,  // measure 5
0001
0000
0001
0000
,  // measure 6
0010
0000
0010
0000
,  // measure 7
0100
0000
0100
0000
,  // measure 8
0000
1000
0000
0000
,  // measure 9
0001
0000
0000
1000
,  // measure 10
0000
0100
0000
0000
,  // measure 11
0100
0000
0000
0001
,  // measure 12
0000
0100
0000
0010
,  // measure 13
0000
1000
0000
0001
,  // measure 14
0000
1000
0000
0000
,  // measure 15
0001
0000
0001
0000
,  // measure 16
1001
0000
0000
0010
,  // measure 17
0000
0001
0000
1000
,  // measure 18
0000
1000
0000
0001
,  // measure 19
0000
0001
0000
1000
,  // measure 20
0000
0100
0000
1000
,  // measure 21
0000
0010
0000
0001
,  // measure 22
0000
0001
0000
0100
,  // measure 23
0000
0000
1000
0000
,  // measure 24
0001
0000
0000
0000
,  // measure 25
0000
0100
0000
0000
,  // measure 26
0000
1000
0000
0000
,  // measure 27
0000
0001
0000
0000
,  // measure 28
0000
1000
0000
0000
,  // measure 29
0000
0001
0000
0000
,  // measure 30
0000
0010
0000
0000
,  // measure 31
0000
0100
0000
0001
,  // measure 32
0000
1000
0000
1000
,  // measure 33
0000
0001
0000
0001
,  // measure 34
0000
0100
0000
0100
,  // measure 35
0000
0010
0000
0010
,  // measure 36
0000
1000
0000
0001
,  // measure 37
0000
0010
0000
0100
,  // measure 38
0000
1000
0000
0100
,  // measure 39
0000
0001
0000
0010
,  // measure 40
0000
1000
0000
0000
,  // measure 41
0000
0001
0000
0010
,  // measure 42
0000
0100
0000
0000
,  // measure 43
0000
0001
0000
0100
,  // measure 44
0000
0010
0000
0000
,  // measure 45
0000
1000
0000
0000
,  // measure 46
0000
0001
0000
0000
,  // measure 47
0000
0100
0000
0000
,  // measure 48
0000
0010
0000
1000
,  // measure 49
0000
0001
0000
0001
,  // measure 50
0000
1000
0000
0100
,  // measure 51
0000
0010
0000
0010
,  // measure 52
0000
0100
0000
1000
,  // measure 53
0000
0010
0000
1000
,  // measure 54
0000
0100
0000
0001
,  // measure 55
0000
0010
0000
0000
,  // measure 56
0110
0000
1001
0000
,  // measure 57
0000
1001
0000
0010
,  // measure 58
0000
0100
0000
0010
,  // measure 59
0000
1001
0000
0100
,  // measure 60
0000
0010
0000
0000
,  // measure 61
1001
0000
0000
0000
;

//---------------dance-single - ----------------
#NOTES:
     dance-single:
     :
     Easy:
     2:
     0.189339,0.293513,0.114796,0.135668,0.000000,127.000000,116.000000,11.000000,13.000000,0.000000,0.000000,0.189339,0.293513,0.114796,0.135668,0.000000,127.000000,116.000000,11.000000,13.000000,0.000000,0.000000:
// measure 0
0000
0000
0000
0000
,  // measure 1
0000
0000
0000
0000
,  // measure 2
0000
0000
0000
0000
,  // measure 3
0000
0000
0000
0000
,  // measure 4
1000
0000
1000
0000
,  // measure 5
0001
0000
0001
1001
,  // measure 6
0010
0000
0010
0000
,  // measure 7
0100
0000
0100
0110
,  // measure 8
0000
1000
0000
0000
,  // measure 9
0001
0001
0000
1000
,  // measure 10
0000
0100
0000
0000
,  // measure 11
0100
0010
0000
0001
,  // measure 12
0000
0100
0000
0010
,  // measure 13
0000
1000
0000
0001
,  // measure 14
0000
1000
1000
0000
,  // measure 15
0001
0001
0001
0000
,  // measure 16
1001
0100
0000
0010
,  // measure 17
0100
0001
0000
1000
,  // measure 18
0100
1000
0000
0001
,  // measure 19
0100
0002
0003
2000
,  // measure 20
3000
0100
0000
1000
,  // measure 21
0001
0010
0000
0001
,  // measure 22
1000
0001
0000
0100
,  // measure 23
1000
0000
1000
0000
,  // measure 24
0001
0020
0000
0000
,  // measure 25
0030
0200
0000
0000
,  // measure 26
0300
2000
0000
0000
,  // measure 27
3000
0002
0000
0000
,  // measure 28
0003
2000
0000
0000
,  // measure 29
3000
0002
0000
0000
,  // measure 30
0003
0020
0000
0000
,  // measure 31
0030
0100
0000
0001
,  // measure 32
1000
1000
0000
1000
,  // measure 33
0000
0001
0000
0001
,  // measure 34
0000
0100
0000
0100
,  // measure 35
0000
0010
0000
0010
,  // measure 36
0000
1000
0000
0001
,  // measure 37
0000
0010
0000
0100
,  // measure 38
0000
1000
0000
0100
,  // measure 39
0000
0001
0000
0010
,  // measure 40
1000
2000
0000
0000
,  // measure 41
3000
0001
0000
0010
,  // measure 42
0000
0200
0000
0000
,  // measure 43
0300
0001
0000
0100
,  // measure 44
0000
0010
0000
0000
,  // measure 45
0000
1000
0000
0000
,  // measure 46
0000
0001
0000
0000
,  // measure 47
0000
0100
0000
0000
,  // measure 48
0000
0010
1001
1000
,  // measure 49
0000
0001
0000
0001
,  // measure 50
0000
1000
0000
0100
,  // measure 51
0000
0010
0000
0010
,  // measure 52
0000
0100
0000
1000
,  // measure 53
0000
0010
0000
1000
,  // measure 54
0000
0100
0000
0001
,  // measure 55
0000
0010
0000
0000
,  // measure 56
0110
0000
1001
0100
,  // measure 57
0000
1001
0000
0010
,  // measure 58
0000
0100
1001
0010
,  // measure 59
0000
1001
0000
0100
,  // measure 60
0000
0010
0110
0000
,  // measure 61
2002
0000
0000
0000
,  // measure 62
0000
0000
3003
0000
;

//---------------dance-single - ----------------
#NOTES:
     dance-single:
     :
     Medium:
     5:
     0.305626,0.358738,0.052180,0.313081,0.156540,205.000000,200.000000,5.000000,30.000000,0.000000,0.000000,0.305626,0.358738,0.052180,0.313081,0.156540,205.000000,200.000000,5.000000,30.000000,0.000000,0.000000:
// measure 0
0000
0000
0000
0000
,  // measure 1
0000
0000
0000
0000
,  // measure 2
0000
0000
0000
0000
,  // measure 3
0000
0000
0000
0000
,  // measure 4
1000
0000
1000
1000
,  // measure 5
0001
0000
0001
0001
,  // measure 6
0010
0000
0010
0010
,  // measure 7
0100
0000
0000
0000
0000
0000
0100
0000
0000
0100
0000
0010
,  // measure 8
0000
0000
0000
1000
0000
0000
0001
0000
0100
0000
0000
0000
,  // measure 9
0010
1000
0100
0001
,  // measure 10
0100
1000
0010
0000
,  // measure 11
0001
1000
0010
0001
,  // measure 12
0010
1000
0000
0001
,  // measure 13
0000
0000
0000
1000
0000
0001
0000
1000
0000
0001
0000
0000
,  // measure 14
0000
0010
0010
0000
,  // measure 15
1000
0001
0001
0000
,  // measure 16
0100
1000
0010
1000
,  // measure 17
0010
0001
0010
0001
,  // measure 18
0010
0100
0010
0100
,  // measure 19
0010
0000
0000
1000
0000
1000
0000
1000
0000
0001
0000
0001
,  // measure 20
0000
0001
0000
1000
0000
0000
0010
0000
0000
1000
0000
0000
,  // measure 21
0100
0001
0010
0001
,  // measure 22
0100
0010
1000
0100
,  // measure 23
0001
0000
0000
0000
1000
0000
1000
0000
0000
0000
0001
0000
,  // measure 24
0001
0010
0000
0010
,  // measure 25
0000
0100
0000
0100
,  // measure 26
0000
1000
0000
1000
,  // measure 27
0000
0001
0000
0001
,  // measure 28
1001
0100
0000
0010
,  // measure 29
0000
0010
0000
0100
,  // measure 30
0000
0001
0000
1000
,  // measure 31
0000
0000
0000
0110
0000
0000
0000
0000
0000
1000
0000
0001
,  // measure 32
0000
1000
0000
2000
0000
0000
3010
0000
0000
0002
0000
0000
,  // measure 33
0013
2000
3100
0002
,  // measure 34
0103
0020
1030
0200
,  // measure 35
1300
0020
0031
0200
,  // measure 36
0301
0020
2030
3200
,  // measure 37
0302
0203
2300
3020
,  // measure 38
0230
0302
0203
2300
,  // measure 39
3100
0000
0000
0001
0000
0001
0000
0001
0000
1000
0000
0000
,  // measure 40
1001
0000
0000
0010
0000
0000
1000
0000
0100
0000
0000
0000
,  // measure 41
0010
0001
0000
0100
,  // measure 42
0000
0010
1000
0000
,  // measure 43
0001
0100
0000
0010
,  // measure 44
0000
1000
0000
1000
,  // measure 45
0000
0001
0000
0001
,  // measure 46
0000
0010
0000
0010
,  // measure 47
0000
0100
0000
0100
,  // measure 48
0000
0000
0000
1000
0000
0001
0000
1000
0000
0100
0000
0000
,  // measure 49
0000
0000
0000
0001
0000
1000
0001
0000
0000
0010
0000
0000
,  // measure 50
0000
0000
0000
1000
0000
0001
1000
0000
0000
0100
0000
0000
,  // measure 51
0000
0000
0000
0010
0000
0100
0010
0000
0000
1000
0000
1000
,  // measure 52
0000
1000
0000
0001
0000
0001
0000
0001
0000
1000
0000
0000
,  // measure 53
0000
0000
0000
0010
0000
0100
0010
0000
0000
0001
0000
0000
,  // measure 54
0000
0000
0000
0100
0000
0010
0100
0000
0000
1000
0000
0000
,  // measure 55
0000
0000
0000
0001
0000
1000
0001
0000
0000
0000
0010
0000
,  // measure 56
0010
0000
0000
0000
0100
0000
0100
0000
0000
2000
0000
0000
,  // measure 57
3010
0002
0013
2000
,  // measure 58
3100
0002
0103
0020
,  // measure 59
1030
0200
1300
0020
,  // measure 60
0031
0200
0002
0303
,  // measure 61
1001
0000
2002
0000
0000
0000
0000
0000
0000
0000
0000
0000
,  // measure 62
0000
0000
3003
0000
;

//---------------dance-single - ----------------
#NOTES:
     dance-single:
     :
     Hard:
     9:
     0.618707,0.619639,0.020872,0.062616,1.158398,415.000000,413.000000,2.000000,6.000000,0.000000,0.000000,0.618707,0.619639,0.020872,0.062616,1.158398,415.000000,413.000000,2.000000,6.000000,0.000000,0.000000:
// measure 0
0000
0000
0000
0000
,  // measure 1
0000
0000
0000
0000
,  // measure 2
0000
0000
0000
0000
,  // measure 3
0000
0000
0000
0000
,  // measure 4
0010
0000
0000
0010
0000
0000
0010
0000
0001
0010
0000
0001
,  // measure 5
0100
0000
0000
0100
0000
0000
0100
0000
0001
0100
0001
0100
,  // measure 6
0010
0000
0000
0010
0000
0000
0010
0000
1000
0010
0000
1000
,  // measure 7
0100
0000
0000
0100
0000
0000
0100
1000
0100
0010
0001
0010
,  // measure 8
0000
0000
0000
0010
0001
0010
0001
1000
0100
0000
0000
0000
,  // measure 9
0100
1000
0100
1000
0001
1000
0010
0000
0000
0100
0001
0100
,  // measure 10
0010
0000
0000
0010
1000
0100
0010
0000
0000
0000
0000
0000
,  // measure 11
0010
0001
0010
0001
0100
0001
0010
0000
0000
0001
1000
0001
,  // measure 12
0010
0000
0000
0001
0000
1000
0100
1000
0000
0010
0000
1000
,  // measure 13
0100
1000
0000
0001
0000
1000
0010
1000
0000
0010
0000
0100
,  // measure 14
0001
0100
0000
0010
0000
1000
0001
0100
0000
0001
0000
0100
,  // measure 15
0010
1000
0000
0001
0000
0001
0000
0001
0000
1000
0000
1000
,  // measure 16
0100
1000
0001
1000
0000
0001
0100
0000
0000
0010
0000
1000
,  // measure 17
0100
0000
0010
0001
0000
1000
0100
0000
0000
0010
0000
0001
,  // measure 18
0100
0000
0010
1000
0000
0010
0100
0000
0000
0001
0000
0010
,  // measure 19
0100
0000
1000
0001
0000
0010
0000
0100
0000
1000
0000
0010
,  // measure 20
0000
0100
0000
0010
0000
1000
0001
0000
0000
0010
0000
0001
,  // measure 21
1000
0000
0010
0100
0000
0001
1000
0000
0000
0100
0000
1000
,  // measure 22
0001
0000
0010
0001
0000
0100
0010
0000
0000
1000
0000
0100
,  // measure 23
0010
0000
0001
0000
1000
0001
1000
0000
0000
0000
0010
0100
,  // measure 24
0010
0000
0000
1000
0001
1000
0001
0100
0002
0000
0000
0000
,  // measure 25
0010
0000
0010
0003
0000
0000
0001
1000
0001
1000
0001
1000
,  // measure 26
0001
0000
1000
0000
0000
0000
0000
0010
1000
0100
0000
0000
,  // measure 27
0000
0010
0001
0100
0000
0000
0000
0000
0000
0010
1000
0010
,  // measure 28
0100
0001
0100
1000
0100
1000
0001
0010
0002
0000
0000
0000
,  // measure 29
0100
0000
0100
0003
0000
0000
0010
1000
0100
0010
0001
0100
,  // measure 30
0010
0000
0100
0000
0000
0000
0000
0010
1000
0100
0000
0000
,  // measure 31
0000
0000
0000
0010
0000
0000
0000
0000
0000
0001
0100
0010
,  // measure 32
1000
0100
0010
0001
0000
0001
0100
0000
0100
0010
0000
0010
,  // measure 33
1000
0000
1000
0100
0000
0100
0010
0000
0010
0001
0000
0001
,  // measure 34
0100
0001
0100
0010
0000
0010
1000
0000
1000
0100
0000
0100
,  // measure 35
0010
0000
0010
0001
0000
0001
0100
0000
0100
0010
0000
0010
,  // measure 36
1000
0001
1000
0010
0000
0010
0100
0000
0100
0001
0000
0001
,  // measure 37
1000
0000
1000
0100
0000
0100
0010
0000
0010
0001
0000
0001
,  // measure 38
0100
0001
0100
0010
0000
0010
1000
0000
1000
0001
0000
0001
,  // measure 39
0100
0000
0100
0000
0001
0000
0001
0000
0001
0000
1000
0000
,  // measure 40
1000
0000
1000
0010
1000
0100
0010
0001
0100
0000
0000
0000
,  // measure 41
0100
0001
0100
0001
0100
0001
0010
0000
0000
0100
1000
0100
,  // measure 42
0001
0000
0000
0001
0100
0001
0010
0000
0000
0000
0000
0000
,  // measure 43
0010
0001
0010
0100
1000
0100
0010
0000
0000
0001
0100
0001
,  // measure 44
0010
0000
0000
0001
0000
0000
0000
0001
1000
0010
0000
1000
,  // measure 45
0000
0001
0000
1000
0000
0100
0000
1000
0000
0020
0000
0000
,  // measure 46
0030
0000
0000
1000
0100
1000
0010
0000
0000
0000
0000
0010
,  // measure 47
0001
0010
0100
1000
0100
1000
0020
0000
0000
0030
0000
0000
,  // measure 48
0100
0001
0010
0001
0000
1000
0000
0100
0000
0010
0000
0001
,  // measure 49
0100
0000
0001
0010
0000
0001
0100
0000
0100
0010
0000
1000
,  // measure 50
0100
0000
1000
0010
0000
1000
0100
0000
0100
0010
0000
0001
,  // measure 51
0100
0000
0010
1000
0000
0100
0010
0000
0001
1000
0000
1000
,  // measure 52
0000
1000
0000
0001
0000
0001
0000
0001
0000
1000
0000
0001
,  // measure 53
0100
0000
0001
1000
0000
0001
0010
0000
0000
0001
0000
1000
,  // measure 54
0100
0000
1000
0001
0000
1000
0010
0000
0000
0100
0000
0010
,  // measure 55
0001
0000
0010
1000
0000
0010
0100
0000
0000
0000
0001
0010
,  // measure 56
0001
0000
0000
0000
1000
0100
1000
0000
0000
0010
0000
0100
,  // measure 57
0001
0000
1000
0100
0000
0010
0001
0000
1000
0010
0000
1000
,  // measure 58
0100
0000
0010
0001
0000
1000
0100
0000
0010
0100
0000
0001
,  // measure 59
0100
0000
0010
0100
0000
1000
0100
0000
0010
0001
0000
0001
,  // measure 60
0000
0100
0000
1000
0000
1000
0000
0100
0000
0000
0000
0000
,  // measure 61
1001
0000
2002
0000
0000
0000
0000
0000
0000
0000
0000
0000
,  // measure 62
0000
0000
3003
0000
;

//---------------dance-double - ----------------
#NOTES:
     dance-double:
     :
     Easy:
     2:
     0.171449,0.228288,0.062616,0.250464,0.000000,115.000000,109.000000,6.000000,24.000000,0.000000,0.000000,0.171449,0.228288,0.062616,0.250464,0.000000,115.000000,109.000000,6.000000,24.000000,0.000000,0.000000:
00000000
00000000
00000000
00000000
,
00000000
00000000
00000000
00000000
,
00000000
00000000
00000000
00000000
,
00000000
00000000
00000000
00000000
,
10000000
00000000
00000000
00010000
,
01000000
00000000
00000000
00001000
,
00010000
00000000
00000000
00000100
,
00001000
00000000
00000001
00000000
,
00000000
00000001
00000000
00000000
,
00000100
00001000
00000000
00010000
,
00000000
00100000
00000000
00000000
,
10000000
01000000
00000000
00010000
,
00000000
10000000
10000000
00000000
,
00000000
01000000
01000000
00000000
,
00000000
00010000
00010000
00000000
,
00000000
00001000
00000000
00000100
,
00000100
00000001
00000000
00000100
,
00000000
00001000
00000000
00010000
,
00000000
00100000
00000000
00010000
,
00000000
00001000
00000000
00000100
,
00000000
00001000
00000000
00000000
,
00010000
01000000
00000000
00000000
,
10000000
00100000
00000000
00000000
,
00010000
00000000
00001000
00000000
,
00011000
00000200
00000000
00000000
,
00000300
00020000
00000000
00000000
,
00030000
02000000
00000000
00000000
,
03000000
00002000
00000000
00010000
,
00003000
00200000
00000000
00000000
,
00300000
20000000
00000000
00000000
,
30000000
02000000
00000000
00000000
,
03000000
00020000
00000000
00001000
,
00030000
00002000
00003000
00000020
,
00000030
00002000
00003000
00020000
,
00030000
00200000
00300000
00020000
,
00030000
00002000
00003000
00000200
,
00000300
00000002
00000003
00000020
,
00000030
00002000
00003000
00020000
,
00030000
02000000
03000000
20000000
,
30000000
10000000
00000000
00000000
,
01000000
00010000
00000000
00000000
,
00001000
00000010
00000000
00000001
,
00000000
00000100
00000000
00000000
,
00001000
00000100
00000000
00001000
,
00000000
00011000
00000000
00000000
,
00000000
10010000
00000000
00000000
,
00000000
00011000
00000000
00000000
,
00000000
00001001
00000000
00000000
,
00000000
00000010
00000010
00000001
,
00000000
00000100
00000000
00001000
,
00000000
00010000
00000000
01000000
,
00000000
10000000
00000000
00100000
,
00000000
00010000
00000000
00001000
,
00000000
00000010
00000000
00000001
,
00000000
00000100
00000000
00001000
,
00000000
00010000
00000000
00000000
,
00100000
00000000
00100000
00010000
,
00000000
01000000
01000000
10000000
,
00000000
00100000
00010000
10000000
,
00000000
01000000
00000000
00010000
,
00000000
00001000
00001000
00000000
,
00022000
00000000
00000000
00000000
,
00000000
00000000
00033000
00000000
;

//---------------dance-double - ----------------
#NOTES:
     dance-double:
     :
     Medium:
     6:
     0.302644,0.358738,0.031308,0.240028,0.187848,203.000000,200.000000,3.000000,23.000000,0.000000,0.000000,0.302644,0.358738,0.031308,0.240028,0.187848,203.000000,200.000000,3.000000,23.000000,0.000000,0.000000:
00000000
00000000
00000000
00000000
,
00000000
00000000
00000000
00000000
,
00000000
00000000
00000000
00000000
,
00000000
00000000
00000000
00000000
,
10000000
00000000
00000000
00000000
00000000
01000000
00010000
00000000
00000000
00000000
00000000
00000000
,
00010000
00000000
00000000
00000000
00000000
00001000
00000010
00000000
00000000
00000000
00000000
00000000
,
00000010
00000000
00000000
00000000
00000000
00000001
00000100
00000000
00000000
00000000
00000000
00000000
,
00001000
00000000
00001000
00000000
00001000
00000000
00010000
00000000
00000000
00010000
00000000
00000000
,
00000000
10000000
10000000
00000000
,
00100000
10000000
01000000
00010000
,
00001000
00000010
00000010
00000000
,
00000001
00000100
00001000
00010000
,
01000000
00000000
00000000
10000000
00000000
00000000
10000000
01000000
00000000
00010000
00000000
00000000
,
00000000
00000000
00000000
00010000
00000000
00000000
00010000
00001000
00000000
00000010
00000000
00000000
,
00000000
00000000
00000000
00000001
00000000
00000000
00000001
00000100
00000000
00001000
00000000
00000000
,
00000000
00010000
00000000
00100000
,
10100000
10000000
01000000
00010000
,
00001000
00000100
00001000
00010000
,
00100000
00010000
00001000
00000010
,
00000001
00000000
00000000
00000001
00000000
00000001
00000000
00000001
00000000
00001000
00000000
00001000
,
00000000
00001000
00000000
00000001
00000000
00000000
00000100
00000000
00000000
00001000
00000000
00000000
,
00010000
00100000
00010000
00001000
,
00000100
00001000
00010000
01000000
,
10000000
00000000
00000000
00000000
10000000
00000000
10000000
00000000
00000000
00000000
00010000
00000000
,
00010000
20000000
30000000
02000000
,
03000000
00020000
00030000
00002000
,
00003000
00000200
00000300
00000002
,
00000003
00000020
00000030
00000100
,
00000001
00000002
00000003
00000200
,
00000300
00002000
00003000
00020000
,
00030000
02000000
03000000
20000000
,
30000000
00200000
00300000
01000000
,
10000000
00000000
00000000
10000000
00000000
00000000
10000000
00000000
01000000
00000000
00000000
00000000
,
00010000
00000000
00000000
00001000
00000000
00000000
00001000
00000000
00000100
00000000
00000000
00000000
,
00000001
00000000
00000000
00000001
00000000
00000000
00000001
00000000
00000010
00000000
00000000
00000000
,
00001000
00000000
00000000
00010000
00000000
00000000
00010000
00000000
00100000
00000000
00000000
00000000
,
10000000
00000000
00000000
10000000
00000000
00000000
10000000
00000000
01000000
00000000
00000000
00000000
,
00010000
00000000
00000000
00001000
00000000
00000000
00001000
00000000
00000010
00000000
00000000
00000000
,
00000001
00000000
00000000
00000001
00000000
00000000
00000001
00000000
00000100
00000000
00000000
00000000
,
00001000
00000000
00000000
00010000
00000000
00010000
00000000
00010000
00000000
00010000
00000000
00000000
,
00000000
00100000
10000000
00000000
,
10000000
01000000
00000000
00010000
,
00000000
00001000
00000010
00000000
,
00000010
00000001
00000000
00000100
,
00000000
00002000
00000000
00023000
,
00000000
00230000
00000000
20300000
,
00000000
30200000
00000000
00320000
,
00000000
00032000
00000000
00003100
,
00000001
00001000
00001001
00000010
,
00000001
00000000
00000010
00000000
00000000
00000000
00001000
00000000
00000000
00010000
00000000
00000000
,
00001000
00000000
00010000
00000000
00000000
00000000
00100000
00000000
00000000
10000000
00000000
00000000
,
01000000
00000000
10000000
00000000
00000000
00000000
00010000
00000000
00000000
10000000
00000000
10000000
,
00000000
10000000
00000000
00010000
00000000
00010000
00000000
00010000
00000000
00100000
00000000
00000000
,
10000000
00000000
00100000
00000000
00000000
00000000
00010000
00000000
00000000
00001000
00000000
00000000
,
00010000
00000000
00001000
00000000
00000000
00000000
00000010
00000000
00000000
00000001
00000000
00000000
,
00000100
00000000
00000001
00000000
00000000
00000000
00001000
00000000
00000000
00000000
00000001
00000000
,
00000001
00000000
00000000
00000000
00001000
00000000
00001000
00000000
00000000
00000001
00000000
00000000
,
00000010
00001000
00010000
01000000
,
00010000
00001000
00000100
00001000
,
00010000
00100000
10000000
01000000
,
00010000
00001000
00010000
00000000
,
00001000
00000000
00022000
00000000
00000000
00000000
00000000
00000000
00000000
00000000
00000000
00000000
,
00000000
00000000
00033000
00000000
;

//---------------dance-double - ----------------
#NOTES:
     dance-double:
     :
     Hard:
     9:
     0.475584,0.554413,0.052180,0.020872,0.751393,319.000000,314.000000,5.000000,2.000000,0.000000,0.000000,0.475584,0.554413,0.052180,0.020872,0.751393,319.000000,314.000000,5.000000,2.000000,0.000000,0.000000:
00000000
00000000
00000000
00000000
,
00000000
00000000
00000000
00000000
,
00000000
00000000
00000000
00000000
,
00000000
00000000
00000000
00000000
,
00100000
00000000
01000000
00010000
00000000
00000000
00000000
00000000
10000000
01000000
00000000
00000000
,
00010000
00000000
00001000
00000010
00000000
00000000
00000000
00000000
00000001
00000100
00000000
00000000
,
00001000
00000000
00010000
01000000
00000000
00000000
00000000
00000000
10000000
00100000
00000000
00000000
,
10000000
00000000
01000000
00010000
00000000
00000000
00001000
00000000
00001000
00000000
00001000
00000000
,
00000000
00000000
00000000
00000010
00000000
00000010
00000001
00000000
00000100
00000000
00000000
00000000
,
00001000
00000000
00001000
00010000
00000000
00010000
00100000
00000000
00000000
10000000
00000000
10000000
,
01000000
00010000
00011000
00000000
,
00001000
00000000
00001000
00000010
00000000
00000010
00000001
00000000
00000000
00000100
00000000
00000100
,
00001000
00000000
00000000
00010000
00000000
00000000
01000000
10000000
00000000
10000000
00000000
00000000
,
01000000
00010000
00000000
00001000
00000000
00000000
00000100
00000001
00000000
00000001
00000000
00000000
,
00000100
00001000
00000000
00010000
00000000
00000000
00100000
10000000
00000000
10000000
00000000
00000000
,
00100000
00010000
00000000
00001000
00000000
00001000
00000000
00001000
00000000
00000010
00000000
00000000
,
00000011
00000000
00000000
00000001
00000000
00000001
00000100
00000000
00001000
00000000
00000000
00001000
,
00010000
00000000
00000000
00010000
00000000
00010000
00100000
00000000
10000000
00000000
00000000
10000000
,
01000000
00000000
00000000
01000000
00000000
01000000
00010000
00000000
00001000
00000000
00000000
00001000
,
00000010
00000000
00000000
00000001
00000000
00000001
00000000
00000001
00000000
00001000
00000000
00001000
,
00000000
00001000
00000000
00000001
00000000
00000001
00000010
00000000
00001000
00000000
00000000
00001000
,
00010000
00000000
00000000
00010000
00000000
00010000
01000000
00000000
10000000
00000000
00000000
10000000
,
00100000
00000000
00000000
00100000
00000000
00100000
00010000
00000000
00001000
00000000
00000000
00001000
,
00000100
00000000
00000000
00000000
00000001
00000000
00000001
00000000
00000000
00000000
00001000
00000000
,
00001000
00000000
00000000
00000001
00000000
00000000
00000001
00000000
00000100
00000000
00000000
00000000
,
00001000
00000000
00001000
00000000
00000000
00000000
00010000
00000000
00010000
00100000
00000000
00100000
,
10000000
00000000
10000000
00000000
00000000
00000000
00000000
01000000
00000000
01000000
00000000
00000000
,
00000000
00010000
00000000
00010000
00000000
00000000
00000000
00000000
00000000
01000000
00000000
01000000
,
00100000
00000000
00100000
10000000
00000000
00000000
10000000
00000000
01000000
00000000
00000000
00000000
,
00010000
00000000
00010000
00000000
00000000
00000000
00001000
00000000
00001000
00000010
00000000
00000010
,
00000001
00000000
00000001
00000000
00000000
00000000
00000000
00000100
00000000
00000100
00000000
00000000
,
00000000
00001000
00000000
00001000
00000000
00000000
00000000
00000000
00000000
00000100
00000000
00000000
,
00000100
00000000
00000000
00001000
00000000
00001000
00010000
00000000
00010000
00000000
00000000
00100000
,
10000000
00000000
00000000
10000000
00000000
10000000
01000000
00000000
01000000
00000000
00000000
00010000
,
00001000
00000000
00000000
00001000
00000000
00001000
00000100
00000000
00000100
00000000
00000000
00001000
,
00010000
00000000
00000000
00010000
00000000
00010000
00100000
00000000
00100000
00000000
00000000
00010000
,
00001000
00000000
00000000
00001000
00000000
00001000
00000010
00000000
00000010
00000000
00000000
00000001
,
00000010
00000000
00000000
00000010
00000000
00000010
00001000
00000000
00001000
00000000
00000000
00010000
,
01000000
00000000
00000000
01000000
00000000
01000000
10000000
00000000
10000000
00000000
00000000
10000000
,
01000000
00000000
01000000
00000000
10000000
00000000
10000000
00000000
00010000
00000000
00010000
00000000
,
10010000
00000000
00000000
10000000
00000000
01000000
10000000
00000000
01000000
00000000
00000000
00000000
,
00010000
00000000
00010000
00001000
00000000
00001000
00000010
00000000
00000000
00000001
00000000
00001000
,
00000001
00000100
00000100
00000000
,
00000001
00000000
00000001
00000100
00000000
00000100
00001000
00000000
00000000
00010000
00000000
00010000
,
00100000
00000000
00000000
10000000
00000000
00000000
00000000
01000000
00000000
00010000
00000000
00010000
,
00000000
00010000
00000000
00001000
00000000
00001000
00000000
00001000
00000000
00011000
00000000
00000000
,
00000000
00000010
00000010
00000000
,
00000001
00000000
00000001
00000100
00000000
00000000
00000100
00000000
00000000
00000000
00000000
00000000
,
00001000
00000000
00000000
00010000
00000000
00010000
00000000
00010000
00000000
00100000
00000000
00100000
,
10000000
00000000
10000000
00000000
00000000
01000000
00010000
00000000
00000000
00001000
00000000
00001000
,
00000010
00000000
00000010
00000000
00000000
00000001
00000100
00000000
00000000
00001000
00000000
00001000
,
00010000
00000000
00010000
00000000
00000000
00001000
00000010
00000000
00000000
00000001
00000000
00000001
,
00000000
00000001
00000000
00001000
00000000
00001000
00000000
00001000
00000000
00000100
00000000
00000100
,
00000001
00000000
00000001
00000000
00000000
00000010
00001000
00000000
00000000
00010000
00000000
00010000
,
01000000
00000000
01000000
00000000
00000000
10000000
00100000
00000000
00000000
00010000
00000000
00010000
,
00001000
00000000
00001000
00000000
00000000
00010000
01000000
00000000
00000000
00000000
10000000
00000000
,
10000000
00000000
00000000
00000000
00010000
00000000
00010000
00000000
00000000
10000000
00000000
10000000
,
01000000
00000000
00000000
00010000
00000000
00010000
00001000
00000000
00000000
00000100
00000000
00000100
,
00000001
00000000
00000000
00000010
00000000
00000010
00000001
00000000
00000000
00001000
00000010
00001000
,
00000010
00000000
00000000
00010000
00001000
00010000
00001000
00000000
00000000
01000000
00010000
01000000
,
00010000
00000000
00000000
10000000
00000000
01000000
00100000
01000000
00100000
00000000
00000000
00000000
,
00001000
00000000
00022000
00000000
00000000
00000000
00000000
00000000
00000000
00000000
00000000
00000000
,
00000000
00000000
00033000
00000000
;

//---------------dance-double - ----------------
#NOTES:
     dance-double:
     :
     Beginner:
     1:
     0.141632,0.190979,0.062616,0.000000,0.000000,95.000000,89.000000,6.000000,0.000000,0.000000,0.000000,0.141632,0.190979,0.062616,0.000000,0.000000,95.000000,89.000000,6.000000,0.000000,0.000000,0.000000:
00000000
00000000
00000000
00000000
,
00000000
00000000
00000000
00000000
,
00000000
00000000
00000000
00000000
,
00000000
00000000
00000000
00000000
,
10000000
00000000
00000000
00010000
,
00000000
00000000
00000000
00001000
,
00000000
00000000
00000000
00000100
,
00000000
00000000
00000001
00000000
,
00000000
00000001
00000000
00000000
,
00000100
00000000
00000000
00010000
,
00000000
00100000
00000000
00000000
,
10000000
00000000
00000000
00010000
,
00000000
10000000
00000000
00000000
,
00000000
01000000
00000000
00000000
,
00000000
00010000
00000000
00000000
,
00000000
00001000
00000000
00000100
,
00000000
00000001
00000000
00000100
,
00000000
00001000
00000000
00010000
,
00000000
00100000
00000000
00010000
,
00000000
00001000
00000000
00000100
,
00000000
00001000
00000000
00000000
,
00010000
00000000
00000000
00000000
,
10000000
00000000
00000000
00000000
,
00010000
00000000
00001000
00000000
,
00011000
00000000
00000000
00000000
,
00000000
00010000
00000000
00000000
,
00000000
01000000
00000000
00000000
,
00000000
00001000
00000000
00010000
,
00000000
00100000
00000000
00000000
,
00000000
10000000
00000000
00000000
,
00000000
01000000
00000000
00000000
,
00000000
00010000
00000000
00001000
,
00000000
00001000
00000000
00000010
,
00000000
00001000
00000000
00010000
,
00000000
00100000
00000000
00010000
,
00000000
00001000
00000000
00000100
,
00000000
00000001
00000000
00000010
,
00000000
00001000
00000000
00010000
,
00000000
01000000
00000000
10000000
,
00000000
10000000
00000000
00000000
,
01000000
00000000
00000000
00000000
,
00001000
00000000
00000000
00000001
,
00000000
00000100
00000000
00000000
,
00001000
00000000
00000000
00001000
,
00000000
00011000
00000000
00000000
,
00000000
10010000
00000000
00000000
,
00000000
00011000
00000000
00000000
,
00000000
00001001
00000000
00000000
,
00000000
00000010
00000000
00000001
,
00000000
00000100
00000000
00001000
,
00000000
00010000
00000000
01000000
,
00000000
10000000
00000000
00100000
,
00000000
00010000
00000000
00001000
,
00000000
00000010
00000000
00000001
,
00000000
00000100
00000000
00001000
,
00000000
00010000
00000000
00000000
,
00100000
00000000
00100000
00000000
,
00000000
01000000
00000000
10000000
,
00000000
00100000
00000000
10000000
,
00000000
01000000
00000000
00010000
,
00000000
00001000
00000000
00000000
,
00011000
00000000
00000000
00000000
;
