#TITLE:Arcadia;
#SUBTITLE:;
#ARTIST:Hardwell & Joey Dale feat. Luciana;
#TITLETRANSLIT:;
#SUBTITLETRANSLIT:;
#ARTISTTRANSLIT:;
#GENRE:Hardwell Presents Revealed, Volume 5;
#CREDIT:;
#BANNER:Arcadia-bn.jpg;
#BACKGROUND:Arcadia-bg.jpg;
#LYRICSPATH:;
#CDTITLE:;
#MUSIC:Arcadia.mp3;
#OFFSET:-0.002006;
#SAMPLESTART:82.512459;
#SAMPLELENGTH:13.125000;
#LASTBEATHINT:236.000000;
#SELECTABLE:YES;
#BPMS:0.000000=128.000000
,201.000000=64.000000
,203.000000=128.000000
;
#STOPS:140.000000=1.406252
;
#BGCHANGES:;
#KEYSOUNDS:;
#ATTACKS:;

//---------------dance-single - ----------------
#NOTES:
     dance-single:
     :
     Challenge:
     9:
     0.566576,0.665774,0.585296,0.113565,0.288280,454.000000,387.000000,67.000000,13.000000,0.000000,0.000000,0.566576,0.665774,0.585296,0.113565,0.288280,454.000000,387.000000,67.000000,13.000000,0.000000,0.000000:
0000
0000
0000
0000
,
0000
0000
0000
0000
,
0000
0000
0000
0000
,
0000
0000
0000
0000
,
0000
0000
0000
0000
,
0000
0000
0000
0000
,
1000
0000
0001
0000
0010
0001
1000
0100
,
0001
0000
0000
0000
1000
0000
0000
0000
0010
0000
0001
0000
1000
0000
0010
0100
,
0001
0000
0100
0000
0010
1000
0001
1000
,
0010
0000
0000
0000
0100
0000
0001
0010
0100
0000
1000
0100
0010
0000
0100
0010
,
0001
0000
1000
0000
0010
1000
0001
0100
,
1000
0000
0000
0000
0001
0000
0000
0000
0100
0000
0001
0000
1000
0000
0010
1000
,
0001
0000
0010
0000
0001
1000
0100
0010
,
0001
0000
0000
0000
1000
0000
0001
0010
0100
0000
0010
0100
1000
0000
0100
1000
,
0001
0000
1001
0000
1100
0001
0100
0001
,
1100
0000
0000
0000
0011
0000
0000
0000
0101
0000
0010
0000
0100
0000
0010
1000
,
0100
0000
0101
0000
1100
0010
0100
0010
,
1001
0000
0000
0000
0110
0000
1000
0010
0100
0000
0001
1000
0100
0000
1000
0001
,
1000
0000
0110
0000
0011
0100
0010
0100
,
1001
0000
0000
0000
0101
0000
0000
0000
1000
0000
0100
0000
0001
0000
0100
0010
,
0001
0000
1001
0000
1010
1000
0001
1000
,
0100
0000
0000
0000
0010
0000
0001
1000
0010
0000
0010
1000
0001
0000
1000
0001
,
0200
0000
1000
0000
0010
0001
0301
1000
,
0002
0000
0000
0000
0010
0000
0000
0000
0010
0000
0100
0000
0013
0000
0001
0010
,
2000
0000
0100
0000
0001
0100
3001
1000
,
0200
0000
0000
0000
0310
0000
0001
0010
0100
0000
0010
0100
1000
0000
0001
0010
,
0200
0000
1000
0000
0010
1000
1300
0010
,
0002
0000
0000
0000
0100
0000
0000
0000
0010
0000
1000
0000
0013
0000
0100
0010
,
0002
0000
0100
0000
1000
0100
1003
0001
,
0200
0000
0000
0000
0310
0000
1000
0010
0100
0000
0010
0100
0001
0000
1000
0010
,
0200
0000
0300
0000
,
0001
0002
0000
0023
0000
1000
0000
0002
,
0000
0000
0000
0033
0000
0000
0000
0000
,
0000
1000
0000
0100
0000
0010
0000
0002
,
1000
1000
1000
1000
1003
1000
1000
1000
,
1000
0000
1001
0000
1001
0000
0011
1001
,
0101
0000
0000
0000
0000
0000
0100
0000
0001
0100
0000
0000
0100
0000
0001
0100
0000
0000
0010
0000
0000
1000
0000
0000
,
0100
0010
0001
0000
1010
0000
0011
1000
,
0100
0000
0000
0001
1000
0100
1000
0001
0010
0001
1000
0010
,
0110
0000
1001
0000
1010
0000
0001
0010
,
0100
0000
0000
1000
0000
0000
0001
0000
0010
0001
0000
0000
1000
0000
0010
1000
0000
0000
0010
0000
0000
0100
0000
0000
,
0101
0100
0001
0000
1001
0000
0011
1001
,
1100
0000
0000
0000
0000
0000
1000
0000
0001
0100
0000
0000
0001
0000
0100
0010
0000
0000
1000
0000
0001
0100
0000
0001
,
1000
0000
0000
0000
0100
0000
1000
0000
0000
0000
0001
0000
0010
0000
0000
0000
0000
0000
0000
0000
0000
0001
0000
0000
1000
0000
0000
0000
0000
0000
0001
0000
0000
0000
0000
0000
0011
0000
0000
0000
0000
0000
1001
0000
0000
0000
0000
0000
,
1010
0000
0000
0000
0000
0000
0010
0000
1000
0001
0000
0000
0010
0000
0001
1000
0000
0000
1001
0000
0000
0101
0000
0000
,
1001
0000
1010
0000
1000
0000
0000
0100
0001
0000
0100
0000
1000
0000
0001
0000
,
0101
0000
0000
0000
0000
0000
0001
0000
0010
1000
0000
0000
0010
0000
0100
0010
0000
0000
0001
0000
0000
1000
0000
0100
,
0010
0000
0001
0100
0000
0000
1001
0000
0000
0000
0000
0000
1010
0000
0000
0000
0000
0000
1001
0000
0000
0110
0000
0000
,
0101
0000
0000
0000
0000
0000
1000
0000
0100
1000
0000
0000
0001
0000
0010
0001
0000
0000
0110
0000
0000
0001
0000
0000
,
1100
0010
1001
0000
0110
0000
1010
0110
,
0101
0000
0000
0000
0001
0000
1000
0000
0010
1000
0001
0100
1001
0000
0000
0000
,
1100
0000
0000
0000
0000
0000
0011
0000
0000
0110
0000
0000
1100
0000
0000
0000
0000
0000
0010
0000
1000
0100
0000
0000
,
0010
0000
0000
0000
0001
0000
0100
0000
0000
0000
0000
0000
0110
0000
0000
0000
0000
0000
0101
0000
0000
0000
0000
0000
1001
0000
0000
0000
0000
0000
1100
0000
0000
0000
0000
0000
1000
0000
0000
0000
0000
0000
0000
0000
0000
0100
0000
0000
,
0010
0000
0000
0001
0000
0000
0100
0000
0000
0010
0000
0000
1001
0000
0000
0000
0000
0000
0010
0000
1000
0100
0000
0000
,
0010
0000
0001
0100
0000
0000
0001
0000
0000
1000
0000
0100
0010
0000
0001
0100
0000
0000
0101
0000
0000
0000
0000
0000
,
1010
0000
0000
0000
0000
0000
0110
0000
0000
0001
0000
0000
0100
0000
0000
0000
0000
0000
0010
0000
1000
0001
0000
0000
,
0010
0000
0001
1000
0000
0000
0010
0000
0000
0100
0000
0000
0101
0000
0000
0010
0000
0000
1001
0000
0000
0000
0000
0000
,
0110
0000
0000
0000
0000
0000
1010
0000
0000
0001
0000
0000
0100
0000
0000
0000
0000
0000
0001
0000
1000
0100
0000
0000
,
1000
0000
0100
0010
0000
0000
0001
0000
1000
0100
0000
0010
0001
0000
1000
0100
0000
0000
0000
0000
0000
0000
0000
0000
;

//---------------dance-single - ----------------
#NOTES:
     dance-single:
     :
     Hard:
     7:
     0.345687,0.384100,0.174715,0.227130,0.000000,277.000000,257.000000,20.000000,26.000000,0.000000,0.000000,0.345687,0.384100,0.174715,0.227130,0.000000,277.000000,257.000000,20.000000,26.000000,0.000000,0.000000:
0000
0000
0000
0000
,
0000
0000
0000
0000
,
0000
0000
0000
0000
,
0000
0000
0000
0000
,
0000
0000
0000
0000
,
0000
0000
0000
0000
,
1000
0000
0001
0000
0010
0001
0010
0001
,
0100
0000
0010
0000
1000
0100
1000
0001
,
1000
0000
0100
0000
1000
0010
1000
0010
,
0100
0000
0010
1000
0010
0100
0001
0000
,
0010
0000
0100
0000
1000
0001
0100
0001
,
0001
0000
1000
0000
0010
1000
0100
0010
,
0001
0000
1000
0000
0010
1000
0100
1000
,
0001
0000
1000
0001
0100
0010
0100
0002
,
0000
0020
0000
0000
0000
0033
0000
1001
,
0000
0010
0200
0000
0000
0000
1300
0010
,
0000
1000
0200
0000
0000
0310
0001
2000
,
0000
0000
0000
3001
,
0010
0000
1001
0000
0200
0000
0300
0001
,
1000
0001
0000
0010
0000
0220
0000
0330
,
1000
0001
0200
0000
,
0301
0000
1000
0100
0000
0010
0001
2000
,
0000
0002
0000
0000
3003
0000
0100
0020
,
0000
0200
0000
0000
0330
0000
0001
0020
,
0000
2000
0000
0000
3030
0000
0010
0001
,
0000
1000
0000
0010
0000
0100
0001
2000
,
0000
0200
0000
0000
3300
0000
0000
1001
,
0000
0010
0200
0000
0000
0301
0100
0001
,
0000
2000
0000
0000
3000
0000
0000
1100
,
0000
1001
0000
0101
0000
1001
0000
0020
,
0100
0000
0030
0000
,
1000
2000
0000
0010
0000
0100
0000
0002
,
0000
0000
0000
3003
0000
0000
0000
0000
,
0000
0001
0000
0010
0000
0100
0000
1000
,
0001
1000
0001
1000
0001
1000
0001
1000
,
0001
0000
1001
0000
0010
0000
0001
1000
,
0010
0000
1000
0100
1000
0100
0001
0100
,
1000
0000
1001
0000
0100
0000
0001
0100
,
0001
2000
3020
0130
,
1001
0000
0001
0000
1000
0000
0100
1000
,
0001
0000
0100
0001
0100
0001
1000
0010
,
0100
0001
1000
0000
0001
0000
0010
0001
,
0010
0000
0100
1000
0100
0000
1001
0000
,
0110
0000
1000
0000
0001
0000
0010
0100
,
0010
0000
0001
1000
0001
1000
0010
1000
,
0100
0000
1000
0000
0001
0000
0100
0010
,
0100
0000
0001
0100
0001
1000
0010
0100
,
0010
0000
1000
0000
1001
0000
0010
1000
,
0100
0000
0010
0001
0010
0100
0010
0000
,
1001
0000
0100
0000
0010
0000
1000
0001
,
0100
0202
0303
1001
,
0100
0000
0010
1000
0100
0000
1000
0010
,
1000
0010
1000
0000
1100
0000
0001
0000
,
0010
0000
0100
1000
0001
0000
0100
0001
,
1000
0001
0100
0010
0100
0000
0001
0000
,
0010
0000
0100
1000
0001
0000
1000
0001
,
1000
0001
0010
0100
1000
0000
1001
0000
,
0110
0000
0010
0100
0010
0000
0001
1000
,
0001
1000
0001
1000
0001
1000
0000
0000
;

//---------------dance-single - ----------------
#NOTES:
     dance-single:
     :
     Medium:
     5:
     0.311991,0.384100,0.480467,0.305752,0.000000,250.000000,195.000000,55.000000,35.000000,0.000000,0.000000,0.311991,0.384100,0.480467,0.305752,0.000000,250.000000,195.000000,55.000000,35.000000,0.000000,0.000000:
0000
0000
0000
0000
,
0000
0000
0000
0000
,
0000
0000
0000
0000
,
0000
0000
0000
0000
,
0000
0000
0000
0000
,
0000
0000
0000
0000
,
1000
0100
0020
0030
,
0001
1000
0002
0003
,
0100
0010
1000
0001
,
0010
0100
0020
0030
,
0001
1000
0200
0300
,
1000
0001
2000
3000
,
0010
1000
0001
0010
,
0100
1000
0002
0003
,
0102
0100
0100
0103
,
2010
0010
0010
3010
,
1000
0100
0001
0100
,
0010
0100
0010
0000
,
2100
0100
0100
3100
,
0012
0010
0010
0013
,
0100
1000
0001
0100
,
0010
0100
0010
1000
,
2002
0003
0020
3030
,
2020
0030
0002
3003
,
2002
3000
0020
0033
,
0022
0030
2000
3003
,
2002
3000
0200
0303
,
0202
0300
2000
3003
,
2002
0003
0200
3300
,
2200
0300
0002
3003
,
1001
0000
0000
0000
,
0000
0000
0000
0000
,
0010
1000
0100
0010
,
0001
1000
0010
0100
,
0001
1000
0001
1000
0001
1000
0001
1000
,
0001
0000
0010
0000
0001
0000
1000
0001
,
1000
1010
1010
1001
,
1001
0000
1000
0000
0100
0000
1000
0100
,
1000
1100
1100
1001
,
1001
0000
0100
0000
0010
0000
0100
0001
,
0100
0101
0101
1010
,
1010
0000
0100
0000
0010
0000
0100
1000
,
0100
1001
1001
0110
,
0110
0000
0010
0000
0100
0000
0010
0001
,
0010
0011
0011
1001
,
1001
0000
0100
0000
0010
0000
1000
0100
,
1000
1100
1100
1001
,
1001
0000
1000
0000
0001
0000
1000
0001
,
0100
0101
0101
1001
,
1001
0000
0010
0000
0100
0000
0010
0001
,
0100
0110
0000
1001
,
0100
0000
0010
1000
0010
0000
1010
0000
,
0110
1010
0110
1000
,
0100
0000
0010
0100
0010
0000
0101
0000
,
1001
0101
1001
0010
,
0001
0000
0010
0100
1000
0000
1010
0000
,
0110
1010
0110
1000
,
0001
0000
0010
0100
0010
0000
0100
0000
,
0100
0000
0200
0000
0000
0300
0000
0000
;

//---------------dance-single - ----------------
#NOTES:
     dance-single:
     :
     Easy:
     3:
     0.190939,0.252245,0.305752,0.690125,0.000000,153.000000,118.000000,35.000000,79.000000,0.000000,0.000000,0.190939,0.252245,0.305752,0.690125,0.000000,153.000000,118.000000,35.000000,79.000000,0.000000,0.000000:
// measure 0
0000
0000
0000
0000
,  // measure 1
0000
0000
0000
0000
,  // measure 2
0000
0000
0000
0000
,  // measure 3
0000
0000
0000
0000
,  // measure 4
0000
0000
0000
0000
,  // measure 5
0000
0000
0000
0000
,  // measure 6
2000
0000
3001
0000
,  // measure 7
0020
0000
0130
0000
,  // measure 8
2000
0000
3100
0000
,  // measure 9
0002
0000
0103
0000
,  // measure 10
0020
0000
0130
0000
,  // measure 11
0002
0000
1003
0000
,  // measure 12
0200
0000
0310
0000
,  // measure 13
0002
0000
1003
0000
,  // measure 14
2002
0000
3003
0000
,  // measure 15
0020
0000
0030
0000
,  // measure 16
0200
0000
0300
0000
,  // measure 17
0001
1000
0001
1000
,  // measure 18
0002
0000
0003
0000
,  // measure 19
0020
0000
0030
0000
,  // measure 20
0200
0000
0300
0000
,  // measure 21
1000
0001
1000
0001
,  // measure 22
2002
0000
3003
0000
,  // measure 23
0220
0000
0330
0000
,  // measure 24
2020
0000
3030
0000
,  // measure 25
0220
0000
0330
0000
,  // measure 26
2002
0000
3003
0000
,  // measure 27
0220
0000
0330
0000
,  // measure 28
0022
0000
0033
0000
,  // measure 29
0220
0000
0330
0000
,  // measure 30
1001
0000
0000
0000
,  // measure 31
0000
0000
0000
0000
,  // measure 32
0001
0001
0001
0001
,  // measure 33
1000
1000
1000
1000
,  // measure 34
0010
0010
0100
0100
,  // measure 35
0001
2002
3003
0220
,  // measure 36
0330
1000
0010
1000
,  // measure 37
0010
2020
3030
2002
,  // measure 38
3003
0100
0001
0100
,  // measure 39
0001
0202
0303
2002
,  // measure 40
3003
0001
0010
0001
,  // measure 41
0010
0022
0033
2002
,  // measure 42
3003
1000
0001
1000
,  // measure 43
0001
2002
3003
0220
,  // measure 44
0330
1000
0100
0001
,  // measure 45
0100
0220
0330
2002
,  // measure 46
3003
0001
0010
0100
,  // measure 47
1000
0220
0330
2002
,  // measure 48
3003
0100
0001
1000
,  // measure 49
0100
0220
0330
2002
,  // measure 50
3003
0010
0000
0220
,  // measure 51
0330
2020
3030
0100
,  // measure 52
0010
0100
0010
2200
,  // measure 53
3300
0220
0330
0010
,  // measure 54
0001
0010
0100
0022
,  // measure 55
0033
2200
3300
0010
,  // measure 56
0100
0010
0100
2020
,  // measure 57
3030
0202
0303
1001
;

//---------------dance-single - ----------------
#NOTES:
     dance-single:
     :
     Beginner:
     1:
     0.123549,0.176572,0.017472,0.069886,0.000000,99.000000,97.000000,2.000000,8.000000,0.000000,0.000000,0.123549,0.176572,0.017472,0.069886,0.000000,99.000000,97.000000,2.000000,8.000000,0.000000,0.000000:
// measure 0
0000
0000
0000
0000
,  // measure 1
0000
0000
0000
0000
,  // measure 2
0000
0000
0000
0000
,  // measure 3
0000
0000
0000
0000
,  // measure 4
0000
0000
0000
0000
,  // measure 5
0000
0000
0000
0000
,  // measure 6
0001
0000
0000
0000
,  // measure 7
1000
0000
0000
0000
,  // measure 8
0100
0000
0100
0000
,  // measure 9
0010
0000
0010
0000
,  // measure 10
0001
0000
0000
0000
,  // measure 11
0010
0000
0000
0000
,  // measure 12
0100
0000
0000
0000
,  // measure 13
1000
0000
0000
0000
,  // measure 14
2002
0000
3003
0000
,  // measure 15
0010
0010
0000
0000
,  // measure 16
0100
0100
0000
0000
,  // measure 17
0001
0000
1000
0000
,  // measure 18
0100
0000
0000
0000
,  // measure 19
0010
0000
0001
0000
,  // measure 20
1000
0000
0010
0000
,  // measure 21
0100
0000
0001
0000
,  // measure 22
0020
0000
0030
0000
,  // measure 23
0200
0000
0300
0000
,  // measure 24
2000
0000
3000
0000
,  // measure 25
0001
0000
0001
0000
,  // measure 26
0020
0000
0030
0000
,  // measure 27
0200
0000
0300
0000
,  // measure 28
2000
0000
3000
0000
,  // measure 29
0001
0000
0010
0000
,  // measure 30
1001
0000
0000
0000
,  // measure 31
0000
0000
0000
0000
,  // measure 32
0100
0000
0100
0000
,  // measure 33
0100
0000
0100
0000
,  // measure 34
0100
0100
0100
0100
,  // measure 35
0100
0100
0000
0010
,  // measure 36
0000
0100
0000
0010
,  // measure 37
0000
0001
0000
1000
,  // measure 38
0000
0100
0100
0100
,  // measure 39
0100
0100
0000
0010
,  // measure 40
0000
0001
0000
1000
,  // measure 41
0000
0010
0000
0100
,  // measure 42
0000
0001
0001
0001
,  // measure 43
0001
0001
0000
1000
,  // measure 44
0000
0100
0000
0010
,  // measure 45
0000
0001
0000
1000
,  // measure 46
0000
0010
0010
0010
,  // measure 47
0010
0010
0000
0100
,  // measure 48
0000
0001
0000
0010
,  // measure 49
0000
0100
0000
1000
,  // measure 50
0000
0000
0000
0001
,  // measure 51
0000
0001
0000
0010
,  // measure 52
0000
0100
0000
1000
,  // measure 53
0000
1000
0000
0010
,  // measure 54
0010
0010
0010
0010
,  // measure 55
0000
0100
0000
0001
,  // measure 56
0000
1000
0000
0100
,  // measure 57
0000
0010
0000
0001
;
