#TITLE:Adventure of a Lifetime;
#SUBTITLE:;
#ARTIST:Coldplay;
#TITLETRANSLIT:;
#SUBTITLETRANSLIT:;
#ARTISTTRANSLIT:;
#GENRE:A Head Full of Dreams;
#CREDIT:;
#BANNER:Adventure of a Lifetime-bn.jpg;
#BACKGROUND:Adventure of a Lifetime-bg.jpg;
#LYRICSPATH:;
#CDTITLE:;
#MUSIC:Adventure of a Lifetime.mp3;
#OFFSET:-0.293000;
#SAMPLESTART:17.139935;
#SAMPLELENGTH:17.410713;
#LASTBEATHINT:267.998383;
#SELECTABLE:YES;
#DISPLAYBPM:112.000000;
#BPMS:0.000000=112.000000
,152.000000=31.099998
,153.250000=56.000000
,154.000000=112.000000
;
#STOPS:
;
#BGCHANGES:;
#KEYSOUNDS:;
#ATTACKS:;

//---------------dance-single - ----------------
#NOTES:
     dance-single:
     [Ness]:
     Challenge:
     10:
     0.595907,0.676744,0.135433,0.176063,0.717797,616.000000,596.000000,20.000000,26.000000,0.000000,0.000000,0.595907,0.676744,0.135433,0.176063,0.717797,616.000000,596.000000,20.000000,26.000000,0.000000,0.000000:
0000
0000
0000
0000
,
0000
0000
0000
0000
,
0000
0000
0000
0000
,
0000
0000
0000
0000
,
0000
0000
0000
1000
0000
0000
0010
0000
0000
0001
0000
0000
0010
0000
1000
0100
2000
0000
0000
0000
0000
3100
0000
0000
,
0000
0000
0000
0001
0000
0000
0100
0000
0000
1000
0000
0000
0100
0000
0010
0100
0020
0000
0000
0000
0000
0031
0000
0000
,
0000
0000
0000
0100
0000
0000
1000
0000
0000
0100
0000
0000
0001
0000
0010
0001
0020
0000
0000
0000
0000
0130
0000
0000
,
0000
0000
1000
0000
0010
0000
0100
0000
0110
0000
0000
0000
1001
0000
0100
0001
,
0010
0000
0000
0100
0000
0000
1000
0000
0000
0010
0000
0000
0100
0000
0000
0001
0000
0000
1000
0000
0000
0100
0000
0000
0010
0000
0000
0000
0001
0000
0100
0000
0001
0000
0000
0000
0000
0000
0000
0000
0000
0000
1000
0000
0000
0001
0000
0000
,
0100
0000
0000
0001
0000
0000
1000
0000
0000
0010
0000
0000
1000
0000
0000
0100
0000
0000
0010
0000
0000
0001
0000
0000
1000
0000
0000
0000
0100
0000
1000
0000
0100
0000
0000
0000
0000
0000
0000
0000
0000
0000
0010
0000
0000
0001
0000
0000
,
1000
0000
0000
0010
0000
0000
0100
0000
0000
0001
0000
0000
0010
0000
0000
0001
0000
0000
1000
0000
0000
0010
0000
0000
0100
0000
0000
0000
0010
0000
1000
0000
0010
0000
0000
0000
0000
0000
0000
0000
0000
0000
0100
0000
0000
0001
0000
0000
,
1000
0100
0010
0001
1000
0010
0100
0001
0020
0000
0130
0000
0020
0000
0130
1000
,
0100
0000
0000
0010
0000
0000
0001
0000
0000
1000
0000
0000
0010
0000
0000
0100
0000
0000
0001
0000
0000
0010
0000
0000
0100
0000
0000
0000
1000
0000
0001
0000
1000
0000
0000
0000
0000
0000
0000
0000
0000
0000
0010
0000
0000
0100
0000
0000
,
0001
0000
0000
0010
0000
0000
0100
0000
0000
1000
0000
0000
0010
0000
0000
0100
0000
0000
0001
0000
0000
1000
0000
0000
0100
0000
0000
0000
0010
0000
0001
0000
0010
0000
0000
0000
0000
0000
0000
0000
0000
0000
0100
0000
0000
1000
0000
0000
,
0001
0000
0000
0100
0000
0000
0010
0000
0000
1000
0000
0000
0100
0000
0000
0010
0000
0000
0001
0000
0000
1000
0000
0000
0010
0000
0000
0000
1000
0000
0100
0000
1000
0000
0000
0000
0000
0000
0000
0000
0000
0000
0001
0000
0000
0100
0000
0000
,
0010
1000
0001
0010
0100
0010
0001
1000
1100
0000
0000
0000
0101
0000
0000
0000
,
1001
0000
0000
0010
0000
0010
0100
0000
0001
0000
1000
0100
1000
0000
0010
0200
,
0000
0000
0000
0000
0301
0000
0000
0000
1000
0000
0001
0100
0000
0010
0000
0000
,
0120
0000
0000
0000
0001
0000
0000
0000
1000
0000
0100
0000
0130
0000
0001
0100
,
0001
0000
1000
0100
0000
0000
0010
0000
0002
0000
0010
0000
1003
0000
0000
0000
,
1200
0000
0000
0000
0001
0000
0000
0000
1000
0000
0010
0000
0310
0001
0000
0000
,
0100
0000
0000
0020
1000
0000
0000
0000
0001
0000
0100
0000
0130
0000
0000
0000
,
0001
0000
1000
0100
0000
0010
0001
0000
0100
0000
0010
0000
1000
0001
0000
1000
,
0000
0000
0100
0000
0100
0000
0010
0000
0001
1000
0000
0000
1001
0000
1000
0001
,
0100
0000
0000
0010
0000
0010
0100
0000
0001
0000
1000
0001
1000
0000
0001
0020
,
0000
0000
0000
0000
0130
0000
0000
0000
1000
0000
0010
0100
0000
0001
0000
0000
,
1002
0000
0000
0000
0100
0000
0000
0000
0010
0000
1000
0000
1003
0000
0100
1000
,
0100
0000
0010
0100
0000
0000
1000
0000
0020
0000
0001
0000
0130
0000
0000
0000
,
0210
0000
0000
0000
1000
0000
0000
0000
0010
0000
0001
0000
0301
0100
0000
0000
,
0001
0000
0000
2000
0010
0000
0000
0000
0100
0000
0010
0000
0001
0000
0000
0000
,
3100
0000
0010
0001
0000
1000
0100
0000
0010
0000
0001
0000
1000
0001
0000
0100
,
0000
0000
0001
0000
0010
0000
0100
0000
1000
0010
0100
0000
0002
0000
1000
0000
,
1003
0000
0000
1000
0100
0000
0000
0100
0001
0000
0000
0001
1000
0000
0000
1000
,
0010
0000
0000
0010
0001
0000
0000
0001
1000
0000
0100
0000
0010
0000
1000
0000
,
0100
0000
0000
0100
0010
0000
0001
0000
1000
0000
0000
1010
0000
0000
0011
0000
,
0000
0000
0010
0001
1000
0000
1000
0000
0010
0000
0100
0000
0001
0000
2000
0000
,
0100
0000
0000
0000
0001
0000
0000
0000
0010
0000
0001
0000
3100
0000
0010
0001
,
0200
0000
1000
0000
0000
0001
0000
0000
0010
0000
0010
0000
0010
0000
0310
0200
,
0020
0000
0000
0000
0330
0000
0000
0000
0110
0000
0000
0000
1001
0000
0100
0001
,
0010
0000
0000
0100
0000
0000
1000
0000
0000
0010
0000
0000
0100
0000
0000
0001
0000
0000
1000
0000
0000
0100
0000
0000
0010
0000
0000
0000
0001
0000
0100
0000
0001
0000
0000
0000
0000
0000
0000
0000
0000
0000
1000
0000
0000
0001
0000
0000
,
0100
0000
0000
0001
0000
0000
1000
0000
0000
0010
0000
0000
1000
0000
0000
0100
0000
0000
0010
0000
0000
0001
0000
0000
1000
0000
0000
0000
0100
0000
1000
0000
0100
0000
0000
0000
0000
0000
0000
0000
0000
0000
0010
0000
0000
0001
0000
0000
,
1000
0000
0000
0010
0000
0000
0100
0000
0000
0001
0000
0000
0010
0000
0000
0001
0000
0000
1000
0000
0000
0010
0000
0000
0100
0000
0000
0000
0010
0000
1000
0000
0010
0000
0000
0000
0000
0000
0000
0000
0000
0000
0100
0000
0000
0001
0000
0000
,
1000
0100
0010
0001
1000
0010
0100
0001
0101
0000
0000
1100
0000
0000
1001
0000
,
0100
0000
0000
0010
0000
0000
0001
0000
0000
1000
0000
0000
0010
0000
0000
0100
0000
0000
0001
0000
0000
0010
0000
0000
0100
0000
0000
0000
1000
0000
0001
0000
1000
0000
0000
0000
0000
0000
0000
0000
0000
0000
0010
0000
0000
0100
0000
0000
,
0001
0000
0000
0010
0000
0000
0100
0000
0000
1000
0000
0000
0010
0000
0000
0100
0000
0000
0001
0000
0000
1000
0000
0000
0100
0000
0000
0000
0010
0000
0001
0000
0010
0000
0000
0000
0000
0000
0000
0000
0000
0000
0100
0000
0000
1000
0000
0000
,
0001
0000
0000
0100
0000
0000
0010
0000
0000
1000
0000
0000
0100
0000
0000
0010
0000
0000
0001
0000
0000
1000
0000
0000
0010
0000
0000
0000
1000
0000
0100
0000
1000
0000
0000
0000
0000
0000
0000
0000
0000
0000
0001
0000
0000
0100
0000
0000
,
0010
1000
0001
0010
0100
0010
0001
1000
0100
0000
0010
0000
0001
0000
1000
0001
,
1000
0000
0000
1000
0010
0000
0000
0010
0100
0000
0001
0000
1000
0000
0100
0000
,
0010
0000
0000
0010
0001
0000
0000
0001
1000
0000
0010
0000
0100
0000
0001
0000
,
0010
0000
0000
0010
0100
0000
0000
0100
1000
0000
0001
0000
0100
0000
0010
0000
,
1000
0000
0000
1000
0100
0000
0000
0100
0001
0000
0100
0000
0010
0000
0001
0000
,
0100
0000
1000
0100
0001
0000
0100
0000
0010
0000
1000
0100
0001
0000
0100
0000
,
0010
0000
0001
0100
1000
0000
0100
0000
0010
0000
1000
0100
0001
0000
0100
0000
,
0010
0001
1000
0000
0010
0000
0001
0010
1000
0000
0001
0000
0010
0000
1000
0010
,
0001
0000
1000
0000
0010
0000
0001
0010
1000
0000
0001
0000
0010
0000
0100
0000
,
1100
0000
1000
0010
0000
0100
0001
0000
0001
0010
0000
1000
0010
0000
0100
0000
,
1000
0000
0010
0001
0000
0010
1000
0000
0001
0100
0000
1000
0100
0000
0010
1000
,
0100
0000
0001
0100
0000
1000
0001
0000
0010
0100
0000
1000
0010
0000
0100
0001
,
1000
0000
0010
0001
0000
0010
1000
0000
1000
0100
0000
0100
0010
0000
0001
1000
,
0010
0000
0100
0001
0000
0001
0010
0000
0010
1000
0000
1000
0100
0000
0010
0000
,
0001
0000
0001
0100
0000
0100
1000
0000
1000
0010
0000
0010
0001
0000
1000
0100
,
0010
0000
0001
0100
0000
1000
0100
0000
0010
1000
0000
0001
0010
0000
0100
1000
,
0001
0000
0010
1000
0000
0010
0001
0000
1000
0100
0000
0010
0001
0000
1000
0100
,
0001
0200
0310
2001
,
3001
0200
0310
1001
,
0001
0100
1000
0000
0200
0000
0000
0000
0310
0100
0010
0000
0200
0000
0000
0000
,
0301
0100
1000
0000
0200
0000
0000
0000
0301
0100
1000
0000
0000
0000
0000
0000
;

//---------------dance-single - ----------------
#NOTES:
     dance-single:
     [Ness]:
     Hard:
     7:
     0.387920,0.383488,0.155748,0.230237,0.203150,401.000000,378.000000,23.000000,34.000000,0.000000,0.000000,0.387920,0.383488,0.155748,0.230237,0.203150,401.000000,378.000000,23.000000,34.000000,0.000000,0.000000:
0000
0000
0000
0000
,
0000
0000
0000
0000
,
0000
0000
0000
0000
,
0000
0000
0000
0000
,
0000
1000
0100
1000
0020
0000
0031
0000
,
0000
0001
0100
0001
0020
0000
1030
0000
,
0000
1000
0001
1000
0020
0000
0031
0000
,
0000
0001
1000
0001
0011
0000
1010
0000
,
1001
0000
0100
0000
0010
1000
0100
0000
,
1000
0100
1000
0100
0010
0001
0100
0000
,
0001
0000
1000
0000
0010
0001
0100
0000
,
0010
1000
0010
1000
0100
0001
0100
1000
,
0000
0001
0010
0001
0200
0000
1300
0000
,
0000
1000
0010
1000
0200
0000
0301
0000
,
0000
0001
0010
0001
0020
0000
1030
0000
,
0000
1000
0010
1000
1100
0000
0101
0000
,
1001
0000
0100
0000
0002
0100
0103
0000
,
0010
0000
1000
0000
0100
0000
0000
0000
1000
0000
0000
0000
0001
0100
0000
0000
,
0101
0000
1000
0000
0010
0100
0010
0000
,
1000
0001
0010
0000
0100
1000
0001
0000
,
0100
0000
0110
0000
1000
0010
0100
0000
,
0001
0000
0000
0000
0101
0000
0000
0000
1000
0000
0000
0000
0010
0100
0000
0000
,
0001
0000
1001
0000
0010
0001
0100
0000
,
0001
0100
0001
0000
1000
0010
0100
0000
,
1001
0000
0100
0000
0020
0100
0130
0000
,
0001
0000
0010
0000
0100
0000
0000
0000
0010
0000
0000
0000
0001
1000
0000
0000
,
1100
0000
0010
0000
0100
0001
0100
0000
,
0010
1000
0100
0000
0100
0010
0001
0000
,
1000
0000
1010
0000
0001
0100
0010
0000
,
0100
0000
0000
0000
1001
0000
0000
0000
0010
0000
0000
0000
1000
0100
0000
0000
,
0010
0000
1001
0000
0010
0001
1000
0000
,
0010
0100
0010
0000
1000
0001
0100
0010
,
1000
0000
0000
1000
0100
0000
0000
0100
0010
0000
0000
0010
0001
0000
0000
0001
,
1000
0000
0000
1000
0001
0000
0000
0001
0010
0000
0000
0010
0100
0000
0000
0100
,
1000
0000
0000
1000
0010
0000
0000
0010
0100
0000
0000
0001
0000
0000
1000
0000
,
0000
0001
0010
0100
,
2100
0000
0010
0000
0100
0000
3010
0200
,
0001
0010
0001
0310
,
0220
0330
0110
1001
,
0000
0000
0100
0000
0001
0000
0100
0000
0020
0000
0000
0100
0000
0000
0130
0000
,
0000
0000
0001
0000
1000
0000
0001
0000
0020
0000
0000
0001
0000
0000
0130
0000
,
0000
0000
1000
0000
0100
0000
1000
0000
0020
0000
0000
1000
0000
0000
0130
0000
,
0000
0001
0100
0001
2000
3002
2003
3002
,
0013
0000
0100
0000
1000
0000
0001
0000
0200
0000
0000
1000
0000
0000
0310
0000
,
0000
0000
1000
0000
0001
0000
1000
0000
0020
0000
0000
0001
0000
0000
0130
0000
,
0000
0000
0001
0000
0100
0000
0001
0000
0020
0000
0000
0100
0000
0000
0031
0000
,
0000
1000
0100
1000
0001
0100
1000
0100
,
0002
0000
0010
0000
0103
0001
0100
0001
,
2000
0000
0100
0000
3010
1000
0010
1000
,
0020
0000
0100
0000
1030
0010
1000
0010
,
2000
0000
0000
0000
0001
0000
0000
0000
3100
0000
0010
0000
0100
0000
1000
0001
,
1000
0000
0000
0000
0010
0000
0100
0000
0001
0000
0000
0000
0010
0000
0001
1000
,
0001
0000
0010
0100
1000
0000
0020
0000
,
1030
0001
0100
0000
0001
0000
0000
0000
0101
0000
0000
0000
1010
0000
0000
0000
,
0010
1000
0100
0000
1000
0001
0100
0010
,
0100
0000
0000
0100
0001
0000
0000
0001
1000
0000
0000
1000
0100
0000
0000
0100
,
0010
0000
0000
0010
0001
0000
0000
0001
1000
0000
0000
1000
0010
0000
0000
0010
,
0100
0000
0000
0001
0100
0000
0000
0001
1000
0000
0000
0001
1000
0000
0000
0001
,
0010
0000
0000
0001
0010
0000
0000
0001
1000
0000
0000
0001
1000
0000
0000
0001
,
0100
0000
0000
0100
0010
0000
0000
0010
1000
0000
0000
1000
0100
0000
0000
0100
,
0010
0000
0000
0010
0001
0000
0000
0001
1000
0000
0000
1000
0010
0000
0000
0010
,
0100
0000
0000
1000
0100
0000
0000
0010
0100
0000
0000
0001
0100
0000
0000
1000
,
0100
0000
0000
0001
0100
0000
0000
0010
0100
0000
0000
1000
0100
0000
0000
0001
,
0100
0002
1003
2001
,
3010
0200
0301
0210
,
1300
0100
1000
0000
0002
0000
0000
0000
1003
0100
1000
0000
0020
0000
0000
0000
,
1030
0100
1000
0000
0002
0000
0000
0000
1003
0100
1000
0000
0000
0000
0000
0000
;

//---------------dance-single - ----------------
#NOTES:
     dance-single:
     [Ness]:
     Medium:
     5:
     0.292149,0.315221,0.196379,0.054173,0.000000,302.000000,273.000000,29.000000,8.000000,0.000000,0.000000,0.292149,0.315221,0.196379,0.054173,0.000000,302.000000,273.000000,29.000000,8.000000,0.000000,0.000000:
0000
0000
0000
0000
,
0000
0000
0000
0000
,
0000
0000
0000
0000
,
0000
0000
0000
0000
,
1000
0001
0100
0100
,
0100
1000
0010
0010
,
0010
0001
0100
0100
,
0100
1000
1001
0110
,
1001
0010
0100
0100
,
0001
0001
1000
1000
,
0100
0100
0010
0010
,
0001
0000
0001
0000
1000
0010
1000
0000
,
0001
0001
1000
0100
,
0010
0010
0100
1000
,
0001
0001
0100
0010
,
0100
0000
0100
0000
0001
1000
0001
0000
,
1001
0000
0000
0000
0000
0000
0010
1000
,
0010
0000
0100
0000
0100
0000
0001
0100
,
0001
0100
0001
0001
,
1000
0010
0100
0001
,
1000
0000
0000
0000
0000
0000
0100
1000
,
0100
0010
0001
0010
,
0100
0000
1000
0000
0001
0000
0100
0010
,
0100
0001
1000
0010
,
0110
0000
0000
0000
0000
0000
0001
1000
,
0001
0010
0100
1000
,
0001
0000
0100
0000
0010
0000
1000
0100
,
1000
0010
0100
0001
,
1001
0000
0000
0000
0000
0000
1000
0010
,
0001
0000
0010
0000
0100
0000
1000
0100
,
0001
0100
1000
0100
,
0010
0000
0001
0000
1000
0010
0100
0000
,
0001
0000
0010
0000
0010
1000
0010
0000
,
0001
0000
0100
0000
0100
1000
0100
0000
,
1000
0000
0010
0000
0010
0001
0010
0000
,
0001
0000
0100
0000
0100
0001
0100
0000
,
1100
0010
0100
0100
,
0010
0010
0100
0100
,
0202
0303
1001
0110
,
1001
0000
0010
0000
0001
0100
1000
0000
,
0100
0000
0010
0000
1000
0100
0001
0000
,
0100
0000
0010
0000
0001
0100
1000
0000
,
0010
0100
0001
0000
1000
0010
0001
0000
,
0010
0100
1000
0000
0001
0000
0001
0000
,
1000
0100
0010
0000
0001
0000
0001
0000
,
0100
0010
1000
0000
0100
0000
0100
0000
,
0010
0100
1000
0000
0110
0000
1001
0000
,
0010
0001
0010
0000
0001
0100
0001
0000
,
1000
1000
0001
0001
,
1000
0100
1000
0000
0010
1000
0010
0000
,
0100
0100
0010
0010
,
0110
0001
0100
0101
,
0101
1000
0010
1100
,
1100
0100
0010
0001
,
1000
0001
0100
0010
,
0100
0110
0110
1000
,
0001
0000
1001
0000
1001
0000
1000
0010
,
0100
0000
0010
0000
0100
0000
0001
0100
,
0010
0100
0010
1000
,
0001
0010
0100
1100
,
1100
0010
0100
0110
,
0110
0001
1000
1001
,
1001
0000
0010
0000
0001
0100
0010
0000
,
0110
2000
3100
0020
,
0031
2000
3010
0100
,
0100
0002
0013
0200
,
1300
0002
0103
0000
;

//---------------dance-single - ----------------
#NOTES:
     dance-single:
     [Ness]:
     Easy:
     3:
     0.173161,0.201119,0.013543,0.108347,0.000000,179.000000,177.000000,2.000000,16.000000,0.000000,0.000000,0.173161,0.201119,0.013543,0.108347,0.000000,179.000000,177.000000,2.000000,16.000000,0.000000,0.000000:
// measure 0
0000
0000
0000
0000
,  // measure 1
0000
0000
0000
0000
,  // measure 2
0000
0000
0000
0000
,  // measure 3
0000
0000
0000
0000
,  // measure 4
1000
0100
0010
0000
,  // measure 5
0000
0001
1000
0000
,  // measure 6
0000
0001
0100
0000
,  // measure 7
0000
0010
1000
1000
,  // measure 8
0100
0010
0001
0000
,  // measure 9
0010
0100
1000
0000
,  // measure 10
0001
1000
0100
0000
,  // measure 11
0010
0001
0100
0010
,  // measure 12
1000
0001
0100
0000
,  // measure 13
0010
1000
0100
0000
,  // measure 14
0010
0001
1000
0000
,  // measure 15
0001
0100
0010
0010
,  // measure 16
1001
0000
0000
1000
,  // measure 17
0001
0100
0100
0000
,  // measure 18
0010
0000
0100
0000
,  // measure 19
0001
1000
0100
0010
,  // measure 20
0001
0000
0000
1000
,  // measure 21
0010
0100
0100
0000
,  // measure 22
0001
0000
1000
0000
,  // measure 23
0100
0000
0010
0001
,  // measure 24
0100
0000
0000
0001
,  // measure 25
1000
0010
0001
0000
,  // measure 26
0010
0000
0100
0000
,  // measure 27
1000
0100
0010
0100
,  // measure 28
0010
0000
0000
0001
,  // measure 29
0100
1000
0000
1000
,  // measure 30
0100
0001
0000
0001
,  // measure 31
1000
0100
0010
0010
,  // measure 32
0002
0000
0103
0000
,  // measure 33
2000
0000
3010
0100
,  // measure 34
0020
0000
1030
0001
,  // measure 35
2000
0000
3100
0010
,  // measure 36
0001
0001
0001
0000
,  // measure 37
1000
1000
1000
0000
,  // measure 38
2002
3003
0010
0010
,  // measure 39
0100
0001
0010
0010
,  // measure 40
0100
1000
0100
0000
,  // measure 41
0010
0100
0010
0000
,  // measure 42
0001
1000
0010
0010
,  // measure 43
0100
0001
1000
1000
,  // measure 44
0100
0010
0100
0000
,  // measure 45
0010
0001
1000
0000
,  // measure 46
0010
1000
0100
0100
,  // measure 47
0010
0000
0001
0000
,  // measure 48
1000
0000
0001
0100
,  // measure 49
0010
0000
1000
0000
,  // measure 50
0100
0000
0010
0100
,  // measure 51
1000
0000
0000
1000
,  // measure 52
0001
0000
0000
0001
,  // measure 53
0100
0000
0000
0100
,  // measure 54
0010
0000
0000
0020
,  // measure 55
1030
0000
0000
2000
,  // measure 56
3001
0000
0000
0002
,  // measure 57
0013
0100
0010
0100
,  // measure 58
1000
0001
1000
0002
,  // measure 59
0103
0000
0000
0020
,  // measure 60
1030
0000
0000
0002
,  // measure 61
0013
0100
0010
0100
,  // measure 62
1000
0001
1000
0002
,  // measure 63
0103
0000
0000
2000
,  // measure 64
3100
0000
0000
0020
,  // measure 65
0031
0000
0000
2000
,  // measure 66
3010
0000
0000
0000
;

//---------------dance-single - ----------------
#NOTES:
     dance-single:
     [Ness]:
     Beginner:
     1:
     0.118021,0.133571,0.000000,0.000000,0.000000,122.000000,122.000000,0.000000,0.000000,0.000000,0.000000,0.118021,0.133571,0.000000,0.000000,0.000000,122.000000,122.000000,0.000000,0.000000,0.000000,0.000000:
// measure 0
0000
0000
0000
0000
,  // measure 1
0000
0000
0000
0000
,  // measure 2
0000
0000
0000
0000
,  // measure 3
0000
0000
0000
0000
,  // measure 4
0010
0000
0010
0000
,  // measure 5
0001
0000
0001
0000
,  // measure 6
1000
0000
1000
0000
,  // measure 7
0100
0000
0100
0100
,  // measure 8
0100
0000
0000
0000
,  // measure 9
0010
0000
0000
0000
,  // measure 10
0001
0000
0000
0000
,  // measure 11
1000
0000
0001
0000
,  // measure 12
0100
0000
0100
0000
,  // measure 13
0010
0000
0010
0000
,  // measure 14
1000
0000
1000
0000
,  // measure 15
0001
0000
0001
0000
,  // measure 16
0100
0000
0000
0010
,  // measure 17
0010
0000
0000
0100
,  // measure 18
0100
0000
0000
0000
,  // measure 19
0001
0000
1000
0000
,  // measure 20
0001
0000
0000
0010
,  // measure 21
0010
0000
0000
0100
,  // measure 22
0100
0000
0000
1000
,  // measure 23
1000
0000
0001
0000
,  // measure 24
1000
0000
0000
0010
,  // measure 25
0010
0000
0000
0100
,  // measure 26
0100
0000
0000
0000
,  // measure 27
0001
0000
1000
0000
,  // measure 28
0001
0000
0000
0010
,  // measure 29
0010
0000
0000
0100
,  // measure 30
0100
0000
0000
1000
,  // measure 31
1000
0000
0001
0000
,  // measure 32
0100
0000
0010
0000
,  // measure 33
1000
0000
0001
0000
,  // measure 34
0100
0000
0010
0000
,  // measure 35
0100
0000
0010
0000
,  // measure 36
0100
0000
0000
0000
,  // measure 37
0001
0000
0000
0000
,  // measure 38
1000
0000
1000
1000
,  // measure 39
1000
0000
0100
0000
,  // measure 40
0001
0000
0100
0000
,  // measure 41
0010
0000
0100
0000
,  // measure 42
0010
0000
0100
0100
,  // measure 43
0100
0000
1000
0000
,  // measure 44
0001
0000
1000
0000
,  // measure 45
0001
0000
0100
0000
,  // measure 46
0010
0000
0100
0100
,  // measure 47
0100
0000
0010
0000
,  // measure 48
1000
0000
0001
0000
,  // measure 49
0100
0000
0010
0000
,  // measure 50
1000
0000
0001
0000
,  // measure 51
0010
0000
0001
0000
,  // measure 52
1000
0000
0010
0000
,  // measure 53
1000
0000
0100
0000
,  // measure 54
0010
0000
0100
0100
,  // measure 55
0100
0000
0000
1000
,  // measure 56
1000
0000
0000
0001
,  // measure 57
0001
0000
0000
0001
,  // measure 58
0001
0000
0000
0100
,  // measure 59
0100
0000
0000
0010
,  // measure 60
0010
0000
0000
1000
,  // measure 61
1000
0000
0000
1000
,  // measure 62
1000
0000
0000
0001
,  // measure 63
0001
0000
0000
1000
,  // measure 64
1000
0000
0000
0100
,  // measure 65
0100
0000
0000
0100
;
