#TITLE:8-bit;
#SUBTITLE:;
#ARTIST:Drew Campbell;
#TITLETRANSLIT:;
#SUBTITLETRANSLIT:;
#ARTISTTRANSLIT:;
#CREDIT:;
#GENRE:DDR UNIVERSE;
#BANNER:8-bit-bn.jpg;
#BACKGROUND:8-bit-bg.jpg;
#LYRICSPATH:;
#CDTITLE:;
#MUSIC:8-bit.mp3;
#OFFSET:-0.471;
#SAMPLESTART:23.340;
#SAMPLELENGTH:15.280;
#SELECTABLE:YES;
#BPMS:0.000=209.398;
#STOPS:;
#BGCHANGES:;

//---------------dance-single - ----------------
#NOTES:
     dance-single:
     :
     Easy:
     4:
     0.200,0.250,0.085,0.161,0.000:
0000
0000
0000
0000
,
0000
0000
0000
0000
,
0000
0000
0000
0000
,
0000
0000
0000
0000
,
0000
0000
0000
0000
,
0000
0000
0000
0000
,
0000
0000
0000
0000
,
0000
0000
0000
0000
,
2000
0000
0000
0000
,
0000
0000
0000
3000
,
0002
0000
0000
0000
,
0000
0000
0000
0003
,
0200
0000
0000
0000
,
0000
0000
0000
0300
,
0002
0000
0000
0003
,
2000
0000
0000
3000
,
0001
0000
0100
0000
,
0100
0000
0010
0000
,
1000
0000
1000
0000
,
0200
0000
0000
0300
,
1000
0000
0010
0000
,
0010
0000
0100
0000
,
0001
0000
0001
0000
,
0020
0000
0000
0030
,
1001
0000
0000
0000
,
0110
0000
0000
0000
,
1000
0000
0100
0000
,
0010
0000
0000
0000
,
1001
0000
0000
0000
,
0110
0000
0000
0000
,
0001
0000
0010
0000
,
0100
0000
0000
0000
,
0001
0000
0001
0000
,
0010
0000
1000
0000
,
0100
0000
0100
0000
,
0001
0000
0010
0000
,
1000
0000
1000
0000
,
0100
0000
0001
0000
,
0010
0000
0010
0000
,
1000
0000
0100
0000
,
0002
0000
0000
0003
,
2000
0000
0000
3000
,
1000
0000
0100
0000
,
0010
0000
0001
0000
,
2000
0000
0000
3000
,
0020
0000
0000
0030
,
1000
0000
0100
0000
,
0001
0000
0000
0000
,
0100
0000
1000
0000
,
1000
0000
0001
0000
,
0010
0000
0010
0000
,
0002
0000
0000
0003
,
0010
0000
0001
0000
,
0001
0000
1000
0000
,
0100
0000
0100
0000
,
2000
0000
0000
3000
,
1001
0000
0000
0000
,
0110
0000
0000
0000
,
0001
0000
0010
0000
,
0100
0000
0000
0000
,
1001
0000
0000
0000
,
0110
0000
0000
0000
,
1000
0000
0100
0000
,
0010
0000
0000
0000
,
0002
0000
0000
0000
,
0000
0000
1003
0000
,
2000
0000
0000
0000
,
0000
0000
3010
0000
,
0020
0000
0000
0000
,
0000
0000
0130
0000
,
0200
0000
0000
0000
,
0001
0000
0301
0000
,
0001
0000
1000
0000
,
0001
0000
0010
0000
,
0100
0000
1000
0000
,
0100
0000
0010
0000
,
0001
0000
0100
0000
,
1000
0000
0100
0000
,
0001
0000
0100
0000
,
1000
0000
0100
0000
,
0001
0000
0010
0000
,
0100
0000
1000
0000
,
0100
0000
0010
0000
,
0001
0000
0010
0000
,
1000
0000
0010
0000
,
0001
0000
0010
0000
,
1000
0000
0010
0000
,
0001
0000
0100
0000
,
1001
0000
0000
0000
;

//---------------dance-single - ----------------
#NOTES:
     dance-single:
     :
     Hard:
     8:
     0.556,0.750,0.370,0.218,0.000:
0000
0000
0000
0000
,
0000
0000
0000
0000
,
0000
0000
0000
0000
,
0000
0000
0000
0000
,
0000
0000
0000
0000
,
0000
0000
0000
0000
,
0000
0000
0000
0000
,
0000
0000
0000
0000
,
0010
0000
0000
0002
0000
0000
0000
0000
,
0000
0000
0000
0003
0000
0000
0000
0000
,
1000
0000
0000
0010
0000
0000
0200
0000
,
0000
0000
0000
0300
,
0020
0000
0000
0000
,
0000
0000
0030
1000
,
0001
0000
0000
0100
0000
0000
0010
0000
,
2002
0000
0000
3003
,
1000
0100
1000
0100
0000
0010
0001
0000
,
0001
0101
1000
1100
,
0100
0000
1000
0001
0000
0100
0010
0200
,
0000
0000
0000
0300
,
0010
1000
0010
1000
0000
0001
0100
0000
,
0001
0011
1000
1010
,
0010
0000
1000
0001
0000
0100
0010
0200
,
0000
0000
0000
0300
,
0010
1000
0100
0000
0010
0001
0100
0000
,
0001
0010
0100
0000
0010
0100
1000
0000
,
0010
1000
0001
1000
0100
1000
0100
0010
,
2002
0000
0000
3003
,
0010
0001
0100
0000
0010
1000
0100
0000
,
1000
0100
0010
0000
0100
0010
0001
0000
,
0100
0001
1000
0001
0010
0001
0010
0100
,
2002
0000
0000
0000
0000
0000
3003
1000
,
0010
0010
0100
0010
,
0101
0000
0000
0000
1001
1000
0100
0001
,
0100
0100
1000
0100
,
1001
0000
0000
0000
0110
0010
1000
0100
,
0001
0001
0100
1000
,
0101
0000
0000
0000
1001
0001
0100
1000
,
0100
0100
0001
0100
,
1001
0000
0000
0000
0010
1000
0100
0001
,
0100
1000
0010
0000
0000
0000
0110
0000
,
0001
0001
0001
0000
0000
0000
1001
0000
,
0100
0100
0100
0000
0000
0000
0110
0000
,
1000
1000
1000
0000
0000
0000
1001
0000
,
0010
0010
0010
0000
0000
0000
0110
0000
,
0001
0001
0001
0000
0000
0000
1000
0000
,
0001
0000
0000
0100
0000
0000
0001
2002
,
0000
0000
0000
3003
,
0010
0100
0010
0100
0000
1000
0001
0000
,
0100
1001
0100
1001
,
0010
0000
0100
0010
0000
1000
0001
2000
,
0000
0000
0000
3000
,
0100
0010
0100
0010
0000
0001
1000
0000
,
0100
1001
0100
1001
,
0010
0000
0100
0010
0000
0001
1000
0002
,
0000
0000
0000
0003
,
0010
0001
0100
0000
0010
1000
0100
0000
,
1000
0100
0010
0000
0100
0010
0001
0000
,
0100
0001
1000
0001
0010
0001
0010
0100
,
2002
0000
0000
3003
,
0010
1000
0100
0000
0010
0001
0100
0000
,
0001
0010
0100
0000
0010
0100
1000
0000
,
0010
1000
0001
1000
0100
1000
0100
0010
,
2002
0000
0000
3003
,
0000
0001
0100
1000
0000
1000
0100
0001
,
0000
0001
0100
2000
0000
0000
0000
3000
,
0000
0100
0001
0010
0000
0010
0001
0100
,
0000
0100
0001
0020
0000
0000
0000
0030
,
0000
0001
0010
1000
0000
1000
0010
0001
,
0000
0001
0010
2000
0000
0000
0000
3000
,
0000
0010
1000
0100
0000
0100
1000
0010
,
0000
0010
1000
0200
0000
0000
0300
0000
,
1100
1001
0010
0100
,
0010
1000
0000
0001
0000
0001
0100
0000
,
0011
1001
0100
0010
,
0100
0001
0000
1000
0000
1000
0100
0010
,
0011
1001
0100
0010
,
0100
0001
0000
1000
0000
1000
0100
0000
,
1100
1001
0010
0100
,
0010
1000
0000
0001
0000
0001
0010
0100
,
1001
0000
0001
1000
0000
1000
0100
0000
,
0110
0000
0010
0001
0000
0001
0100
0000
,
0101
0000
0100
0010
0000
0010
1000
0000
,
1010
0000
1000
0100
0000
0100
0010
0000
,
0001
0010
0100
1000
0100
0010
0001
0000
,
1000
0100
0001
0100
1000
0100
0001
0000
,
0010
0001
1000
0100
0010
0100
1000
0010
,
0001
0010
1000
0100
0010
0001
1000
0100
,
1001
0000
0000
0000
;

//---------------dance-single - ----------------
#NOTES:
     dance-single:
     :
     Medium:
     6:
     0.428,0.547,0.199,0.332,0.000:
0000
0000
0000
0000
,
0000
0000
0000
0000
,
0000
0000
0000
0000
,
0000
0000
0000
0000
,
0000
0000
0000
0000
,
0000
0000
0000
0000
,
0000
0000
0000
0000
,
0000
0000
0000
0000
,
0010
0000
0000
0200
0000
0000
0000
0000
,
0000
0000
0000
0300
,
0002
0000
0000
0000
,
0000
0000
0000
0003
,
0020
0000
0000
0000
,
0000
0000
0000
0130
,
0100
0000
0000
0010
0000
0000
0100
0000
,
2000
0000
0000
3000
,
0001
0010
0001
0100
,
0010
1000
0100
0001
,
0100
0000
1000
0001
0000
0100
0010
0200
,
0000
0000
0000
0300
,
0010
1000
0010
0001
,
0010
1000
0100
0010
,
0001
0000
0010
0100
0000
1000
0010
2000
,
0000
0000
0000
3000
,
0010
0100
0010
0010
,
1001
0101
1001
0101
,
0001
0000
1000
0000
0010
1000
0100
0000
,
0220
0000
0000
0330
,
0001
1000
0001
0001
,
0110
1010
0110
1010
,
0100
0000
0010
0000
1000
0100
0001
0000
,
2002
0000
0000
3003
,
0001
0010
0001
0010
,
0100
1000
0100
1000
,
0010
0100
0010
0100
,
0001
0010
0001
0010
,
1000
0100
1000
0100
,
0010
0100
0010
0100
,
1000
0001
1000
0001
,
0100
1000
0100
1000
,
0100
0001
0020
0000
0000
0000
0001
0000
,
0000
1000
0000
0031
,
1000
0010
0200
0000
0000
0000
1000
0000
,
0000
0001
0000
1300
,
0100
0001
0020
0000
0000
0000
0001
0000
,
0000
1000
0000
0031
,
0100
0000
0000
0010
0000
0000
1000
0000
,
0200
0000
0000
0300
,
1000
0100
1000
0010
,
0100
0001
0010
1000
,
0010
0000
0001
1000
0000
0010
0100
0020
,
0000
0000
0000
0030
,
0100
0001
0100
1000
,
0100
0001
0010
0100
,
1000
0000
0100
0010
0000
0001
0010
0002
,
0000
0000
0000
0003
,
1000
0001
1000
1000
,
0101
1100
0101
1100
,
0001
0000
0100
0000
0001
0010
0100
0000
,
2200
0000
0000
3300
,
0001
1000
0001
0001
,
0110
1010
0110
1010
,
0100
0000
0010
0000
1000
0100
0001
0000
,
2002
0000
0000
3003
,
0000
0002
0010
0013
,
0000
2000
0100
3100
,
0000
0020
0100
0130
,
0000
0200
0001
0301
,
0000
0020
0100
0130
,
0000
2000
0100
3100
,
0000
0002
0010
0013
,
0002
0000
0000
2003
0000
0000
3002
0000
,
1003
0100
1000
0010
,
0100
0010
1000
0001
,
0010
0001
1000
0010
,
0100
0001
1000
0100
,
0001
0100
1000
0100
,
0010
0001
0010
1000
,
0010
0001
0010
0100
,
1000
0100
0001
0100
,
1000
0010
0200
0000
0000
0000
0010
0000
,
0000
0010
0000
0310
,
0010
0100
0002
0000
0000
0000
0100
0000
,
0000
0100
0000
0103
,
0100
0001
0020
0000
0000
0000
0001
0000
,
0000
0001
0000
0031
,
0001
0010
0100
1000
,
0001
0000
0010
0000
0100
0010
0100
0010
,
0220
0000
0000
0330
;

//---------------dance-single - ----------------
#NOTES:
     dance-single:
     :
     Beginner:
     1:
     0.118,0.208,0.076,0.038,0.000:
0000
0000
0000
0000
,
0000
0000
0000
0000
,
0000
0000
0000
0000
,
0000
0000
0000
0000
,
0000
0000
0000
0000
,
0000
0000
0000
0000
,
0000
0000
0000
0000
,
0000
0000
0000
0000
,
1000
0000
0000
0000
,
0000
0000
0000
0000
,
0001
0000
0000
0000
,
0000
0000
0000
0000
,
0100
0000
0000
0000
,
0000
0000
0000
0000
,
0010
0000
0000
0000
,
0100
0000
0000
0000
,
0001
0000
0000
0000
,
0001
0000
0000
0000
,
1000
0000
1000
0000
,
1000
0000
0000
0000
,
0010
0000
0000
0000
,
0100
0000
0000
0000
,
0001
0000
0001
0000
,
0001
0000
0000
0000
,
1001
0000
0000
0000
,
0000
0000
0000
0000
,
0010
0000
0010
0000
,
0010
0000
0000
0000
,
1001
0000
0000
0000
,
0000
0000
0000
0000
,
0100
0000
0100
0000
,
0100
0000
0000
0000
,
0002
0000
0000
0003
,
0000
0000
0000
0000
,
2000
0000
0000
3000
,
0000
0000
0000
0000
,
0200
0000
0000
0300
,
0000
0000
0000
0000
,
0020
0000
0000
0030
,
0000
0000
0000
0000
,
0100
0000
0000
0000
,
1000
0000
0000
0000
,
0001
0000
0000
0000
,
1000
0000
0000
0000
,
0001
0000
0000
0000
,
0100
0000
0000
0000
,
0010
0000
0000
0000
,
1000
0000
0000
0000
,
0010
0000
0000
0000
,
0100
0000
0000
0000
,
0001
0000
0001
0000
,
0001
0000
0000
0000
,
1000
0000
0000
0000
,
0001
0000
0000
0000
,
1000
0000
1000
0000
,
1000
0000
0000
0000
,
1001
0000
0000
0000
,
0000
0000
0000
0000
,
0100
0000
0100
0000
,
0100
0000
0000
0000
,
1001
0000
0000
0000
,
0000
0000
0000
0000
,
0010
0000
0010
0000
,
0010
0000
0000
0000
,
1001
0000
0000
0000
,
0000
0000
0000
0000
,
0110
0000
0000
0000
,
0000
0000
0000
0000
,
1001
0000
0000
0000
,
0000
0000
0000
0000
,
0110
0000
0000
0000
,
0000
0000
0000
0000
,
1000
0000
0000
0000
,
1000
0000
0000
0000
,
0001
0000
0000
0000
,
0001
0000
0000
0000
,
1000
0000
0000
0000
,
1000
0000
0000
0000
,
0001
0000
0000
0000
,
0001
0000
0000
0000
,
0100
0000
0000
0000
,
0010
0000
0000
0000
,
0100
0000
0000
0000
,
0001
0000
0000
0000
,
1000
0000
0000
0000
,
0100
0000
0000
0000
,
0010
0000
0000
0000
,
0100
0000
0100
0000
,
0100
0000
0000
0000
;

//---------------dance-double - ----------------
#NOTES:
     dance-double:
     :
     Hard:
     9:
     0.548,0.709,0.161,0.076,0.000:
00000000
00000000
00000000
00000000
,
00000000
00000000
00000000
00000000
,
00000000
00000000
00000000
00000000
,
00000000
00000000
00000000
00000000
,
00000000
00000000
00000000
00000000
,
00000000
00000000
00000000
00000000
,
00000000
00000000
00000000
00000000
,
00000000
00000000
00000000
00000000
,
00011000
00000000
00000000
00000100
00000000
00000000
00000110
00000000
,
00000000
00000000
00000000
00000000
,
00001000
00000000
00000001
00000010
00000000
00000100
00001000
00000000
,
00000000
00000000
00000000
00000000
,
01010000
00000000
00000000
00000000
,
00000000
00000000
00000000
00000000
00000000
00000000
10000000
00100000
,
01000000
00000000
00000000
10000000
00000000
00000000
01000000
00000000
,
00010000
00000000
00000000
00000000
,
10000000
01000000
00010000
00001000
00000000
00001000
00000010
00000001
,
00000000
00000000
00000000
00000000
00000000
00000001
00000100
00000100
,
00000101
00000000
00000100
00001000
00000000
00010000
01000000
00200000
,
00000000
00000000
00000000
00300000
,
10000000
01000000
00100000
00010000
00000000
01000000
00100000
00010000
,
00000000
00000000
00000000
00000000
00000000
00001000
00010000
00010000
,
00011000
00000000
00010000
00000100
00000000
00001000
00000100
00000010
,
00000000
00000000
00000000
00000000
00000000
00000001
00000010
00000100
,
00001000
00000100
00010000
00001000
00010000
00000100
00001000
00000100
,
00010000
00001000
00010000
00000100
00001000
00000100
00010000
00001000
,
00100000
00010000
00100000
00001000
00010000
00001000
00100000
00010000
,
00100000
00000000
00000000
00000000
,
01000000
10000000
01000000
00100000
00010000
00100000
01000000
10000000
,
01000000
00100000
01000000
00010000
01000000
00010000
00001000
00000100
,
00000001
00000010
00000100
00001000
00000100
00000010
00000001
00000010
,
00000001
00000000
00000000
00000000
00000000
00000000
00000000
00000010
,
00000010
00001100
00001001
00000000
,
00000100
00001000
00010000
00100000
00000000
00100000
00000000
10000000
,
10000000
01100000
10100000
00000000
,
00100000
00010000
00001000
00000100
00000000
00000100
00000000
00001000
,
00001000
00011000
00010100
00000000
,
00001000
00000100
00000001
00000010
00000000
00000010
00000000
00000100
,
00000100
00000110
00001100
00000000
,
00010000
00001000
01000000
00100000
00000000
00100000
00000000
00100000
,
10000000
01000000
10000000
00000000
01000000
00100000
00010000
00000000
,
00100000
00001000
00010000
00000000
00001000
00000010
00000001
00000000
,
00001000
00000100
00000001
00000000
00000100
00000010
00000001
00000000
,
00000100
00001000
00010000
00000000
00100000
01000000
00010000
00000000
,
00100000
00001000
00010000
00000000
01000000
10000000
00100000
00000000
,
00010000
00001000
00000010
00000000
00000001
00000010
00001000
00000000
,
00010000
00000000
00000000
00001000
00000000
00000000
00000100
00000000
,
00001001
00000000
00000000
00000000
,
00000001
00000100
00001000
00010000
00000000
00010000
00100000
10000000
,
00000000
00000000
00000000
00000000
00000000
01000000
00100000
00100000
,
01100000
00000000
00010000
10000000
00000000
01000000
00100000
00020000
,
00000000
00000000
00000000
00030000
,
01000000
00001000
00010000
00000100
00000000
00001000
00000100
00000001
,
00000000
00000000
00000000
00000000
00000000
00000001
00000100
00000100
,
00001100
00000000
00010000
10000000
00000000
01000000
10000000
00100000
,
00000000
00000000
00000000
00000000
00000000
10000000
01000000
00100000
,
00010000
00100000
00001000
00010000
00001000
00100000
00010000
00100000
,
00001000
00010000
00001000
00100000
00010000
00100000
00001000
00010000
,
00000100
00001000
00000100
00010000
00001000
00010000
00000100
00001000
,
00000100
00000000
00000000
00000000
,
00000010
00000001
00000010
00000100
00001000
00000100
00000010
00000001
,
00000010
00000100
00000010
00001000
00000010
00001000
00010000
00100000
,
10000000
01000000
00100000
00010000
00100000
01000000
10000000
01000000
,
10000000
00000000
00000000
00000000
,
00000000
00100000
00100000
00200000
00000000
00000000
00000000
00000000
,
00000000
00000000
00000000
00300000
,
00000000
00001000
00001000
00002000
00000000
00000000
00000000
00000000
,
00000000
00000000
00000000
00003000
,
00000000
00000100
00000100
00000001
00000000
00000010
00000010
00000100
,
00000000
00010000
00010000
00001000
00000000
01000000
01000000
00100000
,
00000000
10000000
10000000
01000000
00000000
00010000
00010000
01000000
,
10000000
00010000
00000000
00010000
10000000
00000000
10010000
00000000
,
01000000
00010000
00001000
00000000
,
00000010
00000002
00000000
00000010
00000000
00000010
00000000
00000013
,
00000100
00010000
00001000
00000000
,
01000000
00200000
00000000
01000000
00000000
01000000
00000000
01300000
,
00010000
00100000
10000000
00000000
,
00010000
02000000
00000000
00010000
00000000
00010000
00000000
03010000
,
00001000
00000100
00000010
00000000
,
00001000
00000002
00000000
00001000
00000000
00001000
00000000
00001003
,
00000100
00000010
00000001
00000000
00000100
00001000
00010000
00000000
,
01000000
10000000
00100000
00000000
01000000
00010000
01000000
00000000
,
00100000
10000000
01000000
00000000
00010000
00001000
00000010
00000000
,
00000001
00000100
00000010
00000000
00001000
00000100
00000010
00000000
,
00000001
00000010
00001000
00010000
00100000
10000000
01000000
00100000
,
00001000
00010000
00001000
00000100
00001000
00000100
00000010
00001000
,
00000100
00000010
00000001
00000100
00001000
00010000
01000000
10000000
,
01000000
00010000
01000000
10000000
01000000
00010000
00001000
00000100
,
00000001
00000000
00000000
00000000
;

//---------------dance-double - ----------------
#NOTES:
     dance-double:
     :
     Medium:
     6:
     0.416,0.667,0.208,0.161,0.000:
00000000
00000000
00000000
00000000
,
00000000
00000000
00000000
00000000
,
00000000
00000000
00000000
00000000
,
00000000
00000000
00000000
00000000
,
00000000
00000000
00000000
00000000
,
00000000
00000000
00000000
00000000
,
00000000
00000000
00000000
00000000
,
00000000
00000000
00000000
00000000
,
00001000
00000000
00000000
00100000
00000000
00000000
00002000
00000000
,
00000000
00000000
00000000
00003000
,
02000000
00000000
00000000
00000000
,
00000000
00000000
00000000
03000000
,
00020000
00000000
00000000
00000000
,
00000000
00000000
00000000
00030000
,
02000000
00000000
00000000
03000000
00000000
00000000
00010000
00000000
,
00002000
00000000
00000000
00003000
,
00000100
00000001
00000100
00001000
,
00010000
00001000
00000100
00001000
,
00010000
00000000
01000000
10000000
00000000
01000000
10000000
00200000
,
00000000
00000000
00000000
00300000
,
10000000
00100000
00010000
00100000
,
10000000
01000000
00010000
00001000
,
00010000
00000000
00001000
00000100
00000000
00001000
00000100
00000002
,
00000000
00000000
00000000
00001003
,
00000010
00001000
00000100
00000000
00000000
00000000
00011000
00000000
,
00000000
00110000
00000000
01100000
,
10000000
00000000
00010000
00000000
00100000
00010000
01000000
00000000
,
00200000
00000000
00000000
00300000
,
01000000
00010000
00100000
00000000
00000000
00000000
00011000
00000000
,
00000000
00001100
00000000
00000110
,
00001000
00000000
00000010
00000000
00001000
00000001
00000100
00000000
,
00000020
00000000
00000000
00000030
,
00001000
00000100
00000001
00000100
,
00001000
00000010
00010000
01000000
,
10000000
01000000
00010000
00010000
,
00001000
00100000
01000000
00010000
,
00001000
00000100
00000001
00000100
,
00001000
00000100
00000001
00000010
,
00000100
00010000
00001000
00100000
,
01000000
00010000
00001000
00000100
,
00000010
00001001
00000100
00001001
,
00000010
00000001
00000100
00001000
,
00010000
01010000
00100000
10100000
,
00010000
01000000
00001000
00010000
,
00001000
00011000
00000100
00000110
,
00001000
00000100
00000001
00000100
,
00002000
00000000
00000000
00000001
00000000
00000000
00000100
00000000
,
00003100
00000000
00000000
00000000
,
00000100
00000001
00000100
00001000
,
00010000
00001000
00000100
00001000
,
00010000
00000000
01000000
10000000
00000000
01000000
10000000
00200000
,
00000000
00000000
00000000
00300000
,
10000000
00100000
00010000
00100000
,
10000000
01000000
00010000
00001000
,
00010000
00000000
00001000
00000100
00000000
00001000
00000100
00000002
,
00000000
00000000
00000000
00001003
,
00000010
00001000
00000100
00000000
00000000
00000000
00011000
00000000
,
00000000
00101000
00000000
01100000
,
00010000
00000000
10000000
00000000
10000000
00010000
01000000
00000000
,
00200000
00000000
00000000
00300000
,
10000000
01000000
00010000
00000000
00000000
00000000
00011000
00000000
,
00000000
00010100
00000000
00000110
,
00001000
00000000
00000001
00000000
00000010
00000001
00000100
00000000
,
00002000
00000000
00000000
00003000
,
00010000
00001000
01000000
00100000
,
10000000
10000000
10000000
01000000
,
00010000
00001000
00000010
00000001
,
00001000
00001000
00001000
00000100
,
00010000
00001000
01000000
00100000
,
10000000
10000000
10000000
01000000
,
00010000
00001000
00000010
00000001
,
00001000
00000000
00001000
00001001
,
00000001
00000100
00000001
00000100
,
00000010
00010000
00001000
00100000
,
01000000
00010000
01000000
00010000
,
01000000
10000000
00010000
01000000
,
00001000
00010000
00001000
00010000
,
00000100
00000010
00000001
00001000
,
00000100
00010000
00000100
00010000
,
01000000
10000000
00010000
00100000
,
01000000
00010000
00002000
00000000
00000000
00000000
00000000
00000000
,
00003000
00010000
00000100
00000100
,
00001000
00000100
00000002
00000000
00000000
00000000
00000000
00000000
,
00000003
00000100
00001000
00000010
,
00000100
00001000
00020000
00000000
00000000
00000000
00000000
00000000
,
00030000
01000000
00100000
00010000
,
01000000
10010000
00100000
10010000
,
10000000
01000000
10000000
01000000
00010000
00001000
00010000
00001000
,
00011000
00000000
00000000
00000000
;

//---------------dance-double - ----------------
#NOTES:
     dance-double:
     :
     Easy:
     4:
     0.195,0.292,0.038,0.047,0.000:
00000000
00000000
00000000
00000000
,
00000000
00000000
00000000
00000000
,
00000000
00000000
00000000
00000000
,
00000000
00000000
00000000
00000000
,
00000000
00000000
00000000
00000000
,
00000000
00000000
00000000
00000000
,
00000000
00000000
00000000
00000000
,
00000000
00000000
00000000
00000000
,
00002000
00000000
00000000
00003000
,
00000000
00000000
00000000
00000000
,
00000200
00000000
00000000
00000300
,
00000000
00000000
00000000
00000000
,
00200000
00000000
00000000
00300000
,
00000000
00000000
00000000
00000000
,
00020000
00000000
00000000
00030000
,
20000000
00000000
00000000
30000000
,
00010000
00000000
10000000
00000000
,
00010000
00000000
00001000
00000000
,
00000100
00000000
00000000
00000000
,
00000100
00000000
00000000
00000000
,
00001000
00000000
00000001
00000000
,
00001000
00000000
00010000
00000000
,
01000000
00000000
00000000
00000000
,
01000000
00000000
00000000
00000000
,
01000000
00000000
10000000
00000000
,
00100000
00000000
00010000
00000000
,
00001000
00000000
00000010
00000000
,
00000001
00000000
00000000
00000000
,
00000100
00000000
00000001
00000000
,
00000100
00000000
00001000
00000000
,
00010000
00000000
00001000
00000000
,
00000100
00000000
00000000
00000000
,
00010000
00000000
00001000
00000000
,
00010000
00000000
01000000
00000000
,
10000000
00000000
00100000
00000000
,
10000000
00000000
00010000
00000000
,
01000000
00000000
00100000
00000000
,
01000000
00000000
00001000
00000000
,
00010000
00000000
00000010
00000000
,
00010000
00000000
00001000
00000000
,
00000100
00000100
00000000
00000000
,
00000000
00000000
00000001
00000000
,
00001000
00001000
00000000
00000000
,
00000000
00000000
00010000
00000000
,
01000000
01000000
00000000
00000000
,
00000000
00000000
00010000
00000000
,
00001000
00000000
00000100
00000000
,
00000010
00000000
00000000
00000000
,
00001000
00000000
00000001
00000000
,
00000100
00000000
00001000
00000000
,
00010000
00000000
00000000
00000000
,
10000000
00000000
00000000
00000000
,
00010000
00000000
10000000
00000000
,
00100000
00000000
00010000
00000000
,
00001000
00000000
00000000
00000000
,
00000001
00000000
00000000
00000000
,
00000100
00000000
00000001
00000000
,
00000010
00000000
00001000
00000000
,
00010000
00000000
00100000
00000000
,
10000000
00000000
00000000
00000000
,
01000000
00000000
10000000
00000000
,
01000000
00000000
00010000
00000000
,
00001000
00000000
00010000
00000000
,
01000000
00000000
00000000
00000000
,
00001000
00000000
00010000
00000000
,
00011000
00000000
00000000
00000100
,
00000100
00000000
00000010
00000000
,
00000110
00000000
00000000
00001000
,
00001000
00000000
00000001
00000000
,
00001001
00000000
00000000
00000100
,
00000100
00000000
00001000
00000000
,
00011000
00000000
00000000
00000000
,
00001000
00000000
00000100
00000000
,
00000001
00000000
00000100
00000000
,
00001000
00000000
00010000
00000000
,
01000000
00000000
10000000
00000000
,
00100000
00000000
00010000
00000000
,
00100000
00000000
00010000
00000000
,
00001000
00000000
00000010
00000000
,
00000001
00000000
00000100
00000000
,
00001000
00000000
00010000
00000000
,
00001000
00000000
00010000
00000000
,
01000000
00000000
10000000
00000000
,
01000000
00000000
00010000
00000000
,
00001000
00000000
00000100
00000000
,
00001000
00000000
00000100
00000000
,
00000001
00000000
00000100
00000000
,
00001000
00010000
00001000
00010000
,
00001000
00000000
00000000
00000000
;

//---------------dance-double - ----------------
#NOTES:
     dance-double:
     :
     Beginner:
     1:
     0.126,0.208,0.085,0.038,0.000:
00000000
00000000
00000000
00000000
,
00000000
00000000
00000000
00000000
,
00000000
00000000
00000000
00000000
,
00000000
00000000
00000000
00000000
,
00000000
00000000
00000000
00000000
,
00000000
00000000
00000000
00000000
,
00000000
00000000
00000000
00000000
,
00000000
00000000
00000000
00000000
,
00000002
00000000
00000000
00000003
,
00000000
00000000
00000000
00000000
,
00002000
00000000
00000000
00003000
,
00000000
00000000
00000000
00000000
,
00000200
00000000
00000000
00000300
,
00000000
00000000
00000000
00000000
,
00020000
00000000
00000000
00030000
,
00000000
00000000
00000000
00000000
,
10000000
00000000
00000000
00000000
,
01000000
00000000
00000000
00000000
,
00010000
00000000
00010000
00000000
,
00010000
00000000
00000000
00000000
,
00001000
00000000
00000000
00000000
,
00000100
00000000
00000000
00000000
,
00000001
00000000
00000001
00000000
,
00000001
00000000
00000000
00000000
,
00001001
00000000
00000000
00000000
,
00000000
00000000
00000000
00000000
,
00010000
00000000
00010000
00000000
,
00010000
00000000
00000000
00000000
,
00011000
00000000
00000000
00000000
,
00000000
00000000
00000000
00000000
,
10000000
00000000
10000000
00000000
,
10000000
00000000
00000000
00000000
,
01000000
00000000
00000000
00000000
,
00100000
00000000
00000000
00000000
,
00010000
00000000
00000000
00000000
,
01000000
00000000
00000000
00000000
,
00001000
00000000
00000000
00000000
,
00000100
00000000
00000000
00000000
,
00000001
00000000
00000000
00000000
,
00000100
00000000
00000000
00000000
,
00000001
00000000
00000000
00000000
,
00000000
00000000
00001000
00000000
,
00001000
00000000
00000000
00000000
,
00000000
00000000
00100000
00000000
,
00100000
00000000
00000000
00000000
,
00000000
00000000
00001000
00000000
,
00001000
00000000
00000000
00000000
,
00100000
00000000
00000000
00000000
,
10000000
00000000
00000000
00000000
,
01000000
00000000
00000000
00000000
,
00010000
00000000
00010000
00000000
,
00010000
00000000
00000000
00000000
,
00001000
00000000
00000000
00000000
,
00000100
00000000
00000000
00000000
,
00000001
00000000
00000001
00000000
,
00000001
00000000
00000000
00000000
,
00001001
00000000
00000000
00000000
,
00000000
00000000
00000000
00000000
,
00001000
00000000
00001000
00000000
,
00001000
00000000
00000000
00000000
,
00011000
00000000
00000000
00000000
,
00000000
00000000
00000000
00000000
,
10000000
00000000
10000000
00000000
,
10000000
00000000
00000000
00000000
,
10010000
00000000
00000000
00000000
,
00000000
00000000
00000000
00000000
,
01100000
00000000
00000000
00000000
,
00000000
00000000
00000000
00000000
,
00011000
00000000
00000000
00000000
,
00000000
00000000
00000000
00000000
,
00000110
00000000
00000000
00000000
,
00000000
00000000
00000000
00000000
,
00001001
00000000
00000000
00000000
,
00000001
00000000
00000000
00000000
,
00000100
00000000
00000000
00000000
,
00000010
00000000
00000010
00000000
,
00000010
00000000
00000000
00000000
,
00010000
00000000
00000000
00000000
,
00001000
00000000
00000000
00000000
,
01000000
00000000
01000000
00000000
,
01000000
00000000
00000000
00000000
,
00100000
00000000
00000000
00000000
,
10000000
00000000
00000000
00000000
,
01000000
00000000
00000000
00000000
,
00010000
00000000
00000000
00000000
,
00001000
00000000
00000000
00000000
,
00000100
00000000
00000000
00000000
,
00000001
00000000
00000001
00000000
,
00000001
00000000
00000000
00000000
;
