#TITLE:22DUNK;
#SUBTITLE:;
#ARTIST:SLAKE;
#TITLETRANSLIT:;
#SUBTITLETRANSLIT:;
#ARTISTTRANSLIT:;
#GENRE:DDRMAX;
#CREDIT:;
#BANNER:22DUNK-bn.jpg;
#BACKGROUND:22DUNK-bg.jpg;
#LYRICSPATH:;
#CDTITLE:;
#MUSIC:22DUNK.ogg;
#OFFSET:0.000000;
#SAMPLESTART:5.333000;
#SAMPLELENGTH:15.000000;
#SELECTABLE:YES;
#DISPLAYBPM:135.000000;
#BPMS:0.000000=135.000000
;
#STOPS:
;
#BGCHANGES:;
#KEYSOUNDS:;
#ATTACKS:;

//---------------dance-single - ----------------
#NOTES:
     dance-single:
     :
     Easy:
     5:
     0.319518,0.439708,0.080358,0.000000,0.000000,167.000000,161.000000,6.000000,0.000000,0.000000,0.000000,0.319518,0.439708,0.080358,0.000000,0.000000,167.000000,161.000000,6.000000,0.000000,0.000000,0.000000:
0000
0000
0000
0000
,
0000
0000
0000
0000
,
0000
0000
0000
0000
,
0000
0000
0000
0000
,
0000
0000
0000
0000
,
0010
0010
0010
0100
,
0010
0010
0010
0100
,
0010
0010
0010
0100
,
0010
0010
0010
0100
,
0010
0010
0010
0100
,
0100
0100
0100
0100
,
0010
0000
1000
0000
0001
0100
1000
0000
,
0100
0000
0000
0100
0000
0000
0000
0000
,
0010
0000
0001
0000
1000
0100
0001
0000
,
0100
0000
0000
0100
0000
0000
0000
0000
,
0010
0000
0100
0000
0001
1000
0100
0000
,
0010
0000
0000
0010
0000
0000
0000
0000
,
0010
0000
0100
0000
1000
0001
0100
0000
,
0010
0000
0000
0010
0000
0000
0000
0000
,
0001
0001
0001
0000
1000
1000
1000
0000
,
0001
0001
0001
0000
1000
1000
1000
0000
,
0001
1000
0001
0000
1000
0001
1000
0000
,
0001
1000
0001
0000
1000
0001
1000
0000
,
0001
0100
1000
0000
1000
0100
0001
0000
,
0001
0100
1000
0000
1000
0100
0001
0000
,
0010
0100
0001
0000
1000
0100
0010
0000
,
0001
0010
0100
1000
,
0010
0100
0010
1001
,
0010
1100
0010
0101
,
0010
0100
0010
1001
,
0010
0101
0010
1100
,
0010
0000
0100
0000
0001
0100
1000
0000
,
0010
0000
0100
0000
1000
0100
0001
0000
,
0010
0000
0100
0000
0001
0100
1000
0000
,
1000
0100
0010
0001
,
0010
0100
0001
1000
0001
0100
1000
0100
,
0010
0100
0001
1000
0001
0100
1000
0100
,
0010
0100
0001
1000
0001
0100
1000
0100
,
0000
0000
0010
0001
0100
1000
0000
0000
;

//---------------dance-single - ----------------
#NOTES:
     dance-single:
     :
     Medium:
     7:
     0.336738,0.415182,0.254467,0.000000,0.053572,176.000000,157.000000,19.000000,0.000000,0.000000,0.000000,0.336738,0.415182,0.254467,0.000000,0.053572,176.000000,157.000000,19.000000,0.000000,0.000000,0.000000:
0000
0000
0000
0000
,
0000
0000
0000
0000
,
0000
0000
0000
0000
,
0000
0000
0000
0000
,
0000
0000
0000
0000
,
1000
1000
1000
1000
,
0001
0001
0001
0001
,
1000
1000
1000
1000
,
0001
0001
0001
0001
,
0010
0010
0010
0010
,
0100
0100
0100
0100
,
1000
0000
0001
0000
0010
0100
1001
0000
,
0010
0000
0000
0010
0000
0000
0000
0000
,
0010
0000
0100
0000
0001
0100
1001
0000
,
0010
0000
0000
0010
0000
0000
0000
0000
,
0010
0000
0100
0000
1000
0100
1001
0000
,
0010
0000
0000
0010
0000
0000
0000
0000
,
0010
0000
0100
0000
0001
1000
0110
0000
,
0010
0000
0000
0010
0000
0000
0000
0000
,
0001
0001
0001
0000
0010
0100
1001
0000
,
1000
1000
1000
0000
0100
0010
1001
0000
,
0001
0001
0001
0000
1000
0001
0110
0000
,
1000
1000
1000
0000
0001
1000
0110
0000
,
0001
0001
0001
0000
0010
1000
0101
0000
,
1000
1000
1000
0000
0010
0001
1100
0000
,
1000
1000
1000
0000
0001
0001
0001
0000
,
0000
0000
0000
0000
,
0001
0000
0100
0000
1000
0000
0000
0000
0010
0000
0000
0100
0000
0000
0000
0000
,
1000
0000
0000
0000
0100
0000
0000
0000
0001
0000
0000
0000
0000
0000
0000
0000
0010
0000
0000
0000
0000
0000
0000
0100
0000
0000
0000
0000
0000
0000
0000
0000
,
0010
0000
0100
0000
1001
0000
0000
0000
0010
0000
0000
0100
0000
0000
0000
0000
,
0100
0000
0000
0000
0010
0000
0000
0000
1001
0000
0000
0000
0000
0000
0000
0000
0010
0000
0000
0000
0000
0000
0000
0100
0000
0000
0000
0000
0000
0000
0000
0000
,
0001
0000
1000
0000
0110
0000
0000
0000
0010
0000
0000
0100
0000
0000
0000
0000
,
1000
0000
0000
0000
0001
0000
0000
0000
0110
0000
0000
0000
0000
0000
0000
0000
0010
0000
0000
0000
0000
0000
0000
0100
0000
0000
0000
0000
0000
0000
0000
0000
,
0001
0000
1000
0000
1001
0000
0000
0000
0010
0000
0000
0100
0000
0000
0000
0000
,
0010
0000
0000
0000
0100
0000
0000
0000
0110
0000
0000
0000
0000
0000
0000
0000
0010
0000
0000
0000
0000
0000
0000
0100
0000
0000
0000
0000
0000
0000
0000
0000
,
0000
0010
1000
0010
1000
0010
1001
0000
,
0000
1000
0100
1000
0100
1000
0110
0000
,
0000
0010
0001
0010
0001
0010
1001
0000
,
0010
0000
0010
0000
1000
0100
0001
0000
;

//---------------dance-single - ----------------
#NOTES:
     dance-single:
     :
     Hard:
     8:
     0.353957,0.438285,0.000000,0.000000,0.395093,185.000000,185.000000,0.000000,0.000000,0.000000,0.000000,0.353957,0.438285,0.000000,0.000000,0.395093,185.000000,185.000000,0.000000,0.000000,0.000000,0.000000:
0000
0000
0000
0000
,
0000
0000
0000
0000
,
0000
0000
0000
0000
,
0000
0000
0000
0000
,
0000
0000
0000
0000
,
0010
0010
0010
0100
,
0010
0010
0010
0100
,
0010
0010
0010
0100
,
0010
0010
0010
0100
,
0010
0010
0010
0100
,
0100
0100
0100
0100
,
0000
1000
0000
0000
1000
0000
0000
0000
1000
0000
0000
0100
0000
0000
0000
0000
,
0010
0000
0000
0010
0000
0000
0000
0000
,
0000
1000
0000
0000
1000
0000
0000
0000
1000
0000
0000
0100
0000
0000
0000
0000
,
0010
0000
0000
0010
0000
0000
0000
0000
,
0000
0001
0000
0000
0001
0000
0000
0000
0001
0000
0000
0100
0000
0000
0000
0000
,
0010
0000
0000
0010
0000
0000
0000
0000
,
0000
0001
0000
0000
0001
0000
0000
0000
0001
0000
0000
0100
0000
0000
0000
0000
,
0010
0000
0000
0010
0000
0000
0000
0000
,
0001
0000
0001
0000
0001
0000
0000
0000
1000
0000
1000
0000
0010
1000
0000
0100
,
0001
0000
0001
0000
0001
0000
0000
0000
1000
0000
1000
0000
0010
1000
0000
0100
,
0001
0000
0001
0000
0001
0000
0000
0000
1000
0000
1000
0000
0010
1000
0000
0100
,
0001
0000
0001
0000
0001
0000
0000
0000
1000
0000
1000
0000
0010
1000
0000
0100
,
1000
0000
1000
0000
1000
0000
0000
0000
0001
0000
0001
0000
0010
0001
0000
0100
,
1000
0000
1000
0000
1000
0000
0000
0000
0001
0000
0001
0000
0010
0001
0000
0100
,
1000
0000
1000
0000
1000
0000
0000
0000
0001
0000
0001
0000
0010
0001
0000
0100
,
0000
0000
0000
0000
,
0000
1000
0010
1000
0010
1000
0000
0000
0010
0000
0000
0100
0000
0000
0000
0000
,
0000
0000
1000
0000
0010
0000
1000
0000
0010
0000
1000
0000
0000
0000
0000
0000
0010
0000
0000
0000
0000
0000
0000
0100
0000
0000
0000
0000
0000
0000
0000
0000
,
0000
1000
0010
1000
0010
1000
0000
0000
0010
0000
0000
0100
0000
0000
0000
0000
,
0000
0000
1000
0000
0010
0000
1000
0000
0010
0000
1000
0000
0000
0000
0000
0000
0010
0000
0000
0000
0000
0000
0000
0100
0000
0000
0000
0000
0000
0000
0000
0000
,
0000
0001
0010
0001
0010
0001
0000
0000
0010
0000
0000
0100
0000
0000
0000
0000
,
0000
0000
0001
0000
0010
0000
0001
0000
0010
0000
0001
0000
0000
0000
0000
0000
0010
0000
0000
0000
0000
0000
0000
0100
0000
0000
0000
0000
0000
0000
0000
0000
,
0000
0001
0010
0001
0010
0001
0000
0000
0010
0000
0000
0100
0000
0000
0000
0000
,
0000
0000
0001
0000
0010
0000
0001
0000
0010
0000
0001
0000
0000
0000
0000
0000
0010
0000
0000
0000
0000
0000
0000
0100
0000
0000
0000
0000
0000
0000
0000
0000
,
0000
0000
0010
0000
1000
0000
0010
0000
1000
0000
0010
0000
1000
0001
0000
0000
,
0000
0000
1000
0000
0100
0000
1000
0000
0100
0000
1000
0000
0100
0001
0000
0000
,
0000
0000
0010
0000
1000
0000
0010
0000
1000
0000
0010
0000
1000
0001
0000
0000
,
0000
0000
0100
0001
0000
0010
0000
0000
0001
0000
0000
0000
0000
0000
0000
0000
;

//---------------dance-double - ----------------
#NOTES:
     dance-double:
     :
     Easy:
     5:
     0.313778,0.431170,0.133930,0.000000,0.000000,164.000000,154.000000,10.000000,0.000000,0.000000,0.000000,0.313778,0.431170,0.133930,0.000000,0.000000,164.000000,154.000000,10.000000,0.000000,0.000000,0.000000:
00000000
00000000
00000000
00000000
,
00000000
00000000
00000000
00000000
,
00000000
00000000
00000000
00000000
,
00000000
00000000
00000000
00000000
,
00000000
00000000
00000000
00000000
,
00100000
10000000
01000000
00010000
,
00001000
00000010
00000001
00000100
,
00001000
00010000
00100000
10000000
,
10000000
01100000
00010000
00001000
,
00000001
00000110
00001000
00010000
,
01000000
01000000
01000000
01000000
,
00100000
10000000
01000000
00010000
,
00001000
00000000
00000000
00000100
00000000
00000000
00000000
00000000
,
00000010
00000001
00000100
00001000
,
00010000
00000000
00000000
01000000
00000000
00000000
00000000
00000000
,
00100000
00000000
00010000
00000000
00100000
00010000
00001000
00000000
,
00000010
00000000
00000000
00000010
00000000
00000000
00000000
00000000
,
00000010
00000000
00001000
00000000
00000010
00001000
00010000
00000000
,
00100000
00000000
00000000
00100000
00000000
00000000
00000000
00000000
,
10000000
10000000
10000000
00000000
01000000
00010000
00001000
00000000
,
00000001
00000001
00000001
00000000
00000100
00001000
00010000
00000000
,
10000000
00010000
10000000
00000000
01000000
00010000
00001000
00000000
,
00000001
00001000
00000001
00000000
00000100
00001000
00010000
00000000
,
10000000
01000000
00010000
00000000
00001000
00000100
00000001
00000000
,
00000001
00000100
00001000
00000000
00010000
01000000
10000000
00000000
,
10000000
01000000
00010000
00000000
00001000
00000100
00000001
00000000
,
00000001
00000010
00000100
00001000
,
00000010
00001000
00010000
01000000
,
00100000
10000000
01010000
00011000
,
00000010
00000001
00001100
00011000
,
00100000
10000000
01010000
00011000
,
00000010
00000001
00001100
00011000
,
00100000
00000000
01000000
00000000
00100000
00010000
00001000
00000000
,
00000010
00000000
00000100
00000000
00000010
00001000
00010000
00000000
,
00100000
10000000
00100000
00010000
,
00100000
01000000
10000000
00010000
10000000
01000000
00010000
00001000
,
00000010
00000100
00000001
00001000
00000001
00000100
00001000
00010000
,
00100000
01000000
00010000
10000000
00010000
01000000
10000000
01000000
;

//---------------dance-double - ----------------
#NOTES:
     dance-double:
     :
     Hard:
     8:
     0.373090,0.438285,0.133930,0.000000,0.395093,195.000000,185.000000,10.000000,0.000000,0.000000,0.000000,0.373090,0.438285,0.133930,0.000000,0.395093,195.000000,185.000000,10.000000,0.000000,0.000000,0.000000:
00000000
00000000
00000000
00000000
,
00000000
00000000
00000000
00000000
,
00000000
00000000
00000000
00000000
,
00000000
00000000
00000000
00000000
,
00000000
00000000
00000000
00000000
,
00000010
00000001
00000101
00001010
,
00001000
00010000
10100000
01010000
,
00010000
00001000
00001010
00000101
,
00000010
00000001
00000011
00001100
,
00001000
00010000
00110000
11000000
,
01000000
01000000
01000000
01000000
,
00000000
00100000
00000000
00000000
10000000
00000000
00000000
00000000
01000000
00000000
00000000
00100000
00000000
00000000
00000000
00000000
,
00010000
00000000
00000000
00001000
00000000
00000000
00000000
00000000
,
00000000
00000010
00000000
00000000
00000001
00000000
00000000
00000000
00000100
00000000
00000000
00000010
00000000
00000000
00000000
00000000
,
00001000
00000000
00000000
00010000
00000000
00000000
00000000
00000000
,
00000000
00100000
00000000
00000000
00010000
00000000
00000000
00000000
00100000
00000000
00000000
00010000
00000000
00000000
00000000
00000000
,
00001000
00000000
00000000
00000001
00000000
00000000
00000000
00000000
,
00000000
00000010
00000000
00000000
00001000
00000000
00000000
00000000
00000010
00000000
00000000
00001000
00000000
00000000
00000000
00000000
,
00010000
00000000
00000000
10000000
00000000
00000000
00000000
00000000
,
10000000
00000000
01000000
00000000
00010000
00000000
00000000
00000000
00001000
00000000
00000010
00000000
00001000
00000010
00000000
00001000
,
00000001
00000000
00000100
00000000
00001000
00000000
00000000
00000000
00010000
00000000
00100000
00000000
00010000
00100000
00000000
00010000
,
10000000
00000000
01000000
00000000
00010000
00000000
00000000
00000000
00001000
00000000
00000010
00000000
00001000
00000010
00000000
00001000
,
00000001
00000000
00000100
00000000
00001000
00000000
00000000
00000000
00010000
00000000
00100000
00000000
00010000
00100000
00000000
00010000
,
10000000
00000000
01000000
00000000
00010000
00000000
00000000
00000000
00001000
00000000
00000010
00000000
00001000
00000010
00000000
00001000
,
00000001
00000000
00000100
00000000
00001000
00000000
00000000
00000000
00010000
00000000
00100000
00000000
00010000
00100000
00000000
00010000
,
10000000
00000000
01000000
00000000
00010000
00000000
00000000
00000000
00001000
00000000
00000010
00000000
00001000
00000010
00000000
00001000
,
00000000
00000000
00000000
00000000
,
00000000
00100000
00010000
00100000
00010000
00100000
00000000
00000000
00010000
00000000
00000000
00001000
00000000
00000000
00000000
00000000
,
00000000
00000000
00000010
00000000
00001000
00000000
00000010
00000000
00001000
00000000
00000010
00000000
00000000
00000000
00000000
00000000
00001000
00000000
00000000
00000000
00000000
00000000
00000000
00010000
00000000
00000000
00000000
00000000
00000000
00000000
00000000
00000000
,
00000000
01000000
00010000
01000000
00010000
01000000
00000000
00000000
00010000
00000000
00000000
00001000
00000000
00000000
00000000
00000000
,
00000000
00000000
00000100
00000000
00001000
00000000
00000100
00000000
00001000
00000000
00000100
00000000
00000000
00000000
00000000
00000000
00001000
00000000
00000000
00000000
00000000
00000000
00000000
00010000
00000000
00000000
00000000
00000000
00000000
00000000
00000000
00000000
,
00000000
00100000
00010000
00100000
00010000
00100000
00000000
00000000
00010000
00000000
00000000
00001000
00000000
00000000
00000000
00000000
,
00000000
00000000
00000010
00000000
00001000
00000000
00000010
00000000
00001000
00000000
00000010
00000000
00000000
00000000
00000000
00000000
00001000
00000000
00000000
00000000
00000000
00000000
00000000
00010000
00000000
00000000
00000000
00000000
00000000
00000000
00000000
00000000
,
00000000
01000000
00010000
01000000
00010000
01000000
00000000
00000000
00010000
00000000
00000000
00001000
00000000
00000000
00000000
00000000
,
00000000
00000000
00000100
00000000
00001000
00000000
00000100
00000000
00001000
00000000
00000100
00000000
00000000
00000000
00000000
00000000
00001000
00000000
00000000
00000000
00000000
00000000
00000000
00010000
00000000
00000000
00000000
00000000
00000000
00000000
00000000
00000000
,
00000000
00000000
01000000
00000000
10000000
00000000
01000000
00000000
10000000
00000000
01000000
00000000
00010000
00001000
00000000
00000000
,
00000000
00000000
00000100
00000000
00000001
00000000
00000100
00000000
00000001
00000000
00000100
00000000
00001000
00010000
00000000
00000000
,
00000000
00000000
01000000
00000000
10000000
00000000
01000000
00000000
10000000
00000000
01000000
00000000
00010000
00001000
00000000
00000000
,
00000000
00000000
00000100
00001000
00000000
00000010
00000000
00000000
00001000
00000000
00000000
00000000
00000000
00000000
00000000
00000000
;

//---------------dance-single - ----------------
#NOTES:
     dance-single:
     :
     Beginner:
     1:
     0.135843,0.180470,0.000000,0.000000,0.000000,71.000000,71.000000,0.000000,0.000000,0.000000,0.000000,0.135843,0.180470,0.000000,0.000000,0.000000,71.000000,71.000000,0.000000,0.000000,0.000000,0.000000:
0000
0000
0000
0000
,
0000
0000
0000
0000
,
0000
0000
0000
0000
,
0000
0000
0000
0000
,
0000
0000
0000
0000
,
0010
0000
0100
0000
,
0010
0000
0100
0000
,
0010
0000
0100
0000
,
0010
0000
0100
0000
,
0010
0000
0100
0000
,
0100
0000
0100
0000
,
0010
0000
1000
0000
,
0001
0000
0100
0000
,
1000
0000
0010
0000
,
0001
0000
1000
0000
,
0100
0000
0001
0000
,
0010
0000
0001
0000
,
1000
0000
0100
0000
,
0001
0000
1000
0000
,
0001
0000
1000
0000
,
0001
0000
1000
0000
,
0001
0000
0001
0000
,
1000
0000
1000
0000
,
0001
0000
0100
0000
,
1000
0000
0100
0000
,
0001
0000
0100
0000
,
1000
0000
0010
0000
,
0100
0000
0001
0000
,
0010
0000
0100
0000
,
1000
0000
0010
0000
,
0100
0000
0001
0000
,
0010
0000
0100
0000
,
1000
0000
0010
0000
,
0100
0000
0001
0000
,
0010
0000
0100
0000
,
1000
1000
1000
0000
,
0001
0001
0001
0000
,
0100
0100
0100
0000
,
0000
0010
0010
0000
;

//---------------dance-double - ----------------
#NOTES:
     dance-double:
     :
     Medium:
     7:
     0.336738,0.415182,0.254467,0.000000,0.053572,176.000000,157.000000,19.000000,0.000000,0.000000,0.000000,0.336738,0.415182,0.254467,0.000000,0.053572,176.000000,157.000000,19.000000,0.000000,0.000000,0.000000:
// measure 0
00000000
00000000
00000000
00000000
,  // measure 1
00000000
00000000
00000000
00000000
,  // measure 2
00000000
00000000
00000000
00000000
,  // measure 3
00000000
00000000
00000000
00000000
,  // measure 4
00000000
00000000
00000000
00000000
,  // measure 5
10000000
10000000
10000000
10000000
,  // measure 6
00010000
00010000
00010000
00010000
,  // measure 7
00001000
00001000
00001000
00001000
,  // measure 8
00000001
00000001
00000001
00000001
,  // measure 9
00000010
00000010
00000010
00000010
,  // measure 10
00100000
00100000
00100000
00100000
,  // measure 11
01000000
00000000
10000000
00000000
00100000
10000000
10010000
00000000
,  // measure 12
00001000
00000000
00000000
00010000
00000000
00000000
00000000
00000000
,  // measure 13
00001000
00000000
00000010
00000000
00000001
00000100
00001001
00000000
,  // measure 14
00000100
00000000
00000000
00010000
00000000
00000000
00000000
00000000
,  // measure 15
00100000
00000000
01000000
00000000
10000000
00100000
10010000
00000000
,  // measure 16
00100000
00000000
00000000
00001000
00000000
00000000
00000000
00000000
,  // measure 17
00000010
00000000
00001000
00000000
00000001
00001000
00000110
00000000
,  // measure 18
00000010
00000000
00000000
00010000
00000000
00000000
00000000
00000000
,  // measure 19
00100000
00100000
00100000
00000000
00001000
00010000
00011000
00000000
,  // measure 20
00000010
00000010
00000010
00000000
00010000
00001000
00011000
00000000
,  // measure 21
00010000
00010000
00010000
00000000
00001000
00010000
00011000
00000000
,  // measure 22
00001000
00001000
00001000
00000000
00010000
00001000
00011000
00000000
,  // measure 23
00000100
00010000
00000100
00000000
00010000
00001000
01010000
00000000
,  // measure 24
10000000
00100000
10000000
00000000
00100000
00010000
00101000
00000000
,  // measure 25
01000000
01000000
01000000
00000000
00000100
00000100
00000100
00000000
,  // measure 26
00000000
00000000
00000000
00000000
,  // measure 27
00000001
00000000
00000100
00000000
00001000
00000000
00000000
00000000
00000010
00000000
00000000
00000100
00000000
00000000
00000000
00000000
,  // measure 28
00000010
00000000
00000000
00000000
00010000
00000000
00000000
00000000
00100000
00000000
00000000
00000000
00000000
00000000
00000000
00000000
00010000
00000000
00000000
00000000
00000000
00000000
00000000
01000000
00000000
00000000
00000000
00000000
00000000
00000000
00000000
00000000
,  // measure 29
00100000
00000000
01000000
00000000
01100000
00000000
00000000
00000000
00100000
00000000
00000000
00001000
00000000
00000000
00000000
00000000
,  // measure 30
01000000
00000000
00000000
00000000
00001000
00000000
00000000
00000000
00011000
00000000
00000000
00000000
00000000
00000000
00000000
00000000
00000010
00000000
00000000
00000000
00000000
00000000
00000000
00000100
00000000
00000000
00000000
00000000
00000000
00000000
00000000
00000000
,  // measure 31
00000001
00000000
00001000
00000000
00001100
00000000
00000000
00000000
00010000
00000000
00000000
01000000
00000000
00000000
00000000
00000000
,  // measure 32
10000000
00000000
00000000
00000000
00010000
00000000
00000000
00000000
01100000
00000000
00000000
00000000
00000000
00000000
00000000
00000000
00001000
00000000
00000000
00000000
00000000
00000000
00000000
00000100
00000000
00000000
00000000
00000000
00000000
00000000
00000000
00000000
,  // measure 33
00010000
00000000
00100000
00000000
00101000
00000000
00000000
00000000
00010000
00000000
00000000
00000100
00000000
00000000
00000000
00000000
,  // measure 34
00100000
00000000
00000000
00000000
01000000
00000000
00000000
00000000
01100000
00000000
00000000
00000000
00000000
00000000
00000000
00000000
00100000
00000000
00000000
00000000
00000000
00000000
00000000
01000000
00000000
00000000
00000000
00000000
00000000
00000000
00000000
00000000
,  // measure 35
00000000
00100000
00001000
00100000
00001000
00100000
00011000
00000000
,  // measure 36
00000000
00000001
00000100
00000001
00000100
00000001
00001100
00000000
,  // measure 37
00000000
01000000
00001000
01000000
00001000
01000000
00110000
00000000
,  // measure 38
00100000
00000000
00001000
00000000
00000001
00000100
00001000
00000000
;
