#TITLE:1103;
#SUBTITLE:;
#ARTIST:Ryan Henwood;
#TITLETRANSLIT:;
#SUBTITLETRANSLIT:;
#ARTISTTRANSLIT:;
#GENRE:Lovers In A Dangerous Spacetime;
#CREDIT:;
#BANNER:1103-bn.jpg;
#BACKGROUND:1103-bg.jpg;
#LYRICSPATH:;
#CDTITLE:;
#MUSIC:1103.mp3;
#OFFSET:-0.006000;
#SAMPLESTART:59.087421;
#SAMPLELENGTH:14.769230;
#LASTBEATHINT:280.000000;
#SELECTABLE:YES;
#BPMS:0.000000=130.000000
,104.000000=65.000000
,108.000000=130.000000
;
#STOPS:
;
#BGCHANGES:;
#KEYSOUNDS:;
#ATTACKS:;

//---------------dance-single - ----------------
#NOTES:
     dance-single:
     :
     Challenge:
     12:
     0.642771,0.772408,0.269425,0.464758,0.616310,668.000000,628.000000,40.000000,69.000000,0.000000,0.000000,0.642771,0.772408,0.269425,0.464758,0.616310,668.000000,628.000000,40.000000,69.000000,0.000000,0.000000:
0000
0000
0000
0000
,
0000
0000
0000
0000
,
0000
0000
0000
0000
,
0000
0000
0000
0000
,
0000
0000
0000
0000
,
0000
0000
0000
0000
,
0002
0000
0000
0000
0013
0100
1000
0100
0000
0100
0010
0000
0001
0000
1000
0000
,
0020
0000
0000
0000
0130
0001
1000
0100
0000
0100
0010
0000
0001
0000
1000
0000
,
0002
0000
0000
0000
0103
0010
1000
0100
0000
0010
0100
0000
0010
0000
0001
0000
,
2000
0000
0000
0000
3010
0100
0001
1000
0000
0010
1000
0000
0010
0000
0100
0000
,
0001
0001
0101
0001
1000
1000
1010
1000
,
0100
0100
0110
0100
0010
0010
0011
0010
,
0001
0001
1001
0001
0100
0100
0101
0100
,
0010
0010
1100
0100
1000
1000
1001
2000
,
0001
3001
0101
0002
1000
1003
1010
2000
,
0100
3100
0110
0200
0010
0310
0011
0020
,
0001
0031
1001
0002
0100
0103
0101
0200
,
0010
0310
1100
0100
1001
1000
1001
1000
,
0200
0320
0032
0203
0320
2030
3200
2300
,
3002
0203
0320
2030
3200
0302
2003
3020
,
0032
0203
0320
2030
3200
2300
3020
0032
,
0023
2030
3002
0203
0302
2003
3020
1030
,
0110
0001
0010
0001
0110
0001
1000
0001
,
0110
1000
0100
1000
0110
0001
1000
0001
,
1000
0100
0010
0001
1000
0001
0100
0010
,
1000
0010
0100
0001
0010
0100
1000
0001
1000
0010
0100
0001
0010
0100
1000
0001
,
2000
0000
0000
0000
0000
0000
0000
0000
0002
0000
0000
0000
0000
0000
0000
3003
,
1000
0100
1000
0010
0001
0010
0100
0001
0100
0010
1000
0100
,
0001
1000
0010
0001
0100
0010
1000
0100
0010
0100
1000
0010
,
0100
0001
1000
0010
0100
0001
0010
0100
1000
0010
0100
0001
,
1000
0001
0010
0100
0001
1000
0010
0100
1000
0001
1000
0100
,
0010
0000
0001
1000
0001
0000
0100
0000
0010
1000
0010
0000
1000
0000
0100
1000
0100
0000
0010
0000
0001
1000
0001
0000
,
0100
0000
0010
0100
0010
0000
1000
0000
0010
0100
0010
0000
1000
0000
0001
0100
0001
0000
1000
0000
0010
0100
0001
0000
,
0100
0000
0010
1000
0010
0000
1000
0000
0001
0100
0001
0000
0010
0000
0100
0010
0100
0000
1000
0000
0010
0001
0010
0000
,
0100
0000
0001
0010
0001
0000
0010
0000
1000
0100
1000
0000
0010
0000
0001
1000
0001
0000
1000
0000
0000
1000
0000
0000
,
0001
0000
0100
0010
1000
0000
0010
0000
0100
0001
1000
0000
0001
0000
0010
0100
1000
0000
0100
0000
0010
0001
1000
0000
,
0001
0000
0100
0010
1000
0000
0100
0000
1000
0100
0010
0000
0001
0000
1000
0001
0100
0000
0010
0000
0100
0001
1000
0000
,
0010
0000
1000
0001
0010
0000
0100
0000
1000
0100
0010
0000
0001
0000
0100
0001
1000
0000
0010
0000
1000
0001
0010
0000
,
0100
0000
1000
0100
0010
0000
0001
0000
1000
0001
0100
0000
0010
0000
0100
0001
0010
0000
0100
0000
1000
0100
0010
0000
,
0001
0000
1000
0001
0100
0000
0010
0000
1000
0100
0010
0000
0001
0000
0100
0001
0010
0000
0100
0000
1000
0100
0010
0000
,
0001
0000
0100
0001
1000
0000
0010
0000
1000
0001
1000
0000
0100
0000
0010
0001
0100
0000
0010
0000
1000
0010
0100
0000
,
0001
0000
1000
0001
1000
0000
0100
0000
0010
0001
0100
0000
0001
0000
0010
0100
0010
0000
0001
0000
1000
0100
1000
0000
,
0010
0000
1000
0001
0100
0000
0001
0000
0010
0100
1000
0000
0100
0000
0010
0001
0100
0000
0010
0000
1000
0001
0100
0000
,
0020
1000
1000
2030
0000
3002
0100
0103
,
2000
0000
0000
3020
0000
0000
0032
0000
0000
0000
0010
0000
0010
0000
0013
0000
,
2000
0100
0100
3002
0100
0203
0000
1300
,
0020
0000
0200
0030
0000
0000
0302
0000
0010
0000
0010
0000
0013
0000
0000
0010
,
0200
0001
0001
0302
0000
0100
2003
0000
,
3020
0000
0000
0032
0000
0000
0023
0000
0000
0000
1000
0000
1000
0000
1030
0000
,
2000
0100
0100
3200
0000
0001
0001
0301
,
2000
0000
0020
0000
3000
0000
0032
0000
1000
0000
1003
0000
1000
0001
1000
0001
,
1000
0000
1000
0100
1000
0000
1000
0001
1000
0000
1000
0010
1000
0000
1000
0100
,
0010
0000
0010
0001
0010
0000
0010
0001
0100
0000
0100
0001
0100
0000
0100
0010
,
1000
0000
1000
0100
1000
0000
1000
0001
1000
0000
1000
0010
1000
0000
1000
0100
,
0010
0000
0010
0001
0010
0000
0100
1000
0001
0000
0100
0001
0100
0000
0010
1000
,
0100
0000
0100
0010
0100
0000
0100
0001
0100
0000
0100
1000
0100
0000
0100
0010
,
0001
0000
0001
0010
0001
0000
0001
1000
0010
0000
0010
0100
0010
0000
0010
1000
,
0100
0000
0100
0010
0100
0000
0100
0001
0100
0000
0100
1000
0100
0000
0100
0010
,
0001
0000
0001
0010
0001
0000
0001
1000
0010
0000
0010
0100
0010
0000
0010
1000
,
0100
0100
0101
0100
1000
1000
1100
1000
,
0010
0010
1010
0010
0001
0001
0011
0001
,
0100
0100
0101
0100
1000
1000
1100
1000
,
0010
0010
0011
0001
0101
0100
1001
0100
,
0100
0100
1100
0100
0001
0001
0101
0001
,
0010
0010
0011
0010
1000
1000
1010
1000
,
0100
0100
1100
0100
0001
0001
0101
0001
,
0010
0010
1010
1000
1100
0100
1001
0100
,
2002
0000
0000
0000
,
0000
0000
0000
0000
,
0000
0000
3003
0000
;

//---------------dance-single - ----------------
#NOTES:
     dance-single:
     :
     Hard:
     9:
     0.419533,0.491532,0.000000,0.464758,0.171759,436.000000,436.000000,0.000000,69.000000,0.000000,0.000000,0.419533,0.491532,0.000000,0.464758,0.171759,436.000000,436.000000,0.000000,69.000000,0.000000,0.000000:
0000
0000
0000
0000
,
0000
0000
0000
0000
,
0000
0000
0000
0000
,
0000
0000
0000
0000
,
0000
0000
0000
0000
,
0000
0000
0000
0000
,
2000
0000
0000
0000
3010
0000
0000
0100
0000
0000
1000
0000
2000
0000
0000
0000
,
3020
0000
0000
0000
1030
0000
0000
0100
0000
0000
0010
0000
0020
0000
0000
0000
,
0230
0000
0000
0000
1300
0000
0000
0001
0000
0000
0100
0000
0200
0000
0000
0000
,
0302
0000
0000
0000
0103
0000
0000
0010
0000
0000
1000
0000
0002
0000
0000
0000
,
0103
0100
0100
0100
0010
0010
0010
0010
,
1000
1000
1000
1000
0001
0001
0001
0001
,
0100
0100
0100
0100
1000
1000
1000
1000
,
0001
0001
1000
1000
0010
0010
0010
0010
,
0100
0100
0100
0100
1000
1000
1000
1000
,
0001
0001
0001
0001
0010
0010
0010
0010
,
0100
0100
0100
0100
0001
0001
0001
0001
,
0010
0010
0001
0001
1000
1000
1000
1000
,
0200
0320
0032
2003
,
3020
0230
0302
2003
,
3200
0302
2003
3020
,
0032
0203
2300
3002
,
0023
2030
3020
0032
,
0023
2030
3002
2003
,
3100
1000
0010
0100
0001
0010
0100
1000
,
0001
0100
0001
0000
1000
0100
1000
0000
0001
0100
0001
0000
1000
0100
1000
0000
,
0200
0000
0000
0000
0000
0000
0000
0000
0020
0000
0000
0000
0000
0000
0000
0330
,
0001
0100
0001
1000
0010
1000
0020
0000
0000
1030
0100
1000
,
0001
0100
0001
0200
0000
0000
0310
1000
0010
1000
0001
1000
,
0002
0000
0000
0013
0100
0010
0100
0010
0100
0020
0000
0000
,
0031
1000
0001
2000
0000
0000
3001
1000
0001
2000
0000
0000
,
3001
0100
0001
0200
0000
0000
0310
1000
0020
0000
0000
0130
,
0001
0100
0001
0200
0000
0000
0310
1000
0010
1000
0000
1000
,
0001
0010
0100
0010
0000
0010
0001
0000
0001
0100
0000
0100
,
0010
0000
1000
0000
0010
0000
2000
0000
0000
0000
0000
0000
3001
0000
0100
0000
0001
0000
0100
0000
0000
0100
0000
0000
,
0010
1000
0100
0020
0000
0130
1000
0100
,
0010
0001
1000
0002
0000
0103
0010
1000
,
0100
0010
0100
2000
0000
3001
0010
0100
,
1000
0000
0010
0000
0100
0000
0001
0000
1000
0000
1000
0000
1000
0000
0000
0010
,
0100
0001
0010
0100
0010
0001
0100
0010
,
1000
0001
1000
0100
0010
0001
1000
0010
,
1000
0100
1000
0001
1000
0010
0001
1000
,
0001
0000
0100
0000
0001
0000
0010
0000
0001
0000
0001
0000
0001
0000
0000
1000
,
0020
0000
1030
0200
0000
0310
0002
0000
,
1003
0000
0000
0001
0000
0000
0200
0000
0000
0000
0010
0000
0310
0000
0000
0000
,
2000
0000
3001
0020
0000
0130
2000
0000
,
3001
1000
0100
2000
0001
0001
3001
0000
,
0020
1000
1030
2000
0100
0100
3100
0000
,
2000
0100
3100
0200
0001
0001
0301
0000
,
0200
0010
0310
0002
0100
0100
0103
0000
,
0020
1000
1030
0000
0200
0001
0301
0000
,
0001
0100
0001
0100
0001
0100
0001
0100
,
1000
0100
1000
0100
0010
0100
0010
0100
,
0010
1000
0010
1000
0010
1000
0010
1000
,
0001
1000
0100
1000
0001
1000
0100
1000
,
0001
0010
0001
0010
0001
0010
0001
0010
,
1000
0010
1000
0010
0100
1000
0100
1000
,
0001
0100
0001
0100
0001
0100
0001
0100
,
0010
0001
0010
0001
0010
1000
0010
1000
,
0001
0100
0002
0000
1003
0010
2000
0000
,
3100
1000
0200
0000
0310
0001
0020
0000
,
0130
1000
0001
1000
0010
1000
0001
1000
,
0010
0100
0001
1000
0001
0100
0001
0000
,
1000
1000
0010
0010
0100
0100
0001
0001
,
0010
0010
0100
0100
1000
1000
0001
0001
,
1000
1000
0100
0100
0010
0010
0001
0001
,
0100
0000
0100
0000
0010
0000
0010
0000
1000
0000
1000
0000
0001
0000
1000
0002
,
2000
0000
0000
0000
,
0000
0000
0000
0000
,
0000
0000
3003
0000
;

//---------------dance-single - ----------------
#NOTES:
     dance-single:
     :
     Medium:
     7:
     0.318499,0.374501,0.033678,0.437816,0.077460,331.000000,326.000000,5.000000,65.000000,0.000000,0.000000,0.318499,0.374501,0.033678,0.437816,0.077460,331.000000,326.000000,5.000000,65.000000,0.000000,0.000000:
0000
0000
0000
0000
,
0000
0000
0000
0000
,
0000
0000
0000
0000
,
0000
0000
0000
0000
,
0000
0000
0000
0000
,
0000
0000
0000
0000
,
0010
0010
0010
0000
1000
0100
0001
0000
,
0010
0010
0010
0000
1000
0100
0001
0000
,
0010
0010
0010
0000
1000
0100
0001
0000
,
0010
0010
0010
0000
1000
0100
0001
0000
,
0100
0100
0100
0000
0010
0010
0010
0000
,
1000
1000
1000
0000
0001
0001
0001
0000
,
0100
0100
0100
0000
0010
0010
0010
0000
,
1000
0001
0100
0110
,
0100
0100
0100
0000
0010
0010
0010
0000
,
1000
1000
1000
0000
0001
0001
0001
0000
,
0100
0100
0100
0000
0010
0010
0010
0000
,
1000
0001
0100
0110
,
0200
0302
0023
0230
,
2300
3020
0230
0302
,
2003
3020
2030
3002
,
0023
0230
2300
3002
,
0023
0230
0320
0230
,
2300
3002
2003
3002
,
0103
0001
0010
0000
0100
1000
0001
0000
,
1000
1000
0001
0001
1000
1000
0001
0001
,
2000
0000
0000
0000
0002
0000
0000
3003
,
0001
0000
0001
0100
0000
0100
0002
0000
0000
1003
0000
1000
,
0100
0000
0100
2000
0000
0000
3010
0000
0010
1000
0000
1000
,
0002
0000
0000
0013
0000
0010
0100
0000
0100
0020
0000
0000
,
0031
0000
0001
2000
0000
0000
3001
0000
0001
2000
0000
0000
,
3001
0000
0001
0200
0000
0000
0310
0000
1000
0020
0000
0000
,
0130
0000
0100
0002
0000
0000
0013
0000
0010
0100
0000
0100
,
0010
0000
0010
0001
0000
0001
1000
0000
1000
0001
0000
0001
,
0100
0000
0100
0020
0000
0000
1030
0000
1000
0002
0000
0000
,
1003
1000
0200
0000
1300
1000
1000
0000
,
0002
0000
0103
0100
0010
0010
1000
0000
,
0020
0000
0130
0100
0001
0001
0020
0000
,
0130
0100
2000
0000
3001
0001
0200
0000
,
0301
1000
0002
0000
0013
0001
0020
0000
,
0130
1000
0200
0000
0310
0001
0200
0000
,
0310
1000
0002
0000
1003
0001
2000
0000
,
3100
0100
0020
0000
0031
0001
2000
0000
,
3020
0000
0030
1000
0000
0200
0000
0300
,
0010
0000
0000
0001
0000
0000
2000
0000
0000
0000
0000
0000
3000
0000
0000
0000
,
0020
0000
0030
0100
0000
0002
0000
0003
,
1000
0100
0000
0020
0000
0000
0030
0000
,
0002
0000
0003
1000
0000
0200
0000
0300
,
1000
0000
0000
0010
0000
0000
0200
0000
0000
0000
0000
0000
0300
0000
0000
0000
,
0002
0000
0003
0010
0000
0200
0000
0300
,
1000
0001
0000
0200
0000
0000
0300
0000
,
0001
0100
0001
0000
0100
0001
0100
0000
,
0010
1000
0010
0000
1000
0001
1000
0000
,
0010
1000
0010
0000
1000
0010
1000
0000
,
0100
0001
0100
0000
0001
1000
0001
0000
,
0010
0001
0010
0000
0001
0010
0001
0000
,
1000
0010
1000
0000
0100
1000
0100
0000
,
0010
0001
0010
0000
0001
0010
0001
0000
,
1000
0100
1000
0000
0001
1000
0001
0000
,
0100
0100
0100
0000
0010
0010
0010
0000
,
1000
1000
1000
0000
0001
0001
0001
0000
,
0100
0100
0100
0000
0010
0010
0010
0000
,
1000
0001
0100
0110
,
0100
0100
0100
0000
0010
0010
0010
0000
,
1000
1000
1000
0000
0001
0001
0001
0000
,
0100
0100
0100
0000
0010
0010
0010
0000
,
1000
0001
0100
0110
,
2002
0000
0000
0000
,
0000
0000
0000
0000
,
0000
0000
3003
0000
;

//---------------dance-single - ----------------
#NOTES:
     dance-single:
     :
     Easy:
     4:
     0.221313,0.280876,0.047149,0.383931,0.000000,230.000000,223.000000,7.000000,57.000000,0.000000,0.000000,0.221313,0.280876,0.047149,0.383931,0.000000,230.000000,223.000000,7.000000,57.000000,0.000000,0.000000:
// measure 0
0000
0000
0000
0000
,  // measure 1
0000
0000
0000
0000
,  // measure 2
0000
0000
0000
0000
,  // measure 3
0000
0000
0000
0000
,  // measure 4
0000
0000
0000
0000
,  // measure 5
0000
0000
0000
0000
,  // measure 6
0010
0010
1000
0101
,  // measure 7
0010
0010
1000
0101
,  // measure 8
0010
0010
1000
0101
,  // measure 9
0010
0010
1000
0101
,  // measure 10
0100
0100
0010
0010
,  // measure 11
1000
1000
0001
0001
,  // measure 12
0100
0100
0010
0010
,  // measure 13
1000
0001
0200
0300
,  // measure 14
0100
0100
0010
0010
,  // measure 15
1000
1000
0001
0001
,  // measure 16
0100
0100
0010
0010
,  // measure 17
1000
0001
0200
0300
,  // measure 18
0100
0001
0020
0030
,  // measure 19
0100
1000
0002
0003
,  // measure 20
1000
0010
0200
0300
,  // measure 21
0001
0010
0200
0300
,  // measure 22
0020
0230
0320
0230
,  // measure 23
2300
3002
2003
3002
,  // measure 24
0103
0010
0100
1000
,  // measure 25
0001
1000
0001
1000
,  // measure 26
2002
0000
0000
0000
0000
0000
0000
3003
,  // measure 27
0001
0100
0002
1003
,  // measure 28
0100
2000
3001
0100
,  // measure 29
0002
0013
0100
0020
,  // measure 30
0031
2000
3001
2000
,  // measure 31
3001
0200
0310
0020
,  // measure 32
0130
0002
0013
0200
,  // measure 33
0310
0002
1003
0001
,  // measure 34
0200
0310
2000
3001
,  // measure 35
1000
0200
1300
1000
,  // measure 36
0002
0103
0010
1000
,  // measure 37
0020
0130
0001
0020
,  // measure 38
0130
2000
3001
0200
,  // measure 39
0301
0002
0013
0020
,  // measure 40
0130
0200
0310
0200
,  // measure 41
1300
0002
0103
0020
,  // measure 42
1030
0002
0013
0100
,  // measure 43
0020
0030
0200
0300
,  // measure 44
1000
0001
0200
0300
,  // measure 45
0020
0030
0200
0300
,  // measure 46
0001
1000
0200
0300
,  // measure 47
0020
0030
0002
0003
,  // measure 48
1000
0001
0200
0300
,  // measure 49
0020
0030
0200
0300
,  // measure 50
0001
1000
0200
0300
,  // measure 51
0001
0001
0100
0100
,  // measure 52
0010
0010
1000
1000
,  // measure 53
0010
0010
1000
1000
,  // measure 54
0100
0100
0001
0001
,  // measure 55
0010
0010
0001
0001
,  // measure 56
1000
1000
0100
0100
,  // measure 57
0010
0010
0001
0001
,  // measure 58
1000
1000
0001
0001
,  // measure 59
0100
0100
0010
0010
,  // measure 60
1000
1000
0001
0001
,  // measure 61
0100
0100
0010
0010
,  // measure 62
1000
0001
0200
0300
,  // measure 63
0100
0100
0010
0010
,  // measure 64
1000
1000
0001
0001
,  // measure 65
0100
0100
0010
0010
,  // measure 66
1000
0001
0100
0110
,  // measure 67
2002
0000
0000
0000
,  // measure 68
0000
0000
0000
0000
,  // measure 69
0000
0000
3003
0000
;

//---------------dance-single - ----------------
#NOTES:
     dance-single:
     :
     Beginner:
     2:
     0.136637,0.157950,0.013471,0.242483,0.000000,142.000000,140.000000,2.000000,36.000000,0.000000,0.000000,0.136637,0.157950,0.013471,0.242483,0.000000,142.000000,140.000000,2.000000,36.000000,0.000000,0.000000:
// measure 0
0000
0000
0000
0000
,  // measure 1
0000
0000
0000
0000
,  // measure 2
0000
0000
0000
0000
,  // measure 3
0000
0000
0000
0000
,  // measure 4
0000
0000
0000
0000
,  // measure 5
0000
0000
0000
0000
,  // measure 6
0010
0010
0010
0000
,  // measure 7
0010
0010
0010
0000
,  // measure 8
0010
0010
0010
0000
,  // measure 9
0010
0010
0010
0000
,  // measure 10
0100
0000
0010
0000
,  // measure 11
1000
0000
0001
0000
,  // measure 12
0100
0000
0010
0000
,  // measure 13
1000
1000
2000
3000
,  // measure 14
0100
0000
0010
0000
,  // measure 15
0001
0000
1000
0000
,  // measure 16
0100
0000
0010
0000
,  // measure 17
0001
0001
0002
0003
,  // measure 18
0100
0000
0020
0030
,  // measure 19
0100
0000
2000
3000
,  // measure 20
0010
0000
0200
0300
,  // measure 21
0001
0000
0020
0030
,  // measure 22
0100
0000
0100
0000
,  // measure 23
0010
0000
0010
0000
,  // measure 24
0001
0000
0001
0000
,  // measure 25
0100
0100
0100
0000
,  // measure 26
2002
0000
0000
0000
0000
0000
0000
3003
,  // measure 27
0001
0000
0001
0002
,  // measure 28
0003
2000
3000
0001
,  // measure 29
0002
0003
2000
3000
,  // measure 30
0010
0000
0100
0000
,  // measure 31
0001
0002
0003
2000
,  // measure 32
3000
0010
0010
0010
,  // measure 33
0000
0100
0200
0300
,  // measure 34
0002
0003
2000
3000
,  // measure 35
1000
2000
3000
0001
,  // measure 36
0002
0003
0100
0000
,  // measure 37
0010
0000
1000
2000
,  // measure 38
3000
0002
0003
0200
,  // measure 39
0300
0000
0010
0020
,  // measure 40
0030
0100
0000
0100
,  // measure 41
0000
2000
3000
0010
,  // measure 42
0020
0030
0200
0300
,  // measure 43
0002
0000
0000
0003
,  // measure 44
1000
1000
2000
3000
,  // measure 45
0020
0000
0000
0030
,  // measure 46
0100
0100
0200
0300
,  // measure 47
0020
0000
0000
0030
,  // measure 48
1000
1000
2000
3000
,  // measure 49
0200
0000
0000
0300
,  // measure 50
0010
0010
0020
0030
,  // measure 51
0001
0001
0001
0000
,  // measure 52
0100
0000
0010
0000
,  // measure 53
1000
1000
1000
0000
,  // measure 54
0100
0000
0010
0000
,  // measure 55
0001
0001
0001
0000
,  // measure 56
1000
0000
0100
0000
,  // measure 57
0010
0010
0010
0000
,  // measure 58
0001
0000
1000
0000
,  // measure 59
0100
0000
0010
0000
,  // measure 60
0001
0000
1000
0000
,  // measure 61
0100
0000
0010
0000
,  // measure 62
0001
0001
0002
0003
,  // measure 63
0100
0000
0010
0000
,  // measure 64
1000
0000
0001
0000
,  // measure 65
0100
0000
0010
0000
,  // measure 66
1000
1000
2000
3000
,  // measure 67
1001
0000
0000
0000
;
