#TITLE:おどるポンポコリン;
#ARTIST:(アニメ);
#TITLETRANSLIT:ODORU PONPOKOLIN;
#ARTISTTRANSLIT:(ANIME);
#MUSIC:ODORU PONPOKOLIN.ogg;
#BANNER:ODORU PONPOKOLIN.png;
#BACKGROUND:ODORU PONPOKOLIN-bg.png;
#CDTITLE:./CDTITLE/DANCE DANCE REVOLUTION FESTIVAL.png;
#SAMPLESTART:42.9;
#SAMPLELENGTH:15;
#BPMS:0=139.9;
#DISPLAYBPM:140;

//--------------- dance-single - ----------------
#NOTES:
     dance-single:
     :
     Beginner:
     1:
     :
0000
0000
0000
0000
,
0000
0000
0000
0000
,
0000
0000
0000
0000
,
0000
0000
0000
0000
,
0000
0000
0000
0000
,
0000
0000
0000
0000
,
0000
0000
0000
0000
,
1000
0000
0001
0000
,
1000
0000
0010
0010
,
0010
0000
1000
0000
,
0001
0000
0000
0000
,
0001
0000
0010
0000
,
0100
0000
0000
0000
,
0001
0000
0100
0000
,
1000
0000
0000
0000
,
1000
0000
0010
0000
,
0001
0000
0000
0000
,
0010
0010
0010
0000
,
1000
0000
1000
0000
,
0100
0100
0100
0000
,
0001
0000
0001
0000
,
0100
0000
1000
0000
,
0001
0000
1000
0000
,
0010
0000
0001
0000
,
0100
0000
0001
0000
,
2000
3000
1000
1000
,
0000
0000
0000
0000
,
0002
0003
0001
0001
,
0000
0000
0000
0000
,
0020
0030
0010
0010
,
0000
0000
0000
0000
,
1000
0000
0001
0000
,
0010
0000
0100
0000
,
0002
0003
0001
0001
,
0000
0000
0000
0000
,
2000
3000
1000
1000
,
0000
0000
0000
0000
,
0200
0300
0100
0000
,
0001
0000
0001
0000
,
2000
0000
0000
3000
,
1000
0000
0010
0010
,
0010
0000
0001
0000
,
0001
0000
0000
0000
,
0010
0000
1000
0000
,
0100
0000
0000
0000
,
1000
0000
0010
0000
,
0001
0000
0000
0000
,
0001
0000
0100
0000
,
1000
0000
0000
0000
,
0001
0001
0001
0000
,
0100
0000
0100
0000
,
1000
1000
1000
0000
,
0010
0000
0001
0000
;

//--------------- dance-single - ----------------
#NOTES:
     dance-single:
     :
     Easy:
     2:
     :
0000
0000
0000
0000
,
0000
0000
0000
0000
,
0000
0000
0000
0000
,
0000
0000
0000
0000
,
0000
0000
0000
0000
,
0000
0000
0000
0000
,
0000
0000
0000
0000
,
0010
0000
0010
0000
,
0010
0000
0000
0000
,
0001
0000
1000
0000
,
0001
0000
0000
0000
,
1000
0000
0001
0000
,
1000
0000
0000
0000
,
0001
0001
0000
0000
,
0001
0001
0000
0000
,
1000
0000
0000
0000
,
1000
1000
1000
0000
,
0001
0000
0000
0000
,
0001
0000
0001
0000
,
0010
0000
0000
0000
,
0010
0000
0010
0000
,
1000
0000
0001
0000
,
1000
0000
0001
0000
,
1000
0000
0001
0000
,
1000
0001
1000
0001
,
0010
0000
0010
0000
,
1000
1000
1000
0000
,
0010
0000
0010
0000
,
0001
0001
0001
0000
,
0010
0000
0010
0000
,
0010
0000
0010
0000
,
0100
0000
0000
0000
,
0001
1000
0001
1000
,
0010
0000
0010
0000
,
0001
0001
0001
0000
,
0010
0000
0010
0000
,
1000
1000
1000
0000
,
0010
0000
0010
0000
,
0100
0000
0100
0000
,
0100
0000
0000
0000
,
0000
0000
0001
0001
,
1000
0000
0001
0000
,
1000
0000
0000
0000
,
0001
0000
1000
0000
,
0001
0000
0000
0000
,
1000
0000
0000
0000
,
1000
1000
0000
0000
,
0001
0000
0000
0000
,
0001
0001
0001
0001
,
1000
0000
0000
0000
,
1000
0000
1000
0000
,
0010
0000
0000
0000
,
0010
0000
0010
0000
;

//--------------- dance-single - ----------------
#NOTES:
     dance-single:
     :
     Medium:
     5:
     :
0000
0000
0000
0000
,
0000
0000
0000
0000
,
0000
0000
0000
0000
,
0000
0000
0000
0000
,
0000
0000
0000
0000
,
0000
0000
0000
0000
,
0000
0000
0000
0000
,
0010
0010
0100
0100
,
1000
0001
0110
0110
,
1000
0100
0001
0100
,
0010
0010
1000
0100
,
0001
0100
1000
0100
,
0010
0010
0010
1000
,
0001
0010
1000
0010
,
0001
0000
1000
0000
,
0001
0010
1000
1000
,
0001
0001
0001
0001
,
0010
0000
0010
0000
0010
1000
0010
0000
,
0100
0100
0100
0100
,
0010
0000
0010
0000
0010
0001
0010
0000
,
0100
0100
0100
0100
,
0001
0010
1000
0010
,
0001
0010
1000
0010
,
0001
0001
0001
0001
,
0110
1001
0110
1001
,
0010
1001
0010
1001
,
1000
1000
0001
0001
,
0010
1001
0010
1001
,
0100
0100
0010
0010
,
0100
1001
0100
1001
,
0001
1000
0001
1000
,
0100
0100
0100
0100
,
0001
1000
0001
1000
0001
1000
0001
0000
,
1000
0110
0001
0110
,
1000
1000
0001
0001
,
1000
0110
0001
0110
,
1000
0000
1000
0000
0010
0010
0010
0000
,
0001
0110
1000
0110
,
0001
0001
1000
1000
,
0010
0010
0010
0010
,
0000
0000
0101
1100
,
0001
0100
1000
0100
,
0010
0010
0001
0100
,
1000
0100
0001
0100
,
0010
0010
0010
0100
,
1000
0010
0001
0010
,
1000
0000
0001
0000
,
1000
0010
0001
0001
,
1000
0001
1000
0001
,
0010
0000
0010
0000
0010
0001
0010
0000
,
0100
0100
0100
0100
,
0010
0000
0010
0000
0010
1000
0010
0000
,
0100
0100
0100
0100
;

//--------------- dance-single - ----------------
#NOTES:
     dance-single:
     :
     Hard:
     6:
     :
0000
0000
0000
0000
,
0000
0000
0000
0000
,
0000
0000
0000
0000
,
0000
0000
0000
0000
,
0000
0000
0000
0000
,
0000
0000
0000
0000
,
0000
0000
0000
0000
,
0001
0010
0100
1000
0001
0100
0010
1000
,
0001
0010
0100
1000
0010
0000
1001
0000
,
0010
1100
0010
0101
,
0010
0100
1000
0100
,
0010
0001
0100
0000
0010
1000
0100
0000
,
0001
0100
0010
0001
,
1000
0110
1000
0101
,
0010
0010
1000
0100
,
0001
0100
1000
1001
,
0100
0010
0001
0010
0001
0010
0001
0000
,
1000
0000
0100
0000
0001
1000
1000
0000
,
0010
0010
0010
0010
,
0001
0000
0100
0000
1000
0001
0001
0000
,
0100
0100
0100
0100
,
0001
0110
1000
0110
,
0001
1010
1000
0101
,
0001
0001
0001
0001
,
0000
0010
0000
0010
0100
1000
0001
0100
,
0010
0000
1000
0100
0010
0000
0001
0100
,
0000
0010
0000
0010
1000
1000
1000
0000
,
0010
0000
0001
0100
0010
0000
1000
0100
,
0000
0010
0000
0010
0001
0001
0001
0000
,
1000
0000
0001
0100
1000
0000
0001
0100
,
0000
1000
0000
1000
0001
0010
0100
1000
,
0001
0001
0001
0001
,
0100
0010
1000
0100
0001
0010
1000
0100
,
0010
0000
0001
0100
1000
0000
1000
0100
,
0000
0010
0000
0010
0001
0001
0001
0000
,
0010
0000
1000
0100
0001
0000
0001
0100
,
0000
0000
1000
0000
1000
0000
1000
0000
0010
0000
0100
0010
0100
0000
0000
0000
,
0001
0000
0010
0100
1000
0000
0010
0100
,
0000
0100
0001
0010
1000
0000
0001
0000
,
0010
0100
1000
0001
,
1000
0100
0010
0001
1000
0000
0110
0000
,
0010
0101
0010
1100
,
0010
0100
0001
0100
,
0010
1000
0100
0000
0010
0001
0100
0000
,
1000
0100
0010
1000
,
0001
0110
0001
1100
,
0010
0010
0100
0100
,
1000
0100
0001
1001
,
0100
0010
1000
0010
1000
0010
1000
0000
,
0001
0000
0100
0000
1000
0001
0001
0000
,
0010
0010
0010
0010
,
1000
0000
0100
0000
0001
1000
1000
0000
,
0100
0100
0100
0100
;

//--------------- dance-double - ----------------
#NOTES:
     dance-double:
     :
     Easy:
     4:
     :
00000000
00000000
00000000
00000000
,
00000000
00000000
00000000
00000000
,
00000000
00000000
00000000
00000000
,
00000000
00000000
00000000
00000000
,
00000000
00000000
00000000
00000000
,
00000000
00000000
00000000
00000000
,
00000000
00000000
00000000
00000000
,
00010000
00010000
00001000
00001000
,
00010000
00001000
00011000
00011000
,
00010000
00010000
01000000
01000000
,
10000000
10000000
00100000
00000000
,
00010000
00010000
00001000
00001000
,
00000100
00000100
00000001
00000000
,
00000010
00000010
00001000
00001000
,
00010000
00010000
01000000
00000000
,
10000000
10000000
00100000
00100000
,
00010000
00010000
00011000
00000000
,
00000010
00000000
00000000
00000000
00000000
00000100
00000100
00000000
,
00001000
00001000
00010000
00000000
,
00100000
00000000
00000000
00000000
00000000
01000000
01000000
00000000
,
00010000
00010000
00001000
00000000
,
00000100
00000000
00000001
00000001
,
00000010
00000000
00001000
00001000
,
00010000
00000000
01000000
00000000
,
00100000
01000000
10000000
10010000
,
00100000
10000000
00100000
10000000
,
01000000
00010000
00001000
00000000
,
00000010
00000001
00000010
00000001
,
00000100
00001000
00010000
00000000
,
01000000
00010000
01000000
00010000
,
00100000
00100000
00001000
00001000
,
00020000
00030000
00000000
00000000
,
00000010
00000100
00000001
00001001
,
00000100
00000001
00000100
00000001
,
00000010
00001000
00010000
00000000
,
01000000
10000000
01000000
10000000
,
00100000
00010000
00001000
00011000
,
00000010
00001000
00000010
00000000
,
00001000
00001000
00010000
01000000
,
20000000
30000000
00000000
00000000
,
00100000
00010000
00011000
00011000
,
00010000
00010000
01000000
01000000
,
10000000
10000000
00100000
00000000
,
00010000
00010000
00001000
00001000
,
00000100
00000100
00000001
00000000
,
00000010
00000010
00001000
00001000
,
00010000
00010000
01000000
00000000
,
10000000
10000000
00100000
00100000
,
00010000
00010000
00011000
00000000
,
00000010
00000000
00000000
00000000
00000000
00000100
00000100
00000000
,
00001000
00001000
00010000
00000000
,
00100000
00000000
00000000
00000000
00000000
01000000
01000000
00000000
,
00010000
00010000
00001000
00000000
;

//--------------- dance-double - ----------------
#NOTES:
     dance-double:
     :
     Medium:
     6:
     :
00000000
00000000
00000000
00000000
,
00000000
00000000
00000000
00000000
,
00000000
00000000
00000000
00000000
,
00000000
00000000
00000000
00000000
,
00000000
00000000
00000000
00000000
,
00000000
00000000
00000000
00000000
,
00000000
00000000
00000000
00000000
,
00001000
00000010
00001000
00010000
,
00100000
00010000
00011000
00011000
,
00010000
01000000
10000000
00000000
10000000
00000000
00100000
00000000
,
00010000
00001000
00001000
00000000
,
00001000
00000100
00000001
00000000
00000001
00000000
00000010
00000000
,
00001000
00010000
00010000
00000000
,
00100000
10000000
00100000
00000000
00010000
00000000
00001000
00000000
,
00000100
00000001
00000001
00000000
,
00000010
00001000
00010000
00000000
01000000
00000000
10000000
00000000
,
00100000
00010000
00011000
00000000
,
00000010
00000000
00000010
00000000
00000010
00000001
00000100
00000000
,
00001000
00001000
00010000
00010000
,
00100000
00000000
00100000
00000000
00100000
10000000
01000000
00000000
,
00010000
00010000
00001000
00001000
,
00000010
00001000
00010000
00100000
,
00010000
00001000
00000100
00001000
,
00010000
00010000
01000000
01000000
,
01100000
10010000
00011000
00001001
,
00000010
00001100
00000010
00000101
,
00000010
00000000
00001000
00000000
00010000
00001000
00010000
00000000
,
00100000
01010000
00100000
11000000
,
00100000
00000000
00010000
00000000
00001000
00010000
00001000
00000000
,
00100000
00011000
00000010
00011000
,
00000100
00000001
00000010
00001000
,
00020000
00030000
00000000
00000000
,
00000010
00000000
00000100
00000000
00001000
00010000
00001000
00010000
,
01000000
00110000
01000000
10100000
,
00010000
00000000
00010000
00000000
00001000
00010000
00001000
00000000
,
00000100
00001010
00000100
00000011
,
00001000
00000000
00001000
00000000
00010000
00001000
00010000
00000000
,
00000100
00011000
01010000
00000000
,
00100000
10000000
01000000
00010000
,
00002000
00003000
00000000
00000000
,
00000010
00001000
00011000
00011000
,
00010000
01000000
10000000
00000000
10000000
00000000
00100000
00000000
,
00010000
00001000
00001000
00000000
,
00001000
00000100
00000001
00000000
00000001
00000000
00000010
00000000
,
00001000
00010000
00010000
00000000
,
00100000
10000000
00100000
00000000
00010000
00000000
00001000
00000000
,
00000100
00000001
00000001
00000000
,
00000010
00001000
00010000
00000000
01000000
00000000
10000000
00000000
,
00100000
00010000
00011000
00000000
,
00000010
00000000
00000010
00000000
00000010
00000001
00000100
00000000
,
00001000
00001000
00010000
00010000
,
00100000
00000000
00100000
00000000
00100000
10000000
01000000
00000000
,
00010000
00010000
00001000
00000000
;

//--------------- dance-double - ----------------
#NOTES:
     dance-double:
     :
     Hard:
     7:
     :
00000000
00000000
00000000
00000000
,
00000000
00000000
00000000
00000000
,
00000000
00000000
00000000
00000000
,
00000000
00000000
00000000
00000000
,
00000000
00000000
00000000
00000000
,
00000000
00000000
00000000
00000000
,
00000000
00000000
00000000
00000000
,
01000000
00010000
00001000
00000010
00000001
00000010
00001000
00010000
,
00001000
00010000
00100000
00010000
00001000
00000000
00011000
00000000
,
00100000
10000000
01000000
00000000
00010000
00001000
00000100
00000000
,
00000001
00000010
00001000
00000000
00000001
00000000
00000100
00000000
,
00000010
00000001
00000100
00000000
00001000
00010000
01000000
00000000
,
10000000
00100000
00010000
00000000
10000000
00000000
01000000
00000000
,
10000000
01000000
00010000
00000000
00001000
00000010
00000001
00000000
,
00000100
00000010
00000001
00000000
00000010
00001000
00000100
00000000
,
00000010
00001000
00010000
00000000
01000000
00000000
10010000
00000000
,
01000000
00100000
00010000
00001000
00010000
01000000
00010000
00001000
,
00000010
00000000
00001000
00000000
00010000
01000000
01000000
00000000
,
00020000
00001000
01000000
00031000
,
00100000
00000000
00010000
00000000
00001000
00000100
00000100
00000000
,
00002000
00010000
00000100
00013000
,
00010000
01100000
10000000
01100000
,
00010000
00001010
00011000
00001100
,
00000001
00000100
00001000
00010000
,
00000000
00100000
00000000
00100000
00010000
00001000
00010000
01000000
,
10000000
00000000
00100000
00010000
00001000
00000000
00000100
00000001
,
00000000
00000011
00000000
00001000
00010000
00001000
00000100
00000000
,
00000001
00000000
00000010
00001000
00010000
00000000
01000000
10000000
,
00000000
10100000
00000000
00010000
00001000
00010000
01000000
00000000
,
00100000
00000000
00001000
00010000
00000100
00000000
00000001
00000100
,
00000000
00000110
00000000
00000010
00001000
00010000
01000000
10000000
,
00200000
00000000
00300000
00000000
,
00000000
00010000
00000000
00010000
00001000
00000100
00000001
00000010
,
00000001
00000000
00000100
00001000
00010000
00000000
01000000
10000000
,
00000000
10100000
00000000
00100000
00010000
00010000
00001000
00000000
,
01000000
00000000
00100000
00010000
00001000
00000000
00000100
00000001
,
00000000
00000000
00000010
00000000
00000010
00000000
00001000
00000000
00010000
00000000
00010000
00001000
00010000
00000000
00000000
00000000
,
00010100
00000000
00000010
00001000
00010000
00000000
00000000
00100000
,
00000000
00100000
10000000
00100000
00010000
00000000
00010000
00001000
,
00000200
00000000
00000300
00000000
,
00010000
00001000
00000010
00001000
00010000
00000000
11000000
00000000
,
00100000
10000000
01000000
00010000
01000000
00010000
00001000
00000100
,
00000001
00000010
00001000
00000000
00000010
00000000
00000001
00000000
,
00000010
00000001
00000100
00001000
00000100
00001000
00010000
00100000
,
10000000
01000000
00010000
00000000
01000000
00000000
10000000
00000000
,
10000000
00100000
00010000
00000000
00001000
00000100
00000001
00000010
,
00001000
00010000
00001000
00000000
00000100
00000000
00000001
00000000
,
00000010
00001000
00010000
00000000
01000000
00000000
10010000
00000000
,
01000000
00100000
00010000
00001000
00010000
01000000
00010000
00001000
,
00000010
00000000
00001000
00000000
00010000
01000000
01000000
00000000
,
00020000
00001000
01000000
00031000
,
00100000
00000000
00010000
00000000
00001000
00000100
00000100
00000000
,
00002000
00010000
00000100
00013000
;
