#TITLE:Diamonds;
#ARTIST:(J-POP);
#MUSIC:Diamonds.ogg;
#BANNER:Diamonds.png;
#BACKGROUND:Diamonds-bg.png;
#CDTITLE:./CDTITLE/DANCE DANCE REVOLUTION FESTIVAL.png;
#SAMPLESTART:66.98;
#SAMPLELENGTH:15;
#BPMS:0=111,123=111.18;
#DISPLAYBPM:111;

//--------------- dance-single - ----------------
#NOTES:
     dance-single:
     :
     Beginner:
     1:
     :
0000
0000
0000
0000
,
0000
0000
0000
0000
,
0000
0000
0000
0000
,
0001
0000
0001
0000
,
1000
0000
1000
0000
,
0010
0000
0010
0000
,
0100
0000
0001
0000
,
1000
1000
1000
0000
,
0010
0010
0010
0000
,
0001
0001
0001
0000
,
0110
0000
0000
0000
,
0010
0000
0010
0000
,
0100
0000
0100
0000
,
1000
0000
1000
0000
,
0001
0000
0100
0000
,
0001
0001
0001
0000
,
0100
0100
0100
0000
,
1000
1000
1000
0000
,
1001
0000
0000
0000
,
0100
0000
0001
0000
,
1000
0000
0010
0010
,
0010
0000
1000
0000
,
0001
0000
0100
0100
,
0100
0000
0001
0000
,
0010
0000
1000
1000
,
1000
0000
0100
0000
,
0010
0000
1001
1001
,
1001
0000
0100
0000
,
0100
0000
0001
0000
,
1000
0000
0010
0010
,
0020
0000
0030
0000
,
1000
1000
1000
1000
,
1000
0000
0000
0000
,
0010
0010
0000
0000
,
0100
0000
0100
0000
,
0001
0001
0000
0000
,
1000
0000
1000
0000
,
0001
0000
0100
0000
,
0010
0000
0000
0000
,
0001
0001
0001
0001
,
0001
0000
0000
0000
,
0100
0100
0000
0000
,
1000
0000
0010
0000
,
1000
1000
0000
0000
,
0001
0000
0100
0000
,
0010
0000
1000
0000
,
0100
0000
0010
0000
,
1001
0000
0000
0000
;

//--------------- dance-single - ----------------
#NOTES:
     dance-single:
     :
     Easy:
     4:
     :
0000
0000
0000
0000
,
0000
0000
0000
0000
,
0000
0000
0000
0000
,
0001
1000
0010
0000
,
1000
0001
0010
0000
,
1000
1000
0001
0001
,
1000
0010
0100
0000
,
0010
1000
0001
0100
,
0100
0000
1000
0000
,
0010
0100
0010
0100
,
0001
0000
0010
0000
,
1000
0001
0010
0000
,
0001
1000
0010
0000
,
0001
0001
1000
1000
,
0001
0010
0100
0000
,
0010
0001
1000
0100
,
0100
0000
0001
0000
,
0010
0100
0010
0100
,
1000
0010
0001
0000
,
1000
0000
1000
0000
,
0001
0001
0010
0010
,
0001
0000
0001
0000
,
1000
1000
0100
0100
,
0001
0000
0001
0000
,
1000
1000
0100
0100
,
0001
0000
0001
0000
,
1000
1000
0010
0010
,
0100
0000
0010
0000
,
0100
0000
0010
0000
,
0100
0001
1000
0010
,
0100
0000
0000
0000
,
0010
0001
0010
1000
,
0010
0001
0010
1000
,
0001
0000
1000
0000
,
0010
1000
0001
0000
,
0100
1000
0001
0000
,
0010
1000
0001
0100
,
0001
0000
1000
0000
,
0010
0100
0001
0000
,
0010
1000
0010
0001
,
0010
1000
0010
0001
,
1000
0000
0001
0000
,
0010
0001
1000
0000
,
0100
0001
1000
0000
,
0010
0001
1000
0100
,
1000
0000
0001
0000
,
0010
0100
1000
0001
,
0100
0000
0000
0000
;

//--------------- dance-single - ----------------
#NOTES:
     dance-single:
     :
     Medium:
     5:
     :
0000
0000
0000
0000
,
0000
0000
0000
0000
,
0000
0000
0000
0000
,
0010
0000
0010
0000
0001
0100
1000
0000
,
0010
0000
0010
0000
0001
0100
1000
0000
,
0001
0001
1000
1000
,
0010
0100
0010
1000
,
0001
0001
0001
0000
1000
1000
1000
0000
,
0010
0010
0100
0100
,
0010
1000
0100
0010
,
0001
0001
0010
1001
,
0010
0000
0010
0000
1000
0100
0001
0000
,
0010
0000
0010
0000
1000
0100
0001
0000
,
1000
1000
0001
0001
,
0010
0100
0010
0001
,
0010
0010
0010
0000
0100
0100
0100
0000
,
0001
0001
1000
1000
,
0010
0001
0100
0010
,
1000
0000
1000
0000
0001
0010
1000
0000
,
0001
0001
0001
0001
,
0010
1000
0100
0010
,
1000
1000
1000
1000
,
0100
0001
0010
0100
,
0001
0001
0001
0001
,
0010
1000
0100
0010
,
1000
1000
1000
1000
,
0100
0001
0010
0100
,
0010
0010
0000
0000
0001
1000
0100
0000
,
0010
0010
0000
0000
1000
0001
0100
0000
,
1000
1000
0001
0110
,
1001
0000
0000
0000
,
0001
0100
1000
0000
0001
0100
1000
0000
,
0001
0100
1000
0010
,
0001
0001
1000
1000
,
0010
0001
1000
0100
,
0001
0100
1000
0100
,
0010
0001
1000
0100
,
1001
0010
0100
0010
,
1000
0000
1000
0000
0010
0001
0100
0000
,
1000
0100
0001
0000
1000
0100
0001
0000
,
1000
0100
0001
0010
,
1000
1000
0001
0001
,
0010
1000
0001
0100
,
1000
0100
0001
0100
,
0010
1000
0001
0100
,
1001
0010
0100
0010
,
1000
0000
1000
0000
0010
0001
0100
0000
,
1001
0000
0000
0000
;

//--------------- dance-single - ----------------
#NOTES:
     dance-single:
     :
     Hard:
     7:
     :
0000
0000
0000
0000
,
0000
0000
0000
0000
,
0000
0000
0000
0000
,
0010
0000
0100
0000
0001
1000
0001
0100
,
0010
0000
0100
0000
1000
0001
1000
0100
,
0001
0001
0010
0000
0100
0100
1000
0000
,
0010
1100
0010
0101
,
1000
0100
1000
0000
0010
0001
1000
0000
,
0001
0100
0001
0000
0100
1000
0001
0000
,
0100
1000
0010
0001
,
1000
0000
1000
0000
0001
0100
0010
0001
,
0010
0000
0100
0000
1000
0001
1000
0100
,
0010
0000
0100
0000
0001
1000
0001
0100
,
1000
1000
0010
0000
0100
0100
0001
0000
,
0010
0101
0010
1100
,
0001
0010
0001
0000
1000
0100
0001
0000
,
0001
0100
0001
0000
1000
0010
0001
0000
,
0100
0001
0010
1000
,
0001
0000
0001
0000
1000
0100
0010
0001
,
1000
0001
0010
0000
1000
0001
0010
0000
,
1000
0100
0010
0100
,
0001
1000
0010
0000
0001
1000
0010
0000
,
0001
0100
0010
0100
,
1000
0010
0100
0000
1000
0010
0100
0000
,
0001
0010
1000
0010
,
0001
0010
0100
0000
0001
0010
0100
0000
,
1000
0000
0100
0000
1001
0000
0000
0010
,
0100
0010
0000
1000
0001
1000
0000
0010
,
0001
0010
0000
0100
1000
0100
0000
0001
,
0100
1000
0010
0001
,
0110
0000
0000
0000
,
1000
0010
0100
0001
1000
0010
0100
1000
,
0001
0100
0010
1000
0001
0100
0010
0001
,
0001
1000
1000
0001
0010
0100
0001
1000
,
0001
0010
0100
0001
0010
0100
1000
0010
,
0010
0100
0100
0010
1000
0100
0010
0001
,
1000
0010
0001
0010
,
1000
0000
0100
0010
0001
0100
0010
1000
,
0001
0010
0100
1000
0010
0100
1000
0100
,
0001
0010
0100
1000
0001
0010
0100
0010
,
1000
0100
0010
0001
1000
0100
0010
0001
,
0001
1000
1000
0001
0010
0100
1000
0001
,
1000
0000
0100
0000
0010
0000
0001
0010
,
0010
0100
0100
0010
0001
0100
0010
1000
,
0001
0110
0101
1100
,
1001
0000
0100
0010
1000
0100
0010
0001
,
1000
1000
0001
0001
1000
0001
1000
0001
,
0010
0000
0000
0000
;

//--------------- dance-double - ----------------
#NOTES:
     dance-double:
     :
     Easy:
     3:
     :
00000000
00000000
00000000
00000000
,
00000000
00000000
00000000
00000000
,
00000000
00000000
00000000
00000000
,
00001000
00010000
00000010
00000000
,
00010000
00001000
00100000
00000000
,
00010000
00010000
01000000
01000000
,
00100000
00010000
00001000
00000000
,
00010000
00001000
00100000
00010000
,
10000000
00000000
00100000
00000000
,
01000000
00010000
01000000
00001000
,
00010000
00000000
00000000
00000000
,
00010000
00001000
00100000
00000000
,
00001000
00010000
00000010
00000000
,
00001000
00001000
00000100
00000100
,
00000010
00001000
00010000
00000000
,
00001000
00010000
00000010
00001000
,
00000001
00000000
00000010
00000000
,
00000100
00001000
00000100
00010000
,
00011000
00000000
00000000
00000000
,
01010000
00000000
01010000
00000000
,
00100000
00010000
00001000
00001000
,
00011000
00000000
00011000
00000000
,
00010000
00001000
00000010
00000010
,
00000011
00000000
00000011
00000000
,
00000100
00001000
00010000
00010000
,
00011000
00000000
00011000
00000000
,
00001000
00010000
01000000
01000000
,
11000000
00000000
00110000
00000000
,
00011000
00000000
00001010
00000000
,
00000100
00001000
00010000
00100000
,
01000000
00000000
00000000
00000000
,
00010000
00001000
00010000
00001000
,
00100000
00001000
00100000
00001000
,
00010000
00010000
00000100
00000000
,
00000010
00001000
00010000
00000000
,
01000000
00010000
00100000
00000000
,
00001000
01000000
00100000
00010000
,
00001000
00000000
00000100
00000000
,
00000010
00001000
00010000
00000000
,
00001000
00010000
00001000
00010000
,
00000010
00010000
00000010
00010000
,
00001000
00001000
01000000
00000000
,
00100000
00010000
00001000
00000000
,
00000100
00001000
00000010
00000000
,
00010000
00000100
00000010
00001000
,
00010000
00000000
01000000
00000000
,
00100000
00010000
00001000
00000000
,
00011000
00000000
00000000
00000000
;

//--------------- dance-double - ----------------
#NOTES:
     dance-double:
     :
     Medium:
     6:
     :
00000000
00000000
00000000
00000000
,
00000000
00000000
00000000
00000000
,
00000000
00000000
00010000
00011000
,
00010000
00000000
00010000
00000000
00100000
00010000
00001000
00000000
,
00010000
00000000
00010000
00000000
00100000
00010000
00001000
00000000
,
00010000
00010000
01000000
01000000
,
10000000
00100000
00010000
00001000
,
00000010
00000010
00000010
00000000
00000100
00000100
00000100
00000000
,
00010000
00010000
00001000
00001000
,
01000000
10000000
01000000
00100000
,
00010000
00010000
00001000
00011000
,
00001000
00000000
00001000
00000000
00000010
00001000
00010000
00000000
,
00001000
00000000
00001000
00000000
00000010
00001000
00010000
00000000
,
00001000
00001000
00000100
00000100
,
00000001
00000010
00001000
00010000
,
00100000
00100000
00100000
00000000
01000000
01000000
01000000
00000000
,
00001000
00001000
00010000
00010000
,
00000100
00000001
00000100
00000010
,
00001000
00000000
00001000
00000000
00010000
01000000
10000000
00000000
,
01000000
00010000
00001000
00000000
00000010
00000000
00000010
00000000
,
00000001
00000100
00001000
00000000
00010000
00000000
00010000
00000000
,
01000000
00010000
00001000
00000000
00000100
00000000
00000100
00000000
,
00000110
00000000
00000000
00002002
00000000
00000000
00003003
00000000
,
00000100
00001000
00010000
00000000
00100000
00000000
00100000
00000000
,
10000000
01000000
00010000
00000000
00001000
00000000
00001000
00000000
,
00000100
00001000
00010000
00000000
01000000
00000000
01000000
00000000
,
01100000
00000000
00000000
20020000
00000000
00000000
30030000
00000000
,
00100000
00100000
00000000
00000000
00010000
00010000
00000000
00000000
,
00001000
00001000
00000000
00000000
00000100
00000001
00000010
00001000
,
00020000
00000000
00030000
01000000
,
20020000
00000000
30030000
00000000
,
10000000
01000000
00010000
00000000
00010000
00001000
00000010
00000000
,
00002000
00010000
00013000
00020000
,
00100000
00000000
00031000
00000000
00100000
00010000
01000000
00000000
,
10000000
01000000
00010000
00002000
,
00000010
00000000
00013000
00000000
00000010
00000001
00000100
00000000
,
00001000
00100000
00001000
00000100
,
00000101
00000000
00000001
00000000
00000010
00001000
00010000
00000000
,
01000000
00000000
00010000
00000000
00010000
00001000
00000010
00000000
,
00000001
00000100
00001000
00000000
00001000
00010000
00100000
00000000
,
00020000
00001000
00031000
00002000
,
00000010
00000000
00013000
00000000
00000010
00001000
00000100
00000000
,
00000001
00000100
00001000
00020000
,
00100000
00000000
00031000
00000000
00100000
10000000
01000000
00000000
,
00010000
00000010
00010000
01000000
,
11000000
00000000
00100000
00010000
00001000
00000000
00000010
00001000
,
00010000
00000000
00010000
00000000
00001000
00010000
01000000
00000000
,
10010000
00000000
00000000
00000000
;

//--------------- dance-double - ----------------
#NOTES:
     dance-double:
     :
     Hard:
     7:
     :
00000000
00000000
00000000
00000000
,
00000000
00000000
00000000
00000000
,
00000000
00000000
00010010
00101000
,
00010000
00010000
10000000
00000000
00100000
01000000
00001000
00010000
,
00100000
00100000
00010000
00000000
00000100
00000010
00001000
00010000
,
00001000
00001000
00000100
00000000
00000001
00000001
00000010
00000000
,
00001000
00011000
01000000
11000000
,
10000000
01000000
00100000
00001000
01000000
00001000
00010000
00000010
,
00000001
00000010
00010000
00001000
,
00000100
00000100
00000010
00000000
00000001
00000001
00000010
00000000
,
00000100
00001000
01001000
00010100
,
00001000
00001000
00000001
00000000
00000010
00000100
00010000
00001000
,
00000010
00000010
00001000
00000000
01000000
00100000
00010000
00001000
,
00010000
00010000
01000000
00000000
10000000
10000000
00100000
00000000
,
00010000
00011000
00000100
00000101
,
00000001
00000100
00000010
00010000
00000100
00010000
00001000
00100000
,
10000000
00100000
00001000
00010000
,
01000000
00000000
00100000
00010000
01000000
00000000
00100000
00010000
,
00001000
00000000
00000000
00000000
00000001
00000010
00000100
00001000
,
00000010
00010000
00001000
00000000
00000010
00010000
00001000
00000000
,
00010000
00010000
01000000
00000000
10000000
00000000
01000000
00000000
,
00100000
00001000
00010000
00000000
00100000
00001000
00010000
00000000
,
00001000
00001000
00000100
00000000
00000001
00000000
00000100
00000000
,
00001000
00010000
01000000
00000000
00001000
00010000
01000000
00000000
,
00010000
00010000
01000000
00000000
10000000
00000000
00100000
00000000
,
00010000
00001000
00000100
00000000
00010000
00001000
00000100
00000000
,
00001000
00001000
00000100
00000000
00001001
00000000
00000000
00000010
,
00000100
00000010
00000000
00010000
00001000
00010000
00000000
00100000
,
01000000
00100000
00000000
10000000
01000000
00010000
00001000
00000010
,
00000002
00000000
00000000
00000003
00000000
00000000
00001100
00000000
,
00022000
00000000
00000000
00033000
00000000
00000000
00000000
00000000
,
00000001
00000100
00001000
00010000
00001000
00000100
00000010
00000001
,
00000010
00010000
00001000
00100000
00010000
10000000
00100000
00020000
,
00001000
00000000
00100000
00000000
00031000
00010000
00001000
00000100
,
00000010
00000000
00010000
00001000
01000000
00010000
00100000
00002000
,
00010000
00000000
00000100
00000000
00013000
00001000
00010000
01000000
,
10000000
00110000
00011000
00001100
,
00000011
00000000
00000100
00010000
00001000
00010000
00100000
00010000
,
00001000
00000000
00000010
00000000
00010000
00001000
00100000
01000000
,
10000000
01000000
00010000
00001000
00010000
01000000
00100000
10000000
,
00100000
00001000
00010000
00000010
00001000
00000001
00000010
00002000
,
00010000
00000000
00000010
00000000
00013000
00001000
00010000
01000000
,
00100000
00000000
00001000
00010000
00000100
00001000
00000010
00020000
,
00001000
00000000
01000000
00000000
00031000
00010000
00001000
00000100
,
00000001
00001010
00011000
00110000
,
11000000
00000000
10000000
00100000
00010000
00000000
00000010
00001000
,
00010000
00000000
00100000
00000000
00001000
00010000
00000010
00000100
,
00000001
00000000
00000000
00000000
;
