#TITLE:キューティーハニー;
#ARTIST:(アニメ);
#TITLETRANSLIT:CUTIE HONEY;
#ARTISTTRANSLIT:(ANIME);
#MUSIC:CUTIE HONEY.ogg;
#BANNER:CUTIE HONEY.png;
#BACKGROUND:CUTIE HONEY-bg.png;
#CDTITLE:./CDTITLE/DANCE DANCE REVOLUTION FESTIVAL.png;
#SAMPLESTART:21.07;
#SAMPLELENGTH:15;
#BPMS:0=156;

//--------------- dance-single - ----------------
#NOTES:
     dance-single:
     :
     Beginner:
     1:
     :
0000
0000
0000
0000
,
0000
0000
0000
0000
,
0000
0000
0000
0000
,
0010
0000
0010
0000
,
0010
0000
1000
0000
,
0100
0000
0100
0000
,
0100
0000
0001
0000
,
0001
0001
0000
0000
,
1000
1000
0000
0000
,
0010
0000
0010
0000
,
0100
0000
0100
0000
,
0000
0000
0000
0000
,
0000
0000
0000
0000
,
1000
0000
0001
0000
,
1000
0000
0001
0001
,
0001
0000
1000
0000
,
0001
0000
1000
1000
,
1000
0000
0010
0000
,
0001
0000
0100
0000
,
1000
1000
1000
0000
,
0001
0001
0001
0000
,
0010
0000
0001
0000
,
0010
0000
1000
0000
,
0001
0000
0000
0000
,
1001
0000
0000
0000
,
0010
0000
0000
0000
,
0100
0000
0000
0000
,
0000
0000
0000
0000
,
0000
0000
0000
0000
,
0010
0000
0010
0000
,
0010
0000
0001
0000
,
0100
0000
0100
0000
,
0100
0000
1000
0000
,
1000
1000
0000
0000
,
0001
0001
0000
0000
,
0010
0000
0010
0000
,
0100
0000
0100
0000
,
0000
0000
0000
0000
,
0000
0000
0000
0000
,
0001
0000
1000
0000
,
0001
0000
1000
1000
,
1000
0000
0001
0000
,
1000
0000
0001
0001
,
0001
0000
0010
0000
,
1000
0000
0100
0000
,
0001
0001
0001
0000
,
1000
1000
1000
0000
,
0010
0000
1000
0000
,
0010
0000
0001
0000
,
1000
0000
0000
0000
,
1001
0000
0000
0000
,
0010
0000
0000
0000
,
0200
0000
0000
0300
;

//--------------- dance-single - ----------------
#NOTES:
     dance-single:
     :
     Easy:
     4:
     :
0000
0000
0000
0000
,
0000
0000
0000
0000
,
0000
0000
0000
0000
,
0010
0001
1000
0000
,
0010
1000
0001
1000
,
0100
1000
0001
0000
,
0100
0001
1000
0010
,
0010
0010
0100
0100
,
0001
0001
1000
1000
,
0010
0000
0010
0000
,
0100
0000
0100
0000
,
0010
0001
1000
0000
,
0001
0000
1001
0000
,
2000
3000
0001
1000
,
0002
0003
1000
0001
,
2000
3000
0001
1000
,
0002
0003
1000
0001
,
0010
0000
0001
0100
,
0001
0000
1000
0100
,
1000
0000
0001
0000
,
1000
0001
1000
0001
,
0010
0000
0001
0000
,
1000
0000
0100
0000
,
0010
0000
0000
0000
,
1001
0000
0000
0000
,
0010
0000
1000
0000
,
0100
0010
0001
0000
,
0000
0000
0000
0000
,
0000
0000
0000
0000
,
0100
1000
0001
0000
,
0100
0001
1000
0001
,
0010
0001
1000
0000
,
0010
1000
0001
0100
,
0100
0100
0010
0010
,
1000
1000
0001
0001
,
0100
0000
0100
0000
,
0010
0000
0010
0000
,
0100
1000
0001
0000
,
1000
0000
1001
0000
,
0002
0003
1000
0001
,
2000
3000
0001
1000
,
0002
0003
1000
0001
,
2000
3000
0001
1000
,
0100
0000
1000
0010
,
1000
0000
0001
0010
,
0001
0000
1000
0000
,
0001
1000
0001
1000
,
0100
0000
1000
0000
,
0001
0000
0010
0000
,
0100
0000
0000
0000
,
1001
0000
0000
0000
,
0100
0000
0001
0000
,
0200
0000
0000
0300
;

//--------------- dance-single - ----------------
#NOTES:
     dance-single:
     :
     Medium:
     6:
     :
0000
0000
0000
0000
,
0000
0000
0000
0000
,
0000
0000
0000
0000
,
0010
0001
1000
0101
,
0010
0000
1000
0000
0001
1000
0100
0000
,
0100
1000
0001
1010
,
0100
0000
0001
0000
1000
0001
0010
0000
,
0010
0010
0100
0100
,
0001
0001
1000
1000
,
0010
0001
1000
0000
0010
0000
1001
0000
,
0010
1000
0001
0000
0010
0000
1001
0000
,
0110
1001
0110
1001
,
0110
0000
0000
2002
0000
0000
3003
0000
,
2020
0030
0001
3100
,
0022
0000
0030
0010
1000
0000
0103
0000
,
2200
0300
0001
3010
,
0202
0000
0300
0100
1000
0000
0013
0000
,
0020
0030
0002
0003
2000
3000
0200
0300
,
2000
3000
0002
0003
0020
0030
0200
0300
,
0012
1003
2001
3100
,
2010
3001
1002
0103
,
0020
0031
0002
1003
,
2000
3100
0200
0310
,
0012
0103
2010
3100
,
1001
1001
0000
0000
,
0010
0001
0000
1000
0000
0001
1000
0100
,
0010
0100
0010
0001
1000
0000
0000
0000
,
0000
0000
0000
0000
,
0000
0000
0000
0000
,
0010
1000
0001
1100
,
0010
0000
0001
0000
1000
0001
0100
0000
,
0100
0001
1000
0011
,
0100
0000
1000
0000
0001
1000
0010
0000
,
0010
0010
0100
0100
,
1000
1000
0001
0001
,
0010
1000
0001
0000
0010
0000
1001
0000
,
0010
0001
1000
0000
0010
0000
1001
0000
,
0110
1001
0110
1001
,
0110
0000
0000
2002
0000
0000
3003
0000
,
0022
0030
1000
0103
,
2020
0000
0030
0010
0001
0000
3100
0000
,
0202
0300
1000
0013
,
2200
0000
0300
0100
0001
0000
3010
0000
,
0020
0030
2000
3000
0002
0003
0200
0300
,
0002
0003
2000
3000
0020
0030
0200
0300
,
2010
3001
1002
0103
,
0012
1003
2001
3100
,
0020
1030
2000
3001
,
0002
0103
0200
0310
,
2010
3100
0012
0103
,
1001
1001
0000
0000
,
0010
1000
0000
0001
0000
1000
0001
0100
,
0020
0000
0000
0030
;

//--------------- dance-single - ----------------
#NOTES:
     dance-single:
     :
     Hard:
     8:
     :
0000
0000
0000
0000
,
0000
0000
0000
0000
,
0010
0000
0000
0001
0000
0000
1000
0000
0000
0100
0000
0000
0000
0000
0000
1000
0000
0000
0100
0000
1000
0000
0100
0000
,
0010
0000
0002
2000
0000
0000
3003
0000
,
0010
0010
0001
0010
0001
1000
0100
0000
,
0020
0000
0031
0000
1000
1100
0000
0000
,
0100
0100
0001
0100
0001
1000
0010
0000
,
0200
0000
0301
0000
1000
1010
0000
0000
,
0010
0001
0010
0001
0100
0001
0100
0001
,
1000
0010
1000
0010
1000
0100
1000
0100
,
0010
0001
1000
0001
0010
0000
1001
0000
,
0010
1000
0001
1000
0010
0000
1001
0000
,
0100
0010
1000
0001
1000
0010
0100
0001
,
1000
0100
0000
2002
0000
0000
3003
0000
,
1020
0000
2030
0010
0001
0000
3100
0000
,
0021
0000
0031
0010
0002
1000
0103
0000
,
1200
0000
2300
0100
0001
0000
3010
0000
,
0201
0000
0301
0100
0002
1000
0013
0000
,
0020
0032
2003
3200
,
2300
3002
0203
0310
,
2010
0010
3001
0000
1002
1000
0103
0000
,
0012
0010
1003
0000
2001
0001
3100
0000
,
0020
0001
0031
0000
0002
1000
1003
0000
,
2000
0100
3100
0000
0200
0010
0310
0000
,
0002
0013
2000
3100
,
1001
1001
1001
0000
0000
0000
0000
0000
,
0010
0002
0000
2003
0000
3001
1000
0100
,
0010
0000
0100
0000
0010
0001
1000
0001
1000
0100
0000
0000
1000
0000
0010
0000
,
0010
0000
0000
1000
0000
0000
0001
0000
0000
0100
0000
0000
0000
0000
0000
0001
0000
0000
0100
0000
0001
0000
0100
0000
,
0010
0000
2000
0002
0000
0000
3003
0000
,
0010
0010
1000
0010
1000
0001
0100
0000
,
0020
0000
1030
0000
0001
0101
0000
0000
,
0100
0100
1000
0100
1000
0001
0010
0000
,
0200
0000
1300
0000
0001
0011
0000
0000
,
0010
1000
0010
1000
0100
1000
0100
1000
,
0001
0010
0001
0010
0001
0100
0001
0100
,
0010
1000
0001
1000
0010
0000
1001
0000
,
0010
0001
1000
0001
0010
0000
1001
0000
,
0010
0100
0001
1000
0001
0100
0010
1000
,
0001
0010
0000
2002
0000
0000
3003
0000
,
0021
0000
0032
0010
1000
0000
0103
0000
,
1020
0000
1030
0010
2000
0001
3100
0000
,
0201
0000
0302
0100
1000
0000
0013
0000
,
1200
0000
1300
0100
2000
0001
3010
0000
,
0020
2030
3002
0203
,
0302
2003
3200
0310
,
0012
0010
1003
0000
2001
0001
3100
0000
,
2010
0010
3001
0000
1002
1000
0103
0000
,
0020
1000
1030
0000
2000
0001
3001
0000
,
0002
0100
0103
0000
0200
0010
0310
0000
,
2000
3010
0002
0103
,
1001
1001
1001
0000
0000
0000
0000
0000
,
0010
2000
0000
3002
0000
1003
0001
0100
,
0020
0000
0000
0030
;

//--------------- dance-double - ----------------
#NOTES:
     dance-double:
     :
     Easy:
     3:
     :
00000000
00000000
00000000
00000000
,
00000000
00000000
00000000
00000000
,
00000000
00000000
00000000
00000000
,
00001000
00001000
00010000
00000000
,
00000010
00001000
00000100
00000000
,
00010000
00010000
00001000
00000000
,
00100000
00010000
01000000
00000000
,
10000000
10000000
00100000
00010000
,
00001000
00000000
00000000
00000000
,
00000010
00001000
00000010
00000000
,
00100000
00010000
00100000
00000000
,
00022000
00033000
00000000
00000000
,
00000000
00000000
00000000
01000000
,
00020000
00000000
00030000
00001000
,
00000020
00000000
00000030
00000000
,
00000001
00000001
00000010
00001000
,
00020000
00030000
00000000
00001000
,
00000010
00000010
00000000
00001000
,
00010000
00000000
01000000
00000000
,
10000000
10000000
00100000
00010000
,
00022000
00033000
00000000
00000000
,
00000100
00000000
01000000
00000000
,
00001000
00000000
00100000
01000000
,
00010000
00000000
00000000
00000000
,
00000010
00000010
00000010
00000000
00000000
00000000
00000000
00000000
,
00002200
00003300
00000000
00000000
,
00000000
00000000
00000000
00000000
,
00001000
00010000
01000000
00000000
,
00100000
00010000
00001000
00000000
,
00010000
00010000
00001000
00000000
,
00100000
00010000
01000000
00000000
,
00001000
00001000
00010000
00000000
,
00000010
00001000
00000100
00000000
,
00000001
00000001
00000010
00001000
,
00010000
00000000
00000000
00000000
,
01000000
00010000
01000000
00000000
,
00000100
00001000
00000100
00000000
,
00022000
00033000
00000000
00000000
,
00000000
00000000
00000000
00000100
,
00002000
00000000
00003000
00010000
,
00200000
00000000
00300000
00000000
,
10000000
10000000
00100000
00010000
,
00002000
00003000
00000000
00010000
,
00100000
00100000
00000000
00010000
,
00001000
00000000
00000100
00000000
,
00000001
00000001
00000010
00001000
,
00022000
00033000
00000000
00000000
,
00100000
00000000
00000010
00000000
,
00010000
00000000
00000100
00000010
,
00001000
00000000
00000000
00000000
,
00100000
00100000
00100000
00000000
00000000
00000000
00000000
00000000
,
02020000
03030000
00000000
00000000
;

//--------------- dance-double - ----------------
#NOTES:
     dance-double:
     :
     Medium:
     5:
     :
00000000
00000000
00000000
00000000
,
00000000
00000000
00000000
00000000
,
00000000
00000000
00000000
00000000
,
00010000
00000000
00001000
00010000
00001000
00000000
00000100
00000000
,
00000010
00000000
00001000
00000000
00000100
00000010
00000000
00000000
,
00001000
00000000
00010000
00001000
00010000
00000000
01000000
00000000
,
00100000
00000000
00010000
00000000
01000000
10000000
00000000
00000000
,
01000000
01000000
00100000
00010000
,
00001000
00000000
00000200
00000000
00000000
00000300
00000000
00000000
,
00000010
00000000
00001000
00000000
00000010
00000000
00010000
00001000
,
00100000
00000000
00010000
00000000
00100000
00000000
00001000
00010000
,
00000200
00000000
00000300
00000000
,
00000000
00000000
00000000
01100000
,
00022000
00000000
00033000
00011000
,
00000220
00000000
00000330
00000000
,
00000001
00001000
00000001
00001000
00000100
00000000
00010000
00000000
,
02000000
03000000
00000000
00011000
,
00000100
00000000
00000100
00000000
00000000
00000000
00000100
00000001
,
00000010
00001000
00010000
01000000
,
10000000
01000000
10000000
01000000
00010000
00000000
00001000
00000000
,
00000200
00000000
00000300
00000000
,
00000010
00000000
00100000
00000000
,
00000100
00000000
01000000
00100000
,
00010000
00002000
00003000
00000000
,
00000100
00000100
00000100
00000000
00000001
00000010
00000000
00000000
,
00002200
00003300
00000000
00000000
,
00000000
00000000
00000000
00000000
,
00001000
00001000
00010000
00000000
01000000
00000000
00100000
00000000
,
00001000
00000000
00010000
00001000
00000000
00000000
00000000
00000000
,
00001000
00000000
00010000
00001000
00010000
00000000
01000000
00000000
,
00100000
00000000
00010000
00000000
01000000
00100000
00000000
00000000
,
00010000
00000000
00001000
00010000
00001000
00000000
00000100
00000000
,
00000010
00000000
00001000
00000000
00000100
00000001
00000000
00000000
,
00000100
00000100
00000010
00001000
,
00010000
00000000
02000000
00000000
00000000
03000000
00000000
00000000
,
00100000
00000000
00010000
00000000
00100000
00000000
00001000
00010000
,
00000010
00000000
00001000
00000000
00000010
00000000
00010000
00001000
,
02000000
00000000
03000000
00000000
,
00000000
00000000
00000000
00000110
,
00022000
00000000
00033000
00011000
,
02200000
00000000
03300000
00000000
,
10000000
00010000
10000000
00010000
01000000
00000000
00001000
00000000
,
00000200
00000300
00000000
00011000
,
01000000
00000000
01000000
00000000
00000000
00000000
01000000
10000000
,
00100000
00010000
00001000
00000100
,
00000001
00000100
00000001
00000100
00001000
00000000
00010000
00000000
,
02000000
00000000
03000000
00000000
,
00100000
00000000
00000010
00000000
,
01000000
00000000
00000100
00000010
,
00001000
00020000
00030000
00000000
,
01000000
01000000
01000000
00000000
10000000
00100000
00000000
00000000
,
02020000
03030000
00000000
00000000
;

//--------------- dance-double - ----------------
#NOTES:
     dance-double:
     :
     Hard:
     7:
     :
00000000
00000000
00000000
00000000
,
00000000
00000000
00000000
00000000
,
00000000
00000000
00000000
00000000
,
00000000
00000000
00000000
00000000
,
00010000
00010000
00001000
00001000
00000100
00000000
00000001
00000010
,
00001000
00000000
00001000
00010000
00000100
00000010
00000000
00000000
,
00001000
00001000
00010000
00010000
01000000
00000000
10000000
00100000
,
00010000
00000000
00010000
00001000
01000000
00100000
00000000
00000000
,
11000000
00000000
01000000
00010000
00001000
00000000
00000010
00000000
,
00001000
00010000
00001000
00000100
,
00000000
00000010
00000000
00001000
00000100
00000000
00010000
00001000
,
00000000
00000000
01000000
00000000
00000000
00000000
00100000
00000000
10000000
00000000
00000000
00010000
10000000
00000000
00100000
00000000
,
00020000
00030000
00000000
00000000
,
00000010
00001000
00000000
00011000
00000000
00000000
01000000
00010000
,
00200000
00000000
00000000
00300000
00000000
00000000
00010000
00001000
,
00000020
00000000
00000000
00000030
00000000
00000000
00000000
00000000
,
00000001
00000010
00000100
00001000
00000100
00010000
00001000
01000000
,
00200000
00000000
00300000
00000000
00000000
00000000
00010000
00001000
,
00000100
00000000
00000110
00000000
00000000
00000000
00000100
00000001
,
00000010
00001000
00000000
00010000
01000000
00000000
00000000
00000000
,
10000000
00100000
10000000
01000000
00010000
00001000
00000000
00000010
,
00000002
00000000
00000003
00000000
,
00000000
00000010
00000010
00001000
00000000
00010000
00010000
01000000
,
00000000
01000000
10000000
00100000
00010000
00000000
00001000
00000100
,
00000002
00000000
00000003
00000000
,
00000010
00000010
00000010
00000000
00001000
00010000
00000000
00000000
,
02200000
03300000
00000000
00000000
,
00000000
00000000
00000000
00000000
,
00001000
00000000
00001000
00000000
00010000
00000000
01000000
00000000
00000000
00010000
00000000
00010000
00001000
00000000
00010000
00000000
,
00000100
00000000
00010000
00001000
00000000
00000000
00000000
00000000
,
00001000
00001000
00010000
00010000
01000000
00000000
10000000
00100000
,
00010000
00000000
00010000
00001000
01000000
00100000
00000000
00000000
,
00010000
00010000
00001000
00001000
00000100
00000000
00000001
00000010
,
00001000
00000000
00001000
00010000
00000100
00000010
00000000
00000000
,
00000101
00000000
00000100
00001000
00010000
00000000
00100000
00000000
,
00010000
00001000
00010000
01000000
,
00000000
00100000
00000000
00010000
01000000
00000000
00001000
00010000
,
00000000
00000000
00000100
00000000
00000000
00000000
00000010
00000000
00000001
00000000
00000000
00001000
00000001
00000000
00000010
00000000
,
00002000
00003000
00000000
00000000
,
00100000
00010000
00000000
00011000
00000000
00000000
00000100
00001000
,
00000020
00000000
00000000
00000030
00000000
00000000
00001000
00010000
,
00200000
00000000
00000000
00300000
00000000
00000000
00000000
00000000
,
10000000
01000000
00100000
00010000
00100000
00001000
00010000
00000010
,
00000200
00000000
00000300
00000000
00000000
00000000
00001000
00010000
,
01000000
00000000
01100000
00000000
00000000
00000000
01000000
10000000
,
00100000
00010000
00000000
00001000
00000100
00000000
00000000
00000000
,
00000001
00000100
00000001
00000010
00001000
00010000
00000000
01000000
,
20000000
00000000
30000000
00000000
,
00000000
00100000
00100000
00010000
00000000
00001000
00001000
00000100
,
00000000
00000100
00000001
00000010
00001000
00000000
00010000
01000000
,
20000000
00000000
30000000
00000000
,
00100000
00100000
00100000
00000000
00010000
00001000
00000000
00000000
,
00000220
00000330
00000000
00000000
;
