#VERSION:0.83;
#TITLE:ZOMBIE (THE FACTORY TEAM REMIX);
#ARTIST:DJ KEE;
#GENRE:EURODANCE;
#MUSIC:ZOMBIE (THE FACTORY TEAM REMIX).ogg;
#BANNER:ZOMBIE (THE FACTORY TEAM REMIX)-bn.png;
#BACKGROUND:ZOMBIE (THE FACTORY TEAM REMIX)-bg.png;
#CDTITLE:./CDTITLES/SAIFAM.PNG;
#SAMPLESTART:34.331;
#SAMPLELENGTH:15;
#OFFSET:-0.428;
#BPMS:0=138.043;

//--------------- dance-single - B. M'Rey ----------------
#NOTEDATA:;
#STEPSTYPE:dance-single;
#DESCRIPTION:B. M'Rey;
#DIFFICULTY:Beginner;
#METER:2;
#RADARVALUES:0,0,0,0,0;
#NOTES:
0000
0000
0000
0000
,
0000
0000
0000
0000
,
0000
0000
0000
0000
,
0000
0000
0000
0000
,
0100
1000
0000
1000
,
0000
1000
0000
0010
,
0000
1000
0000
0010
,
0000
1000
0000
0000
,
0001
1000
0000
1000
,
0000
0010
0000
0010
,
0000
1000
0000
1000
,
0000
0000
0010
0000
,
0100
0000
0001
0000
,
0010
0000
0001
0000
,
0001
0000
0100
1000
,
0000
0000
0010
0000
,
0001
0000
0001
0000
,
0010
0000
0100
0000
,
0001
0000
0100
1000
,
0000
0000
0100
0020
,
0000
0000
0000
0030
0010
0000
0200
0000
,
0000
0300
0100
0000
,
0100
0000
0010
0000
,
0000
0000
0100
0020
,
0000
0030
0010
0200
,
0000
0300
0100
0000
,
0100
0000
0001
0000
,
0001
0000
0010
0000
,
0000
0000
0000
0000
,
0000
0000
0000
0010
,
0000
0001
0000
0100
,
0000
0010
0100
0000
,
0010
0000
0010
0000
,
0000
0001
0000
0010
,
0000
0001
0000
0001
,
0000
0100
1000
0000
,
1000
0000
0010
0001
,
0000
0000
0000
0010
,
0000
0001
0000
0001
,
0000
0100
0000
0010
,
0000
0001
0000
0100
,
0000
0002
0000
0013
,
0000
0000
0000
0001
,
0000
0000
0010
0000
,
1000
0000
0010
0000
,
0000
0000
1000
0100
,
0000
0010
0000
0010
,
0000
0000
1000
0000
,
1000
0000
1000
0010
,
0000
0001
0000
0001
,
0000
0010
0000
0010
,
0000
0001
0000
0002
,
0000
0000
0000
0003
,
0000
0000
0000
0010
,
0000
0000
0100
0001
,
0000
0000
1000
0000
,
1000
0000
1000
0000
,
0000
0000
0010
0001
,
0000
0010
0000
0001
,
0000
0100
1000
0000
,
0010
0000
0010
0000
,
0010
0000
0000
0001
,
0000
0010
0000
0010
,
0000
0000
0000
0100
,
0000
0001
0000
0100
,
0000
0000
0000
1000
,
0000
0000
0000
0010
,
0000
0000
0000
0001
,
0000
0000
0000
0100
,
0000
0000
0000
1000
,
0000
0000
0000
0010
,
0000
0000
0000
0001
,
0000
0000
0000
1000
,
0000
0000
1000
0000
;

//--------------- dance-single - B. M'Rey ----------------
#NOTEDATA:;
#STEPSTYPE:dance-single;
#DESCRIPTION:B. M'Rey;
#DIFFICULTY:Easy;
#METER:5;
#RADARVALUES:0,0,0,0,0;
#NOTES:
0000
0000
0000
0000
,
0000
0000
0000
0000
,
0000
0000
0000
0000
,
0000
0000
0000
0001
,
1000
0100
0010
0100
,
0010
0100
1000
0010
,
1000
0100
0010
0001
,
0000
0001
0000
0100
,
1000
0100
1000
0001
,
1000
0100
0010
0001
,
0010
0100
0010
0001
,
0000
0000
1000
0001
,
0010
0001
0010
0001
,
0010
0100
0010
0000
,
1000
0000
1000
0100
,
0000
0001
0010
0000
,
0010
0000
0010
0000
,
1000
0000
0100
0010
,
1000
0000
0010
1000
,
0000
0000
0100
2000
,
0000
3100
0010
2000
,
0000
3100
0001
0000
,
0010
0000
0010
1000
,
0000
0100
0001
2000
,
0000
3100
0001
0200
,
0000
1300
0010
0100
,
0010
1000
0010
0100
,
0001
0010
0100
0001
,
0000
0000
0000
0100
,
0100
0100
0100
0010
,
0100
0001
0010
0001
,
1000
0100
0010
0001
,
0100
0010
1000
0001
,
0100
0001
0010
0100
,
0010
0100
1000
0100
,
0010
0100
0010
0100
,
0010
0001
1000
1001
,
0000
0000
0000
0001
,
0000
0010
0000
0001
,
0000
0010
0000
0001
,
0000
0010
0000
0001
,
0000
2000
0000
3010
,
0000
0001
0010
0100
,
0010
0000
0100
0000
,
1000
0000
1000
0020
,
0000
0000
0030
0001
,
0000
0100
0010
0001
,
0100
0000
0100
0000
,
1000
0000
0010
0100
,
1000
0010
1000
0100
,
0010
0001
1000
0010
,
1000
0001
0100
0010
,
1000
0100
0010
1000
,
0000
0000
0000
0100
,
0010
0001
0100
0010
,
0100
0001
1000
0010
,
0100
0010
0100
0010
,
1000
0100
0010
0001
,
0100
0001
0010
0100
,
1000
0100
0010
0001
,
0100
0010
0100
0020
,
0000
0000
0000
0130
,
1000
0010
0100
0001
,
0010
0100
0010
0001
,
0100
0010
1000
0010
,
1000
0000
1000
1000
,
0000
0000
0000
0010
,
0000
0000
0000
0001
,
0000
0000
0000
0100
,
0000
0000
0000
1000
,
0000
0000
0000
0010
,
0000
0000
0000
0001
,
0000
0000
0000
1000
,
0000
0000
0001
0000
;

//--------------- dance-single - B. M'Rey ----------------
#NOTEDATA:;
#STEPSTYPE:dance-single;
#DESCRIPTION:B. M'Rey;
#DIFFICULTY:Medium;
#METER:8;
#RADARVALUES:0,0,0,0,0;
#NOTES:
0000
0000
0000
0000
,
0000
0000
0000
0000
,
0000
0000
0000
0000
,
0000
0000
0000
0100
,
0100
0010
0000
1000
0000
0001
0000
1000
,
0000
0001
0000
0100
0000
0001
0000
0010
,
0000
0100
0000
1000
0000
0100
0001
0000
,
0100
0000
0001
0000
0001
0100
0000
0100
,
0010
0100
0000
0010
0000
0001
0000
0010
,
0000
0001
0000
0100
0000
0001
0000
0010
,
0000
0100
0000
1000
0000
0100
0010
0000
,
0010
0000
0010
1000
0010
1000
0000
0100
,
0001
1000
0000
0100
0001
1000
0000
0010
,
0001
0100
0000
0100
0001
0010
0000
0010
,
0100
0010
0000
1000
0100
0000
0200
0000
,
0010
0000
0310
1000
0001
0010
0000
1000
,
0100
1000
0000
1000
0001
0100
0000
1000
,
0100
0010
0000
1000
0001
0010
0000
1000
,
0100
0010
0000
0001
0010
0001
0100
0000
,
0000
0000
0000
0000
0010
1000
0200
0000
,
0000
0000
0000
0000
0310
1000
0200
0000
,
0000
0000
0000
1300
0010
1000
0000
0100
,
0010
0100
0000
1000
0001
0010
0000
0100
,
0000
0010
0000
1000
0001
0010
0200
0000
,
0000
0000
0000
0300
0001
1000
0020
0000
,
0000
0000
0030
0010
0100
1000
0000
1000
,
0010
1000
0000
0100
0010
0100
0000
1000
,
0000
0100
0000
0010
0000
0100
1001
0000
,
0000
0000
0000
1000
,
1000
0000
1000
0000
0100
0010
0001
0000
,
0010
0100
0000
1000
0100
1000
0000
1000
,
0000
0100
0010
1000
0001
0010
0000
0010
,
0100
0010
0000
0010
0100
0000
0000
0000
,
0000
0000
0001
0010
0001
1000
0000
1000
,
0000
1000
0000
1000
0001
0010
0000
1000
,
0000
0100
0010
1000
0010
1000
0000
1000
,
0100
0010
0000
0010
0100
1000
0100
0000
,
0000
0000
0000
0100
,
1000
0100
0010
0001
,
0100
0001
0100
0001
,
0010
0100
0010
0001
,
0010
0002
0000
0013
,
0000
0001
0010
0100
,
1000
0100
0000
0010
0100
0010
0000
0010
,
0100
0010
0000
0100
1000
0001
0000
0100
,
0000
0010
0000
1000
0000
0010
0001
0000
,
0000
0100
0010
0100
,
1000
0000
0000
0010
0100
0001
0000
0100
,
0010
1000
0000
1000
0100
0010
0000
0010
,
0000
0100
0000
1000
0000
0010
0000
0100
,
0000
0001
0000
0010
0000
0100
0000
0010
,
0010
0100
0010
0200
,
0010
0010
0010
0310
,
0000
0000
0000
1000
,
0100
1000
0100
0010
,
0100
0000
1000
0000
0001
0010
0000
0000
,
0010
0100
0000
0000
0100
1000
0000
0010
,
0000
0001
0000
0100
0010
0000
0100
0000
,
0001
0010
0001
1000
,
0001
0000
1000
0000
0001
0010
0000
0000
,
0100
0010
0000
0000
0100
1000
0000
0001
,
0000
1000
0000
0010
0000
1000
0010
0000
,
1000
0010
0100
0001
,
0010
0001
0010
0001
,
0100
0010
1000
0010
,
0100
0010
1000
0001
,
1000
0000
1000
0001
,
1000
0000
1000
0100
,
0000
0001
0010
0001
,
0000
0001
0010
0001
,
0000
0001
0100
0010
,
0000
0001
0000
0001
,
0000
0001
0000
0001
,
1000
0001
1000
0000
;

//--------------- dance-single - B. M'Rey ----------------
#NOTEDATA:;
#STEPSTYPE:dance-single;
#DESCRIPTION:B. M'Rey;
#DIFFICULTY:Hard;
#METER:10;
#RADARVALUES:0,0,0,0,0;
#NOTES:
0000
0000
0000
0000
,
0000
0000
0000
0000
,
0000
0000
0000
0000
,
0000
0000
0000
0000
0000
0000
0001
1000
,
0001
1000
0001
0010
0001
0010
0001
1000
,
0010
1000
0010
1000
0010
1000
0100
1000
,
0001
0100
0010
1000
0100
1000
0001
1000
,
0100
1000
0000
1000
0100
0010
0000
0010
,
0001
0010
0001
0010
0001
0010
0100
1000
,
0100
1000
0100
1000
0100
1000
0001
1000
,
0001
0100
0001
0100
0001
0100
0001
0100
,
0010
0100
0000
1000
0010
1000
0000
1000
,
0010
1000
0000
1000
0100
0010
0000
0010
,
0100
0010
0000
0010
0100
0010
0000
1000
,
0100
0010
0000
0010
0001
1000
0001
0000
,
0001
0000
0001
0010
0100
0010
0000
0010
,
0001
0100
0000
0010
0001
0010
0000
0010
,
0100
0010
0000
1000
0100
1000
0000
1000
,
0001
1000
0000
1000
0010
0100
2000
0000
,
0000
0000
3000
0000
0100
0010
0200
0000
,
0001
0000
0001
0300
0010
1000
0200
0000
,
0001
0000
0301
0010
0001
1000
0000
0100
,
0001
0100
0000
0100
0010
0100
0000
1010
,
0000
0011
0000
1000
0001
1000
0200
0000
,
0001
0000
0301
0000
0100
0010
0200
0000
,
0010
0000
0310
1000
0010
1000
0000
1000
,
0100
0010
0000
0100
0001
0100
0000
0011
,
0000
0101
0000
1010
0000
0100
0002
0000
,
0000
0000
0000
0010
,
0010
0000
0010
0000
0010
0010
0013
1000
,
0100
0010
0100
0010
0100
1000
0001
0100
,
0010
1000
0010
0100
0001
0010
0001
0100
,
0010
0100
0010
1000
0100
1000
0100
1000
,
0001
0010
0100
1000
0100
1000
0010
0100
,
0001
1000
0010
0100
0010
1000
0010
1000
,
0001
0100
0010
1000
0010
1000
0001
0100
,
0001
1000
0010
1000
0001
0100
1000
0000
,
0000
0000
0000
0100
,
0010
0100
0010
0100
,
0010
0001
0010
0001
,
0010
0100
1000
0001
,
0010
0000
0001
0000
0000
0000
0010
0100
,
0000
0010
0001
1000
0010
0100
0010
1000
,
0010
1000
0000
1000
0100
0010
0000
1000
,
0001
0100
0000
0100
0001
0100
0000
0100
,
0000
0000
1000
0000
0000
0000
0010
0100
0001
0000
0100
1000
0010
0000
0100
0000
,
0000
0100
0010
0100
0001
1000
0010
1000
,
0001
0010
0000
1000
0010
0100
0000
1000
,
0010
0100
0000
0100
0001
1000
0000
0010
,
0000
0010
0000
1000
0000
0100
0000
1000
,
0000
0001
0000
1000
0000
0001
0100
1000
,
0100
0010
0001
0100
0010
0100
0010
1000
,
0010
1000
0100
1000
0001
0100
2000
0000
,
0000
0000
3000
0010
1000
0010
0100
0010
,
0000
0100
0010
0001
0010
0001
0010
0100
,
1000
0010
0000
0001
0100
0010
0000
0001
,
1000
0001
0000
0010
0100
0010
0000
0010
,
0000
0100
0000
0100
0010
0001
0010
0001
,
0000
0010
0100
0010
1000
0001
0100
0010
,
0100
0010
0000
0001
1000
0100
0000
0001
,
0010
0100
0000
0001
0010
0100
0000
0100
,
0000
0100
0000
0001
0000
0100
1000
0000
,
0100
0000
0100
0010
0000
0001
0000
0001
,
0000
0010
0000
0010
1000
0001
0010
0000
,
0010
0000
0010
0100
0000
0100
0000
0001
,
0000
0100
0000
0001
0010
0100
0001
0000
,
1000
0100
1000
0100
,
1000
0100
1000
0010
,
0100
0010
0100
0010
,
1000
0010
1000
0010
,
0100
0001
0100
0001
,
1000
0001
1000
0001
,
1000
0100
1000
0100
,
1000
0100
0001
0000
;
