#TITLE:xenon;
#SUBTITLE:(Cusimo Hardcore Mix);
#ARTIST:Mr.T;
#GENRE:HARDCORE;
#MUSIC:Xenon (Cusimo Hardcore Mix).ogg;
#BANNER:Xenon (Cusimo Hardcore Mix).png;
#BACKGROUND:Xenon (Cusimo Hardcore Mix)-bg.png;
#CDTITLE:./CDTITLES/DANCE DANCE REVOLUTION EXTREME 3.PNG;
#SAMPLESTART:28.385;
#SAMPLELENGTH:12;
#OFFSET:-0.116;
#BPMS:0=169.964;

//--------------- dance-single - B. M'Rey ----------------
#NOTES:
     dance-single:
     B. M'Rey:
     Beginner:
     2:
     0,0,0,0,0:
0000
0000
0000
0000
,
0000
0000
0000
0000
,
0000
0000
0000
0000
,
0000
0000
0000
0000
,
1000
0000
0000
0000
,
0010
0000
0000
0000
,
0100
0000
0000
0000
,
0001
0000
0000
0000
,
0010
0000
0000
0000
,
0100
0000
0000
0000
,
1000
0000
0000
0000
,
0010
0000
0000
0000
,
0110
0000
0000
0000
,
0001
0000
0000
0000
,
0010
0000
0000
0000
,
0001
0000
0000
0000
,
1000
0000
0000
0000
,
0100
0000
0000
0000
,
1000
0000
0000
0000
,
0100
0000
0000
0000
,
0010
0000
0010
0000
,
0100
0000
0100
0000
,
0001
0000
0001
0000
,
1000
0000
0000
0000
,
0010
0000
0010
0000
,
0100
0000
0100
0000
,
0001
0000
0001
0000
,
1000
0000
0000
0000
,
0100
0000
0100
0000
,
1000
0000
1000
0000
,
0010
0000
0100
0000
,
0001
0000
0000
0000
,
1000
0000
0010
0000
,
0100
0000
0010
0000
,
0001
0000
1000
0000
,
0010
0000
0000
0000
,
0200
0000
0000
0000
,
0320
0000
0000
0000
,
2030
0000
0000
0000
,
3002
0000
0000
0000
,
0023
0000
0000
0000
,
0230
0000
0000
0000
,
0302
0000
0000
0000
,
2003
0000
0000
0000
,
3100
0000
0100
0000
,
0010
0000
0000
0000
,
1000
0000
1000
0000
,
0001
0000
0000
0000
,
0110
0000
0100
0000
,
1000
0000
0000
0000
,
0001
0000
0001
0000
,
0220
0000
0000
0000
,
0330
0000
0010
0000
,
0100
0000
0100
0000
,
0001
0000
0001
0000
,
1000
0000
0000
0000
,
0010
0000
0010
0000
,
0100
0000
0100
0000
,
0001
0000
0001
0000
,
1000
0000
0000
0000
,
0100
0000
0100
0000
,
1000
0000
1000
0000
,
0010
0000
0100
0000
,
0001
0000
0000
0000
,
1000
0000
0010
0000
,
0100
0000
0010
0000
,
0001
0000
1000
0000
,
0010
0000
0000
0000
,
1000
0000
0000
0000
,
0010
0000
0000
0000
,
0100
0000
0000
0000
,
0011
0000
0000
0000
;

//--------------- dance-single - B. M'Rey ----------------
#NOTES:
     dance-single:
     B. M'Rey:
     Easy:
     3:
     0,0,0,0,0:
0000
0000
0000
0000
,
0000
0000
0000
0000
,
0000
0000
0000
0000
,
1000
0000
0001
0000
,
0010
0000
0100
0000
,
0010
0000
1000
0000
,
0001
0000
0010
0000
,
0001
0000
0100
0000
,
0010
0000
1000
0000
,
0010
0000
0100
0000
,
0001
0000
0010
0000
,
0100
0000
1000
0000
,
1001
0000
0010
0000
,
0100
0000
0001
0000
,
0010
0000
0001
0000
,
1000
0000
0010
0000
,
0100
0000
0010
0000
,
1000
0000
0100
0000
,
1000
0000
0010
0000
,
0001
0000
1000
0000
,
0110
0000
0010
0100
,
0100
0000
0001
0001
,
1000
0000
0010
0000
,
0100
0000
0000
0000
,
1010
0000
0001
0001
,
1000
0000
0010
0010
,
0100
0000
0010
0000
,
0001
0000
1000
0000
,
1001
0000
0010
0010
,
0100
0000
1000
1000
,
0001
0000
0010
0000
,
0100
0000
0000
0000
,
0110
0000
0001
0001
,
1000
0000
0010
0010
,
0100
0000
0001
0000
,
1000
0000
0001
0000
,
0020
0000
0000
0000
,
0230
0000
0000
0000
,
0302
0000
0000
0000
,
2003
0000
0000
0000
,
3200
0000
0000
0000
,
0320
0000
0000
0000
,
2030
0000
0000
0000
,
3001
0000
0100
0000
,
0010
0000
1000
0000
,
0100
0100
0100
0000
,
0010
0000
0001
0000
,
0010
0010
0010
0000
,
1100
0000
0100
0000
,
1000
1000
1000
0000
,
0010
0000
0100
0000
,
0002
0000
0000
0000
,
0103
0000
0010
0010
,
1000
0000
0001
0001
,
0100
0000
0010
0000
,
1000
0000
0000
0000
,
0101
0000
0010
0010
,
0001
0000
1000
1000
,
0010
0000
0100
0000
,
0010
0000
1000
0000
,
1001
0000
1000
1000
,
0010
0000
0100
0100
,
0010
0000
1000
0000
,
0001
0000
0100
0000
,
0100
0000
0010
0010
,
0001
0000
1000
1000
,
0110
0000
0011
0000
,
1001
0000
0001
0000
,
0100
0000
0010
0000
,
1000
0000
0100
0000
,
1000
0000
0010
0000
,
0110
0000
0000
0000
;

//--------------- dance-single - B. M'Rey ----------------
#NOTES:
     dance-single:
     B. M'Rey:
     Medium:
     6:
     0,0,0,0,0:
0000
0000
0000
0000
,
0000
0000
0000
0000
,
1000
0000
0001
0000
,
0100
0010
0100
0010
,
0001
0010
0001
0000
1000
0100
1000
0000
,
0010
0100
0010
0000
0001
0010
0001
0000
,
1000
0100
1000
0000
0010
0100
0010
0000
,
0001
0010
0001
0000
1000
0010
1000
0000
,
1001
0000
0010
0100
0010
0000
0001
0010
,
0001
0000
1000
0100
1000
0000
0010
0100
,
0010
0000
0001
0010
0001
0000
1000
0100
,
1000
0010
0100
0010
,
0011
0000
1000
0100
1000
0000
0010
0100
,
0010
0000
0001
0010
0001
0000
1000
0100
,
1000
0000
0010
0100
0010
0000
0001
0010
,
0001
0000
1000
0100
1000
0000
0010
0000
,
0101
0000
0010
0100
0010
0000
1000
0100
,
1000
0000
0010
0001
0010
0000
0100
0010
,
0100
0000
1000
0100
1000
0000
0010
0100
,
0001
0010
1000
0100
,
1001
0000
0000
1000
0000
0010
0000
0000
0100
0000
0000
0010
0000
0001
0000
0000
,
0010
0000
0000
1000
0000
0010
0000
0000
1000
0000
0000
0010
0000
0100
0000
0000
,
0001
0000
0000
0010
0000
1000
0000
0000
0010
0000
0000
0100
0000
0001
0000
0000
,
1000
0000
0010
0000
0100
0010
0100
0000
,
0011
0000
0000
0010
0000
0001
0000
0000
1000
0000
0000
0100
0000
0010
0000
0000
,
1000
0000
0000
0010
0000
0100
0000
0000
0001
0000
0000
0010
0000
1000
0000
0000
,
0010
0000
0000
0100
0000
0000
0001
0000
0010
0000
0000
1000
0000
0100
0000
0000
,
1000
0100
0010
0001
,
0110
0000
0000
1000
0000
0010
0000
0000
0100
0000
0000
0001
0000
0010
0000
0000
,
0001
0000
0000
1000
0000
0010
0000
0000
0100
0000
0000
0010
0000
1000
0000
0000
,
0001
0000
0000
0100
0000
0010
0000
0000
0100
0000
0000
0001
0000
1000
0000
0000
,
0010
0000
0100
0000
0001
0010
0001
0000
,
1001
0000
0000
0010
0000
0100
0000
0000
0010
0000
0000
1000
0000
0001
0000
0000
,
0100
0000
0000
0010
0000
1000
0000
0000
0010
0000
0000
0100
0000
0001
0000
0000
,
0010
0000
0000
0100
0000
0010
0000
0000
1000
0000
0000
0100
0000
0000
0010
0000
,
1000
0010
0100
0010
,
0002
0000
2003
0000
,
3020
0000
0230
0000
,
0302
0000
0000
2003
,
3020
0000
0230
0000
,
0320
0000
0000
0032
,
0203
0000
0320
0000
,
2030
0000
3002
2003
,
3200
0010
0010
0010
,
1300
0001
0100
0000
0010
0100
0010
0000
,
1000
0100
0001
0010
,
0001
0010
0001
0000
1000
0100
1000
0000
,
0010
0100
1000
0100
,
0001
0010
0001
0000
1000
0100
1000
0000
,
0010
0100
0010
0001
,
0010
0001
0010
0000
1000
0100
1000
0000
,
0020
0000
0000
0000
,
1030
0000
0000
1000
0000
0010
0000
0000
0100
0000
0000
0010
0000
0001
0000
0000
,
0010
0000
0000
1000
0000
0010
0000
0000
1000
0000
0000
0010
0000
0100
0000
0000
,
0001
0000
0000
0010
0000
1000
0000
0000
0010
0000
0000
0100
0000
0001
0000
0000
,
1000
0000
0010
0000
0100
0010
0100
0000
,
0011
0000
0000
0010
0000
0001
0000
0000
1000
0000
0000
0100
0000
0010
0000
0000
,
1000
0000
0000
0010
0000
0100
0000
0000
0001
0000
0000
0010
0000
1000
0000
0000
,
0010
0000
0000
0100
0000
0000
0001
0000
0010
0000
0000
1000
0000
0100
0000
0000
,
1000
0100
0010
0001
,
0110
0000
0000
1000
0000
0010
0000
0000
0100
0000
0000
0001
0000
0010
0000
0000
,
0001
0000
0000
1000
0000
0010
0000
0000
0100
0000
0000
0010
0000
1000
0000
0000
,
0001
0000
0000
0100
0000
0010
0000
0000
0100
0000
0000
0001
0000
1000
0000
0000
,
0010
0000
0100
0000
0001
0010
0001
0000
,
1001
0000
0000
0010
0000
0100
0000
0000
0010
0000
0000
1000
0000
0001
0000
0000
,
0100
0000
0000
0010
0000
1000
0000
0000
0010
0000
0000
0100
0000
0001
0000
0000
,
0010
0000
0000
0100
0000
0010
0000
0000
1000
0000
0000
0100
0000
0000
0010
0000
,
1000
0010
0100
0010
,
0001
1000
0010
0000
0100
0010
0100
0000
,
0001
0010
0001
0000
1000
0100
1000
0000
,
0010
0100
0010
0000
0001
0010
0001
0000
,
1001
0000
0000
0000
;

//--------------- dance-single - B. M'Rey ----------------
#NOTES:
     dance-single:
     B. M'Rey:
     Hard:
     9:
     0,0,0,0,0:
0000
0000
0000
0000
,
0000
0000
0000
0000
,
0010
0100
0010
0001
,
0100
0001
0100
0010
1000
0001
0100
0001
,
0110
0000
1000
0100
1000
0000
0010
0001
,
1000
0000
1000
0100
0010
0000
0010
0001
,
0100
0000
0100
0001
0100
0000
0010
0100
,
0010
0000
0010
0100
1000
0000
1000
0010
,
1000
0000
0010
0100
1000
0000
1000
0010
,
0100
0000
0100
0001
0100
0000
1000
0100
,
1000
0000
1000
0010
0100
0000
0100
0001
,
0100
0000
0000
0001
1000
0000
0000
0001
1000
0000
0000
0001
0100
0000
0000
0001
,
0100
0010
1000
0000
1000
0100
1000
0000
,
0100
0010
0100
0000
1000
0001
0100
0000
,
0100
0001
0010
0000
0010
0100
0010
0000
,
1000
0001
1000
0000
0100
0010
0100
0000
,
0010
0001
0100
0000
0100
0001
0100
0000
,
1000
0001
0010
0000
1000
0010
1000
0000
,
1000
0100
0010
0000
1000
0001
0100
0000
,
1000
0001
1000
0000
1000
0010
1000
0000
1000
0001
1000
0000
0100
0000
0001
0000
,
0100
0000
0001
0100
0010
0000
0100
0000
0010
0000
0001
1000
0001
0000
0100
0000
,
1000
0000
0001
0010
0001
0000
0100
0000
1000
0000
0100
0010
0100
0000
0100
0000
,
1000
0000
0000
0001
0100
0000
0001
0000
0100
0000
0000
0010
1000
0000
0001
0000
,
0010
0000
1000
0001
1000
0000
0001
0000
,
0110
0000
0100
0010
0100
0000
0100
0000
1000
0000
0001
1000
0001
0000
0100
0000
,
0010
0000
0001
0100
0001
0000
0001
0000
0100
0000
0001
1000
0001
0000
0010
0000
,
1000
0000
0100
0010
0000
0010
0100
0000
0010
0000
0001
1000
0000
1000
0010
0000
,
0100
0010
0100
0000
1000
0010
1000
0000
1000
0001
1000
0000
0100
0010
0100
0000
,
0100
0000
0010
1000
0010
0000
0001
0000
0010
0000
0100
1000
0100
0000
0010
0000
,
1000
0000
0010
1000
0010
0000
0100
0000
0010
0000
0100
0010
0100
0000
0100
0000
,
1000
0000
0000
0100
0001
0000
1000
0000
0010
0000
0000
0100
0001
0000
1000
0000
,
0001
1000
0010
0000
1000
0001
0100
0000
,
0100
0000
0001
1000
0001
0000
0100
0000
1000
0000
0001
0100
0001
0000
0010
0000
,
0100
0000
0010
1000
0010
0000
0010
0000
1000
0000
0001
0100
0001
0000
0001
0000
,
0100
0000
0010
1000
0000
1000
0010
0000
0100
0000
0001
0100
0000
0100
0010
0000
,
1000
0010
1000
0000
1000
0100
1000
0000
0010
0001
0010
0000
0010
0100
0010
0000
,
0200
0302
2003
3002
,
0023
0230
0320
0032
,
0203
0320
0230
0320
,
2030
0000
3002
0000
0203
0000
0301
0010
,
2000
3020
2030
3200
,
0320
0230
0320
0230
,
2300
3002
2003
3020
,
0130
0010
0100
0000
0010
0001
0010
0000
0100
1000
0100
0000
0001
0010
0001
0000
,
1000
0010
0001
0000
0100
0000
0010
0000
1000
0100
1000
0000
0010
0000
0001
0000
,
0100
0001
0100
0001
0010
0100
0010
0001
,
0100
0001
0100
0000
0100
0000
0001
0000
1000
0010
1000
0000
0100
0000
0010
0000
,
0100
0001
1000
0100
0010
0100
0010
0100
,
1000
0001
1000
0000
1000
0000
0010
0000
1000
0001
1000
0000
0100
0000
0010
0000
,
0100
0010
1000
0010
0100
0001
0100
0001
,
1001
0000
1000
0010
1010
0000
0100
0001
,
0100
0010
1000
0010
,
0100
0000
0001
0100
0010
0000
0100
0000
0010
0000
0001
1000
0001
0000
0100
0000
,
1000
0000
0001
0010
0001
0000
0100
0000
1000
0000
0100
0010
0100
0000
0100
0000
,
1000
0000
0000
0001
0100
0000
0001
0000
0100
0000
0000
0010
1000
0000
0001
0000
,
0010
0000
1000
0001
1000
0000
0001
0000
,
0110
0000
0100
0010
0100
0000
0100
0000
1000
0000
0001
1000
0001
0000
0100
0000
,
0010
0000
0001
0100
0001
0000
0001
0000
0100
0000
0001
1000
0001
0000
0010
0000
,
1000
0000
0100
0010
0000
0010
0100
0000
0010
0000
0001
1000
0000
1000
0010
0000
,
0100
0010
0100
0000
1000
0010
1000
0000
1000
0001
1000
0000
0100
0010
0100
0000
,
0100
0000
0010
1000
0010
0000
0001
0000
0010
0000
0100
1000
0100
0000
0010
0000
,
1000
0000
0010
1000
0010
0000
0100
0000
0010
0000
0100
0010
0100
0000
0100
0000
,
1000
0000
0000
0100
0001
0000
1000
0000
0010
0000
0000
0100
0001
0000
1000
0000
,
0001
1000
0010
0000
1000
0001
0100
0000
,
0100
0000
0001
1000
0001
0000
0100
0000
1000
0000
0001
0100
0001
0000
0010
0000
,
0100
0000
0010
1000
0010
0000
0010
0000
1000
0000
0001
0100
0001
0000
0001
0000
,
0100
0000
0010
1000
0000
1000
0010
0000
0100
0000
0001
0100
0000
0100
0010
0000
,
1000
0010
1000
0000
1000
0100
1000
0000
0010
0001
0010
0000
0010
0100
0010
0000
,
0100
0001
0100
0010
1000
0100
0010
0100
,
0010
0001
1000
0100
0010
0001
0100
0010
,
1000
0010
1000
0001
0100
0010
1000
0001
,
1001
0000
0000
0000
;
