#TITLE:WHEN I FALL IN LOVE;
#SUBTITLE:(The Factory Team Dance Mix);
#ARTIST:KEN LASZLO;
#TITLETRANSLIT:;
#SUBTITLETRANSLIT:;
#ARTISTTRANSLIT:;
#GENRE:;
#CREDIT:;
#MUSIC:WHEN I FALL IN LOVE (The Factory Team Dance Mix).ogg;
#BANNER:WHEN I FALL IN LOVE (The Factory Team Dance Mix)-bn.png;
#BACKGROUND:WHEN I FALL IN LOVE (The Factory Team Dance Mix)-bg.png;
#CDTITLE:./CDTITLES/SAIFAM.PNG;
#SAMPLESTART:62.288;
#SAMPLELENGTH:12.000;
#SELECTABLE:YES;
#OFFSET:-0.443;
#BPMS:0.000=135.581;
#STOPS:;
#BGCHANGES:;
#FGCHANGES:;

//--------------- dance-single - B. M'Rey ----------------
#NOTES:
     dance-single:
     B. M'Rey:
     Beginner:
     2:
     0,0,0,0,0:
0000
0000
0000
0000
,
0000
0000
0000
0000
,
0000
0000
0000
0000
,
0000
0000
0000
0010
,
0000
0100
0000
0001
,
0000
0100
0000
0010
,
0000
0001
0000
0100
,
0000
0010
0000
0001
,
0000
0010
0000
0100
,
0000
0010
0000
0001
,
0000
0001
0000
0010
,
0000
0001
0000
0010
,
0000
1000
0000
0100
,
0000
0010
0000
0001
,
0000
0010
0000
0100
,
0000
0001
0000
0010
,
0000
0001
0010
1000
,
0000
0000
1000
0100
,
0000
0100
0000
0001
,
0000
0000
0000
0100
,
0000
0001
0100
0010
,
0000
0000
0000
1000
0000
0000
0010
0000
,
0000
0001
0010
0000
,
0000
0000
0000
0100
,
0010
0000
0000
1000
0000
0010
0000
0100
,
0000
0000
0000
0100
,
0000
0001
0000
0100
0000
0001
0000
0000
,
0000
0000
1000
0010
,
0000
0010
0000
1000
0000
0001
0000
0100
,
0000
0000
0010
0100
,
0000
0100
0000
1000
0000
0010
0000
0000
,
0000
0010
0000
0000
0100
0000
0020
0000
,
0000
0000
0000
0230
,
0000
0000
0000
0302
,
0000
0000
0000
0003
,
0000
0000
0000
1000
,
0000
0001
0000
0100
,
0000
0010
0010
0010
,
0000
0001
0000
1000
,
0000
0100
0000
1000
,
0000
0010
0000
0100
,
0000
0001
0010
0100
,
0000
0000
0000
0000
,
0000
0010
0000
0200
,
0000
0000
0300
0000
,
0010
0000
0100
0000
,
0000
0000
0000
0000
,
0001
0010
0100
2000
,
0000
3000
0000
0000
,
0100
0100
0100
0000
,
0010
0010
0010
0000
,
0001
0000
1000
0010
,
0000
0100
0000
1000
,
0000
0001
0000
0010
,
0000
0001
0000
0100
,
0000
0010
0000
1000
,
0000
0010
0000
0100
,
0000
0001
0000
1000
,
0000
0000
0000
0000
,
0001
0010
0100
1000
,
0000
0000
0000
0000
,
0100
0000
0001
0000
,
0000
0000
0000
0000
,
1000
0100
0010
0001
,
0000
0000
0000
0000
,
1000
0000
1000
0010
,
0000
0100
0000
0001
,
0000
1000
0000
1001
;

//--------------- dance-single - B. M'Rey ----------------
#NOTES:
     dance-single:
     B. M'Rey:
     Easy:
     4:
     0,0,0,0,0:
0000
0000
0000
0000
,
0000
0000
0000
0000
,
0000
0000
0000
0000
,
0000
0000
0000
0001
,
1000
0001
1000
0001
,
1000
0001
0010
0100
,
0010
0100
0010
0100
,
0010
0001
1000
0001
,
1000
0001
1000
0010
,
1000
0010
0100
0010
,
0100
0010
0100
0001
,
0100
0001
1000
0001
,
1000
0001
0010
0100
,
0010
0100
0010
0100
,
1000
0100
1000
0002
,
0000
0000
0000
0103
,
1000
0010
0100
0001
,
0000
0000
1000
0010
,
0100
0010
1000
0100
,
0000
0000
0100
0001
,
0010
0100
0010
0001
,
0000
0000
0000
0010
0000
0000
0100
0000
,
0010
0001
0010
0000
,
0000
0000
0000
0001
,
0010
0001
1000
0010
,
0000
0000
1000
0100
,
0010
0100
2000
0000
,
3000
0000
0010
0100
,
0010
0100
1000
0010
,
0000
0000
0100
0001
,
0010
0100
1000
0000
,
0000
0010
1000
0002
,
0000
0000
0000
0203
,
0000
0000
0000
0320
,
0000
0000
0000
1030
,
0000
0000
0000
0001
,
1000
0001
1000
0001
,
1000
0001
0010
0100
,
0010
0100
1000
0100
,
1000
0100
1000
0001
,
1000
0001
0010
0001
,
0010
0001
0100
0010
,
1000
0010
1000
0010
,
1000
0010
0100
0001
,
0100
0001
0100
0001
,
0100
0010
1000
0010
,
1000
0100
1000
0100
,
1000
0100
0010
0100
,
0010
0001
0010
0001
,
0010
0001
1000
0100
,
0000
0100
0000
0200
,
0000
0000
0000
0301
,
0010
0100
1000
0001
,
0010
0001
0100
0010
,
1000
0010
0100
0001
,
0010
0100
1000
0100
,
1000
0010
1000
0100
,
0010
0100
1000
0020
,
0000
0000
0000
0030
,
1000
0001
0010
0001
,
1000
0001
1000
0001
,
1000
0100
1000
0100
,
0010
0100
0010
0100
,
0010
0001
0010
0001
,
1000
0001
1000
0001
,
1000
0010
1000
0010
,
0000
0010
0000
0010
,
0100
0001
0100
0020
,
0000
0000
0000
0000
,
0000
0000
0000
0000
,
0000
0000
0000
0000
,
0000
0000
0000
0000
,
0000
0000
0000
0000
,
0000
0000
0000
0030
;

//--------------- dance-single - B. M'Rey ----------------
#NOTES:
     dance-single:
     B. M'Rey:
     Medium:
     7:
     0,0,0,0,0:
0000
0000
0000
0000
,
0000
0000
0000
0000
,
0000
0000
0000
0000
,
0000
0000
0000
0000
0000
0000
0001
1000
,
0001
0000
0100
0000
0001
0000
0000
0010
0000
0000
0100
0000
0010
0000
1000
0000
,
0001
0000
0010
0000
0100
0000
0000
0010
0000
0000
0010
0000
0001
0000
1000
0000
,
0010
0000
0100
0000
0010
0000
0000
0100
0000
0000
1000
0000
0001
0000
0100
0000
,
0001
0000
0010
0000
0001
0000
0000
0100
0000
0000
1000
0000
0010
0000
1000
0000
,
0010
0000
0100
0000
0001
0000
0000
0010
0000
0000
0010
0000
0001
0000
1000
0000
,
0010
0000
1000
0000
0010
0000
0000
0100
0000
0000
0010
0000
0001
0000
0100
0000
,
0001
0000
1000
0000
0001
0000
0000
0100
0000
0000
1000
0000
0100
0000
1000
0000
,
0010
0000
1000
0000
0010
0000
0000
0100
0000
0000
1000
0000
0001
0000
0100
0000
,
0001
0000
0100
0000
0001
0000
0000
0010
0000
0000
1000
0000
0100
0000
1000
0000
,
0010
0000
1000
0000
0100
0000
0000
0100
0000
0000
0010
0000
0001
0000
1000
0000
,
0010
0000
1000
0000
0001
0000
0000
0010
0000
0000
0010
0000
0001
0000
0100
0000
,
0010
0000
1000
0000
0010
0000
0000
1000
0000
0000
0100
0000
0010
0000
0000
0000
,
0010
1000
0000
0010
0000
0100
0010
1000
,
0000
0010
0000
0100
0000
1000
0100
0000
,
0001
1000
0000
1000
0000
0020
0000
0130
,
0000
1000
0000
0010
0000
0100
0010
0000
,
0001
0010
0000
1000
0000
0100
0010
1000
,
0000
0010
0000
0200
0000
1300
0100
0000
,
0001
0100
0000
0100
0010
1000
0000
0010
,
0000
1000
0000
0100
0001
0000
0001
0000
,
0010
1000
0000
0010
0100
1000
0000
1000
,
0000
0010
0000
1000
0100
0010
0001
0000
,
0001
0100
0000
1000
0001
0020
0000
0031
,
0000
0010
0000
0100
0001
1000
0010
0000
,
0010
1000
0000
0100
0010
0100
0000
1000
,
0000
0100
0000
0020
0000
1030
0001
0000
,
0100
1000
0000
1000
0000
0010
0000
0100
,
0000
0010
0100
0010
0100
1000
0100
0000
,
0000
0010
0000
0000
1000
0000
0100
0000
,
0000
0010
0000
0000
0100
0000
0001
0000
,
0000
1000
0000
0000
0001
0000
0101
0000
,
0010
0100
0010
0000
0010
1000
0100
0000
,
0010
1000
0001
0000
0100
1000
0001
0000
,
0010
0100
0010
1000
0100
0020
0000
2030
,
0000
3010
0100
0000
0100
1000
0100
0000
,
0001
0100
0010
0000
0010
0200
0000
0000
,
0301
0010
0000
0001
0000
1000
0000
0010
,
0000
0100
0000
0010
0000
0200
0000
0000
,
0000
0301
0000
1000
0000
0002
0000
0000
,
0013
1000
0100
0000
0001
0010
0100
0010
,
0001
0100
0000
1000
0010
0000
0100
0000
,
0001
0100
0010
0000
0001
0100
0010
0000
,
0100
0010
0001
0000
0010
1000
0100
0000
,
0001
0100
0010
0000
0001
0010
0000
0200
,
0000
1300
0100
0100
,
0010
0100
0010
0000
0010
1000
0000
0010
,
0000
1000
0010
0000
0100
2000
0000
0000
,
3001
1000
0001
0000
0001
0010
0001
0000
,
1000
0001
1000
0010
,
1000
0010
0100
0000
0001
1000
0000
0001
,
0010
1000
0100
1000
,
0001
1000
0010
0000
0001
0100
0000
0100
,
0001
0010
0100
0000
0100
0001
0000
1000
,
0000
0001
0000
0010
0000
0200
0000
0000
,
0000
0301
0000
1000
0000
0002
0000
0000
,
0013
1000
0100
0000
0001
0010
0100
0010
,
0001
0100
0000
1000
0010
0000
0100
0000
,
0001
0100
0010
0000
0001
0100
0010
0000
,
0100
0010
0001
0000
0010
1000
0100
0000
,
0001
0100
0010
0000
0001
0010
0000
0200
,
0000
1300
0100
0100
,
0010
0100
0010
0000
0010
1000
0100
0000
,
0001
0010
0000
0100
0020
0000
0000
0030
,
0010
0100
0010
0000
0010
1000
0100
0000
,
0010
1000
0001
0000
0100
1000
0001
0000
,
0010
0100
0010
1000
0100
0020
0000
1030
,
0000
0100
0000
1000
0000
1000
0000
0100
,
0001
0100
0010
0000
0010
0200
0000
0000
,
0000
0000
0000
0000
,
0000
0000
0000
0300
;

//--------------- dance-single - B. M'Rey ----------------
#NOTES:
     dance-single:
     B. M'Rey:
     Hard:
     8:
     0,0,0,0,0:
0000
0000
0000
0000
,
0000
0000
0000
0000
,
0000
0000
0000
0000
,
0000
0000
0000
0000
0000
0000
0000
0000
0000
0000
0000
0000
0001
0100
0000
0010
,
0100
0000
1000
0000
0010
0000
0000
0100
0000
0000
0010
0000
0100
1000
0000
0010
,
0100
0000
0001
0000
0100
0000
0000
0010
0000
0000
0100
0000
0010
1000
0000
0100
,
1000
0000
0010
0000
0100
0000
0000
0001
0000
0000
1000
0000
0001
0010
0000
0100
,
0010
0000
0001
0000
0010
0000
0000
0100
0000
0000
1000
0000
0010
0100
0000
0010
,
0100
0000
0010
0000
1000
0000
0000
0001
0000
0000
1000
0000
0010
0100
0000
0010
,
0100
0000
0010
0000
1000
0000
0000
0001
0000
0000
1000
0000
0010
1000
0000
0100
,
0010
0000
0100
0000
1000
0000
0000
0001
0000
0000
0100
0000
0001
1000
0000
0010
,
0100
0000
0010
0000
1000
0000
0000
0001
0000
0000
0010
0000
0100
1000
0000
0100
,
0010
0000
0100
0000
0010
0000
0000
0001
0000
0000
0010
0000
0001
0100
0000
0010
,
1000
0000
0100
0000
0010
0000
0000
0100
0000
0000
0010
0000
0100
1000
0000
0010
,
1000
0000
0100
0000
0010
0000
0000
0001
0000
0000
0100
0000
0001
1000
0000
0001
,
0100
0000
0010
0000
1000
0000
0000
0010
0000
0000
1000
0000
0010
0000
1000
0000
,
0001
0010
0001
1000
0001
0010
0000
0010
,
0000
0010
0000
0100
0010
0100
0010
0000
,
0001
1000
0010
1000
0010
1000
0000
0010
,
0000
0010
0000
0010
0100
1000
0100
0000
,
0001
1000
0000
0010
0100
0010
0000
1000
,
0000
1000
0000
1000
0000
0010
0001
0000
,
0100
1000
0000
1000
0100
0010
0100
0000
,
0100
0000
0010
0000
0001
1000
0001
1000
,
0001
0100
0010
1000
0010
1000
0000
0010
,
0000
1000
0000
0010
0100
0010
0100
1000
,
0010
1000
0010
1000
0100
0010
0000
0100
,
0000
0100
0000
1000
0100
0010
0001
0100
,
0010
0100
0001
0100
0010
1000
0000
0010
,
0000
0010
0000
1000
0010
0100
0010
0000
,
0001
0100
0010
1000
0100
0010
0100
0000
,
0100
1000
0010
1000
0100
1000
0010
0100
,
0001
0100
0010
1000
0001
0100
0001
0010
,
0100
1000
0100
1000
0010
0100
0010
1000
,
0010
1000
0100
1000
0010
0100
1001
0000
,
0000
0000
0000
0000
0000
0000
0000
1000
0100
0000
0001
0000
0001
0000
1000
0000
,
0001
1000
0001
0010
0100
0010
0100
0010
,
0001
1000
0001
0100
0001
0100
0010
0100
,
0010
1000
0010
0100
0001
0100
0001
0100
,
0010
1000
0010
1000
0010
0100
0001
0100
,
0001
0100
0010
1000
0010
0100
0001
0010
,
0001
0010
0001
1000
0010
0100
0010
0000
,
0010
1100
0000
1100
0000
1001
0000
0000
,
0001
1000
0001
1000
0010
1000
0010
0100
,
0010
0100
0001
0100
0001
0010
0001
0010
,
0100
0010
0100
1000
0100
1000
0010
0100
,
0001
0100
0010
0100
0010
1000
0001
1000
,
0001
1000
0100
0010
0100
0010
0100
1000
,
0010
1000
0010
1000
0001
0010
0001
0100
,
0001
1000
0010
0000
0010
1000
0100
0010
,
0000
0010
0001
0000
0100
2000
0000
0001
,
3001
1000
0010
1000
0100
1000
0001
0100
,
0010
0100
0010
0100
0001
1000
0010
1000
,
0001
1000
0010
0100
0010
0100
0001
1000
,
0001
1000
0001
0100
0010
0100
0010
0100
,
0001
1000
0100
1000
0100
1000
0001
0100
,
0001
0100
0001
1000
0100
1000
0100
1000
,
0010
0100
0010
0100
0010
1000
0100
1000
,
0100
1010
0000
0110
0000
0101
0000
1000
,
0001
1000
0001
1000
0010
1000
0010
0100
,
0010
0100
0001
0100
0001
0010
0001
0010
,
0100
0010
0100
1000
0100
1000
0010
0100
,
0001
0100
0010
0100
0010
1000
0001
1000
,
0001
1000
0100
0010
0100
0010
0100
1000
,
0010
1000
0010
1000
0001
0010
0001
0100
,
0001
1000
0010
0000
0010
1000
0100
0000
,
0001
0010
0000
0001
0200
0000
0000
0301
,
0001
1000
0010
1000
0100
1000
0001
0100
,
0010
0100
0010
0100
0001
1000
0010
1000
,
0001
1000
0010
0100
0010
0100
0001
1000
,
0001
1000
0001
0100
0010
0100
0010
0100
,
0001
1000
0100
1000
0100
1000
0002
0000
,
0000
0000
0000
0000
,
0000
0000
0000
0000
0000
0000
0000
0000
0000
0000
0000
0000
0000
0000
0000
0000
0000
0000
0000
0000
0000
0000
0000
0000
0000
0000
0000
0000
0000
0000
0000
0000
0000
0000
0000
0000
0000
0000
0000
0000
0000
0000
0000
0000
0000
0000
0000
0000
0000
0000
0000
0000
0000
0000
0000
0000
0000
0000
0000
0000
0000
0000
0000
0000
0000
0000
0000
0000
0000
0000
0000
0000
0000
0000
0000
0000
0000
0000
0000
0000
0000
0000
0000
0000
0000
0000
0000
0000
0000
0000
0000
0000
0000
0000
0000
0000
0000
0000
0000
0000
0000
0000
0000
0000
0000
0000
0000
0000
0000
0000
0000
0000
0000
0000
0000
0000
0000
0000
0000
0000
0000
0000
0000
0000
0000
0000
0000
0000
0000
0000
0000
0000
0000
0000
0000
0000
0000
0000
0000
0000
0000
0000
0000
0000
0000
0000
0000
0000
0000
0003
0000
0000
0000
0000
0000
0000
0000
0000
0000
0000
0000
0000
0000
0000
0000
0000
0000
0000
0000
0000
0000
0000
0000
0000
0000
0000
0000
0000
0000
0000
0000
0000
0000
0000
0000
0000
0000
0000
0000
0000
0000
0000
;
