#VERSION:0.83;
#TITLE:WE ARE THE CHAMPIONS (Delaction Remix);
#ARTIST:CRAZY FROG;
#GENRE:TRANCE;
#MUSIC:WE ARE THE CHAMPIONS (Delaction Remix).ogg;
#BANNER:WE ARE THE CHAMPIONS (Delaction Remix)-bn.png;
#BACKGROUND:WE ARE THE CHAMPIONS (Delaction Remix)-BG.png;
#CDTITLE:./CDTITLES/TRANCE PARADISE KABATORA (COVER TRANCE).PNG;
#SAMPLESTART:115.008;
#SAMPLELENGTH:15;
#OFFSET:-0.134;
#BPMS:0=142.526,272.833=143.556,305=142.526;
#DISPLAYBPM:142;

//--------------- dance-single - B. M'Rey ----------------
#NOTEDATA:;
#STEPSTYPE:dance-single;
#DESCRIPTION:B. M'Rey;
#DIFFICULTY:Beginner;
#METER:3;
#RADARVALUES:0,0,0,0,0;
#NOTES:
0000
0000
0000
0000
,
0000
0000
0000
0000
,
0000
0000
0000
0000
,
0000
0000
0000
0000
,
0000
0000
0000
0000
,
0000
1000
0000
0000
,
0000
0001
0000
0000
,
0000
0100
0000
0000
,
0000
0010
0000
0000
,
0000
1000
0000
0000
,
0000
0001
0000
0000
,
0000
0100
0000
0000
,
0000
0010
0000
0001
,
0000
1000
0000
0000
,
0000
0100
0000
0001
,
0001
0010
0000
0000
,
0000
0100
0000
1000
,
1000
0010
0000
0100
,
0000
0001
0000
0010
,
0000
1000
0000
0100
,
0000
1000
0000
0010
,
0000
0001
0000
0000
,
0000
0100
0000
0010
,
0010
0001
0000
0000
,
0000
1000
0000
0100
,
0100
0010
0000
0000
,
0000
1000
0000
1000
,
0000
0000
0000
0000
,
0000
0001
0000
0001
,
0000
0000
0000
0000
,
0000
0100
0000
0100
,
0000
0000
0000
0000
,
0000
0010
0000
0010
,
0000
0001
0000
0000
,
0000
1000
0000
0000
,
0000
1000
0000
0100
,
0000
0000
0000
0010
,
0010
0001
0000
0100
,
0000
0000
0000
1000
,
1000
0100
0000
0010
,
0000
0001
0001
1000
,
1000
0010
0000
0000
,
0000
0100
0100
0010
,
0000
0001
0000
1000
,
0000
0000
0000
0010
,
0010
0100
0000
0001
,
0000
1000
0000
0010
,
0100
0001
0000
0001
,
0000
1000
1000
0001
,
0001
0010
0000
0100
,
0000
0010
0010
0100
,
0000
0002
0000
0000
,
0000
2000
0000
0000
,
3003
0000
0000
0000
,
0000
0001
0000
0000
,
0000
0100
0000
0000
,
0000
0010
0000
0000
,
0000
1000
0000
0000
,
0000
0100
0000
0000
,
0000
1000
0000
0000
,
0000
0010
0000
0000
,
0000
0100
0000
0000
,
0000
0001
0000
0000
,
0000
1000
0000
0000
,
0000
0001
0001
1000
,
1000
0001
0001
1000
,
0000
1001
0000
0000
,
0000
0000
0000
0000
,
0000
0010
0000
0100
,
0000
0010
0000
1000
,
0000
0001
0000
0010
,
0000
0001
0000
0100
,
0000
0010
0000
0000
,
0000
1000
0000
0000
,
0000
0001
0000
0000
,
0000
0100
0000
0000
,
0000
0010
0000
0001
,
0000
1000
0000
0001
,
0001
0010
0000
0100
,
0000
1000
0000
0100
,
0100
0010
0000
1000
,
0000
0001
0001
1000
,
1000
0010
0000
0100
,
0000
0001
0001
1000
,
0000
1001
0000
0000
;

//--------------- dance-single - B. M'Rey ----------------
#NOTEDATA:;
#STEPSTYPE:dance-single;
#DESCRIPTION:B. M'Rey;
#DIFFICULTY:Easy;
#METER:7;
#RADARVALUES:0,0,0,0,0;
#NOTES:
0000
0000
0000
0000
,
0000
0000
0000
0000
,
0000
0000
0000
0000
,
0000
0000
0000
0000
,
0000
0000
0000
0000
,
0000
0100
0010
0100
,
1000
0001
1000
0010
,
0100
0010
1000
0100
,
0010
0001
0100
0001
,
1000
0100
1000
0010
,
0100
0010
0100
0010
,
1000
0100
1000
0010
,
0100
0010
0000
1010
,
0000
0100
1000
0100
,
0010
0001
0000
1010
,
1010
0100
0010
0001
,
1000
0010
0000
0110
,
0110
0001
0100
0010
,
1000
0010
1000
0100
,
1000
0010
0100
0010
,
1000
0100
0010
0100
,
0010
0101
0100
0010
,
1000
0100
0000
0101
,
0101
0010
1000
0100
,
1000
0010
0000
1001
,
1001
0001
0100
0010
,
1000
0001
0100
0001
,
0010
0100
0010
0001
,
1000
0001
0010
0100
,
1000
0100
0010
0100
,
1000
0001
0010
0001
,
1000
0100
1000
0010
,
1000
0001
0010
0001
,
0010
0001
0000
0100
,
0000
0101
0000
0000
,
0000
0100
1000
0010
,
0100
0000
0000
0101
,
0110
0010
0100
0010
,
0100
0000
0000
0011
,
0101
0001
0010
0100
,
0010
0001
0101
0001
,
1100
0100
0010
0001
,
0010
0100
1000
0110
,
0000
0001
0100
0010
,
0100
0000
0000
1100
,
1100
0010
0100
0001
,
1000
0000
0001
0000
0000
0000
0100
0100
,
0100
0010
0100
0010
,
0100
0001
0110
0010
,
1100
0100
1000
0100
,
0010
0001
0100
1010
,
0000
0001
0000
0010
,
0000
0200
0000
0000
,
0000
0300
0000
0000
,
0000
0100
0000
0001
,
0000
0010
0000
0001
,
0000
0010
0000
0100
,
0000
0010
0000
0001
,
0010
0100
1000
0010
,
0100
0001
0010
0100
,
1000
0100
0000
0001
,
0000
0100
0000
0010
,
0000
0100
0000
0001
,
0000
0100
0000
0001
,
0000
0100
1000
0010
,
0100
0001
0010
0100
,
1000
1001
0000
0000
,
0000
0000
0000
0000
,
0000
0001
1000
0001
,
1000
0100
1000
0001
,
0010
0001
0010
0001
,
1000
0100
1000
0100
,
1000
0001
0100
0001
,
0100
0001
0010
0100
,
0010
0100
0010
0001
,
1000
0001
1000
0001
,
0100
0010
0100
0010
,
0100
0000
0000
1100
,
1100
0010
1000
0001
,
0010
0000
0000
0110
,
0110
0010
0100
0010
,
1000
0001
1001
0001
,
1001
0100
0010
0100
,
0010
0100
1000
1010
,
0000
2020
0000
0000
,
0000
3030
0000
0000
;

//--------------- dance-single - B. M'Rey ----------------
#NOTEDATA:;
#STEPSTYPE:dance-single;
#DESCRIPTION:B. M'Rey;
#DIFFICULTY:Medium;
#METER:9;
#RADARVALUES:0,0,0,0,0;
#NOTES:
0000
0000
0000
0000
,
0000
0000
0000
0000
,
0000
0000
0000
0000
,
0000
0000
0000
0000
,
0000
0000
0000
0000
,
0000
0001
1000
0001
,
0010
0001
0010
0100
,
1000
0100
1000
0100
,
0010
0001
0010
0001
,
0100
0001
0100
0010
,
1000
0010
0100
0001
,
0100
0010
0100
0001
,
1000
0000
0100
0010
1000
0000
0110
0000
,
0000
0000
0001
0000
0010
1000
0100
0000
,
0100
0000
1000
0000
0001
0100
0110
0000
,
0110
0000
0001
0000
0001
0010
0001
0000
,
0100
0000
1000
0000
0100
1000
0011
0000
,
0011
0000
0001
0000
0010
0100
0010
0000
,
1001
0000
0001
0000
0001
0010
0100
0000
,
1100
0000
0010
0000
0100
0010
0100
0000
,
0100
1000
0010
0000
0010
1000
0001
0000
,
0001
0100
0001
0000
0100
1000
0100
0000
,
0001
0010
0100
1001
,
1010
0000
0010
0000
0001
0010
0001
0000
,
0100
0010
0100
1100
,
0110
0000
0100
0000
0001
0010
0001
0000
,
0001
0000
0010
0100
0010
0000
0100
0010
,
0100
0100
0001
0010
,
0001
0000
0100
1000
0100
0000
0001
0100
,
0001
1000
0001
0010
,
0001
0000
0100
0010
0100
0000
0010
1000
,
0100
1000
0010
0100
,
0001
0000
0001
0010
0001
0000
0100
0010
,
0100
0010
1000
0001
,
1000
0101
0000
0000
,
0000
0000
0001
1000
0001
0000
0010
1000
,
0010
0010
0000
1001
,
1001
0000
0100
0010
0100
0000
0001
0100
,
0001
0001
0100
1100
,
0011
0000
0001
0010
0001
0000
0100
1000
,
0100
0011
1100
1100
,
0011
0000
0010
0100
0001
0000
0001
1000
,
0001
0110
0110
1001
,
0000
0000
0001
0100
0010
0000
0010
1000
,
0010
0001
0010
0011
,
0011
0000
0100
1000
0100
0000
0010
1000
,
0010
0000
0110
0000
0000
0000
0001
0010
,
0001
0000
0100
0010
0100
0000
0010
1000
,
0010
1100
0101
0011
,
1010
0000
0001
1000
0001
0000
0001
0010
,
0100
1100
0110
0011
,
1001
0001
0010
0100
,
1000
0220
0000
0000
,
0000
0330
0000
0000
,
0000
0000
0001
1000
0001
0000
0010
0000
,
0100
0000
0010
1000
0010
0000
0001
0000
,
0010
0000
0001
0010
0100
0000
0100
1000
,
0001
0000
0001
0000
0010
0000
0100
0010
,
0100
0010
0100
0000
1000
0000
0100
0000
,
0010
0100
0010
0001
,
0010
0000
0100
1000
0001
0000
0010
0000
,
0010
0000
0001
1000
0001
0000
0001
0000
,
0100
0000
0001
1000
0100
0000
0010
0000
,
0100
0000
0001
1000
0001
0000
0010
0000
,
0100
1100
0101
0011
,
1010
1100
0101
0011
,
1010
1001
0000
0000
,
0000
1000
0000
0001
,
0000
0000
0001
1000
0001
0000
0001
0000
,
0010
0000
0010
1000
0010
0000
0001
0000
,
0010
0000
0001
0010
0100
0000
0100
1000
,
0001
0000
0100
1000
0100
0000
0100
0010
,
0001
0000
0001
0100
0001
0000
0100
0000
,
0010
0000
0001
0100
0001
0000
0001
0000
,
0100
0000
0100
0010
0100
0000
0001
0010
,
0001
0000
0001
0010
0100
0000
0100
0010
,
0001
0000
0001
1000
0001
0000
0010
1000
,
0010
0010
0100
1001
,
1001
0000
0100
0010
0100
0000
0001
0100
,
0001
0001
0100
1100
,
0011
0000
0001
0010
0001
0000
0100
1000
,
0100
0011
1100
1100
,
0011
0000
0010
0100
0001
0000
0001
1000
,
0001
0110
0110
1001
,
0000
2002
0000
0000
,
0000
3003
0000
0000
;

//--------------- dance-single - B. M'Rey ----------------
#NOTEDATA:;
#STEPSTYPE:dance-single;
#DESCRIPTION:B. M'Rey;
#DIFFICULTY:Hard;
#METER:13;
#RADARVALUES:0,0,0,0,0;
#NOTES:
0000
0000
0000
0000
,
0000
0000
0000
0000
,
0000
0000
0000
0000
,
0000
0000
0000
0000
,
0000
0000
0000
0000
,
0000
0000
0010
1000
0010
1000
0010
0100
,
0001
0100
0000
0100
0010
1000
0010
1000
,
0010
0100
0000
0100
0001
0100
0010
1000
,
0010
1000
0000
0100
0001
0100
0001
0100
,
0010
1000
0000
1000
0001
1000
0001
0010
,
0001
0100
0000
1000
0010
1000
0010
0100
,
0001
1000
0000
1000
0010
0100
0001
1000
,
0010
1000
0100
1000
0010
0000
0202
0000
,
0000
0000
0000
0303
0001
0000
0000
0000
0001
0000
0100
0000
0001
0000
0000
0100
,
0000
0000
1000
0000
0100
0000
0000
0001
0000
0000
0010
0000
0011
0000
0000
0000
,
1100
0000
0000
0000
0001
0000
0000
0000
0100
0000
1000
0000
0100
0000
0000
0010
,
0000
0000
0010
0001
0010
0000
0000
0000
0001
0000
1000
0000
0101
0000
0000
0000
,
0110
0000
0000
0000
0010
0000
0100
0000
0001
0000
1000
0010
1000
0000
0000
0000
,
1100
0000
0000
0000
0010
0000
0000
0000
0001
0000
0100
0001
0100
0000
0000
0000
,
1001
0000
0000
0000
0010
0000
1000
0000
0010
0000
0100
0010
0100
0000
0100
0000
,
0001
0000
0010
0001
0010
0000
0100
0000
0001
0000
0100
0010
0100
0000
0100
0000
,
0010
0000
1000
0000
1010
0000
0000
0000
0001
0000
1000
0000
0001
0000
0000
0100
,
0000
0000
0010
0000
0100
0000
0000
1000
0000
0000
0100
0000
0011
0000
0000
0000
,
0011
0000
0000
0000
0001
0000
0000
0000
0010
0000
0100
0000
0010
0000
0000
0001
,
0000
0000
0010
0001
0010
0000
0000
0000
0100
0000
0010
0000
0101
0000
0000
0000
,
1001
0000
0001
0100
0010
0100
0101
0000
,
1001
0000
0100
0010
0100
0010
1100
0000
,
1010
0000
1001
0000
0010
0100
0101
0000
,
0110
0100
0011
0000
0001
0100
1001
0000
,
0010
0000
0100
0000
0110
0000
0000
0000
1010
0000
0000
0100
0001
0000
0000
0000
,
1001
0000
0000
1000
0010
0000
0000
0000
1010
0000
0000
0100
0001
0000
0000
0000
,
0101
0000
0000
0000
0010
0000
0100
0000
0001
0000
0010
0001
0010
0000
0010
0000
,
1000
0000
1000
0001
0010
0000
0100
0000
0100
0000
1000
0010
0100
0000
1000
0000
,
0010
1000
0011
0000
0110
0000
0011
0000
,
1100
0110
0000
0000
,
0000
0000
0100
1000
0100
0010
0100
0010
,
0001
0000
0001
0000
0001
1000
1010
0000
,
0110
0000
0100
0010
0100
1000
0001
1000
,
0001
0000
0100
0000
0100
0010
1100
0000
,
1010
0000
0100
1000
0100
0010
0100
0010
,
0001
0000
0000
0000
0001
0100
0001
0000
0101
0000
0000
0000
0010
0100
0010
0000
,
1010
0000
0010
1000
0001
1000
0001
0010
,
0100
0000
0000
0000
0100
0010
0100
0000
0001
0000
0100
0000
0101
0000
0000
0000
,
1001
0000
0100
1000
0010
1000
0100
0010
,
0100
0000
0001
0000
0001
0100
1001
0000
,
1010
0000
0100
1000
0100
0010
0001
0010
,
0100
0000
1001
0000
0010
0000
1100
0011
,
1100
0000
0100
1000
0001
0010
0001
1000
,
0001
0000
0000
0000
0100
0010
0100
0000
0110
0000
0000
0000
0100
1000
0100
0000
,
1010
0000
0010
0100
0010
0100
0001
0100
,
0001
0000
0000
0000
0001
1000
0001
0000
0100
0000
1000
0000
0101
0000
0000
0000
,
0101
0000
0000
0001
1000
0001
1000
0001
0100
0010
0100
0001
,
0100
0001
0010
0022
0000
0000
0000
0000
0000
0000
0000
0000
,
0000
0033
0000
0000
,
0000
0000
0000
0000
0001
0010
1000
0000
0100
0000
1000
0100
0000
0100
0000
1000
,
0001
0000
0010
0000
0001
0000
1000
0000
0001
0000
1000
0010
0000
0010
0000
1000
,
0010
0000
0100
0000
0010
1000
0001
0000
0001
0000
1000
0100
1000
0000
1000
0001
,
0000
0100
0010
0000
0001
0000
0010
0100
0000
0100
0010
0000
0100
1000
0000
1000
,
0100
1000
0001
1000
0001
0100
0001
0010
,
0100
1000
0001
0100
0001
0100
0001
0010
,
0100
0000
0010
0000
0001
0000
1000
0000
0010
1000
0000
0010
0000
1000
0000
0010
,
0100
0000
0010
0000
0100
0000
0010
0000
0100
1000
0000
0010
0000
0100
0000
1000
,
0010
0000
0100
0000
0010
0000
1000
0000
0001
0010
0000
0100
0000
0010
0000
0100
,
0010
0000
0100
0000
0001
0000
1000
0000
0010
0100
0000
0010
0000
0100
0000
0010
,
0100
0000
1000
0000
0001
1000
0001
0000
0110
0000
0000
0000
0010
0100
0010
0000
,
1010
0000
1010
0000
0001
1000
0001
0000
1010
0000
0000
0000
0101
0000
0000
0000
,
0011
0001
0010
0100
,
0000
1000
0001
0100
,
0110
0000
0000
0000
0001
0000
1000
0000
0100
0000
1000
0100
0000
0100
0000
1000
,
0010
0000
0100
0000
0001
0000
0100
0000
0001
0000
0100
0010
0000
0010
0000
1000
,
0010
0000
1000
0000
0010
0100
0010
0000
0001
0000
0100
0001
0100
0000
0001
0000
,
0010
0000
1000
0000
0010
1000
0000
1000
0010
0000
0100
0001
0000
0001
0100
0000
,
0001
0000
0100
0000
0010
0000
1000
0000
0010
0000
1000
0001
0000
0001
1000
0000
,
0001
0000
0100
0000
0001
0000
0100
0000
0010
0000
0100
0001
0000
0001
1000
0000
,
0010
0000
0100
0000
0001
0000
0100
0000
0001
0100
0000
0001
0000
0010
0000
1000
,
0010
0000
1000
0000
0010
0000
0100
0000
0001
1000
0000
0001
0000
1000
0000
0100
,
0010
1000
0001
1000
0010
0100
0010
0100
,
0010
0000
0100
0000
0100
1000
0101
0000
,
0110
0000
0010
0100
0001
0010
0001
0010
,
0100
0000
0000
0000
0100
0000
1000
0100
0000
0100
1000
0000
1010
0000
0000
0000
,
0110
0000
0010
0100
0001
0100
0010
1000
,
0001
0000
0000
0000
0001
1000
0001
0000
0101
0000
0000
0000
0010
0100
0010
0000
,
0110
0000
0001
0010
0100
0000
0100
0010
,
0001
0000
0000
0000
0010
1000
0010
0000
0010
0000
1000
0000
0001
0100
0000
0100
,
0010
0220
0000
0000
,
0000
0330
0000
0000
;
