#VERSION:0.83;
#TITLE:Voltage (feat. Hidemaru);
#ARTIST:TaQ;
#GENRE:BIG BEAT;
#MUSIC:Voltage (feat. Hidemaru).ogg;
#BANNER:Voltage (feat. Hidemaru)-bn.png;
#BACKGROUND:Voltage (feat. Hidemaru)-bg.png;
#CDTITLE:./CDTITLES/beatmania IIDX 4th style.PNG;
#SAMPLESTART:61.75;
#SAMPLELENGTH:15;
#OFFSET:-0.421;
#BPMS:0=125;
#STOPS:30.500=0.240,47=0.240,54.5=0.240,62=0.240,69.5=0.240,77=0.240,84.5=0.240,171=0.240;

//--------------- dance-single - B. M'Rey ----------------
#NOTEDATA:;
#STEPSTYPE:dance-single;
#DESCRIPTION:B. M'Rey;
#DIFFICULTY:Beginner;
#METER:5;
#RADARVALUES:0,0,0,0,0;
#NOTES:
0000
0000
0000
0000
,
0000
0000
0000
0000
,
0000
0000
0000
0000
,
0000
0000
0000
0000
,
1000
0000
0010
0100
,
0001
0000
0010
1000
,
0100
0000
0010
0001
,
0100
0000
0000
0000
0010
0001
0000
1000
,
0000
0000
0000
0010
0000
0100
0000
0010
,
0000
0000
0000
0001
0000
1000
0000
0010
,
0000
0000
0000
0100
0000
0010
0000
1000
,
0000
0000
0000
0100
0000
0010
0100
0000
,
0000
0000
0000
0000
0000
1001
0000
0000
,
0000
0000
0000
0000
0000
0101
0000
0000
,
0000
0000
0110
0000
,
0000
0000
1010
0001
,
1000
0001
0100
0001
,
0100
0000
0010
0010
0000
0100
0000
0010
,
0000
0100
0000
0001
0000
0100
0000
0010
,
0000
1000
0001
0000
1000
0000
0100
0000
,
0010
0100
0010
0001
,
0010
0100
0000
1000
0000
0001
0000
0100
,
0000
0010
0000
0100
0000
0010
0000
0100
,
0000
0001
0000
0000
0000
1000
0000
0000
,
0000
0000
0000
0000
,
0000
0010
0000
0000
0000
0100
0000
0000
,
0000
0001
0000
0000
0000
0000
0000
0000
,
0000
1000
0000
0000
0000
0010
0000
0000
,
0000
0100
0000
0000
0000
0001
0000
0000
,
0000
1000
0000
0000
0000
0010
0000
0000
,
0000
0100
0000
0000
0000
0001
0000
0000
,
0000
0100
0000
2000
0000
0000
0000
0000
,
0000
3001
0000
1000
0000
0010
0000
0100
,
0000
0010
0000
2000
0000
0000
0000
0000
,
0000
3100
0000
1000
0000
0010
0000
0000
,
0000
0110
0000
0000
0000
0020
0000
0000
,
0000
0130
0000
1000
0000
0100
0000
0010
,
0000
0100
0000
0000
0000
0002
0000
0000
,
0000
0013
0000
0100
0000
0001
0000
0100
,
0000
0010
0000
0000
0000
0001
0000
0000
,
0000
1000
0000
0000
0000
0010
0000
0000
,
0000
0100
0000
0000
0000
0010
0000
0000
,
0000
1000
0000
0000
0000
0001
1001
0000
,
0200
0000
0000
0000
,
0310
0001
0010
0100
,
1000
0000
0002
0000
,
0013
1000
0010
0110
;

//--------------- dance-single - B. M'Rey ----------------
#NOTEDATA:;
#STEPSTYPE:dance-single;
#DESCRIPTION:B. M'Rey;
#DIFFICULTY:Easy;
#METER:8;
#RADARVALUES:0,0,0,0,0;
#NOTES:
0000
0000
0000
0000
,
0000
0000
0000
0000
,
0000
0000
0000
0000
,
0000
0000
0000
0000
,
0001
1000
0010
0100
,
0010
0100
0010
1000
,
0100
1000
0010
1000
,
0100
0000
0010
0000
0001
0000
0010
0010
,
0000
1000
0000
0100
0000
1000
0000
0001
,
0000
1000
0000
0001
0000
0100
0000
0010
,
0000
0100
0000
0001
0000
0100
0000
0001
,
0000
1000
0000
0010
0000
1000
1001
0000
,
0001
0000
0000
0000
0000
0100
0000
0000
,
0000
0000
1000
0000
0000
1001
0000
0000
,
0100
0000
0000
0000
0000
0010
0000
0000
,
0000
0001
0000
0000
0001
0000
1000
0000
,
0001
0100
0010
0000
0010
0000
0001
0000
,
0001
1000
0001
0110
0010
0000
0100
0010
,
0001
0000
0001
0000
0100
0000
0100
1000
,
0010
0000
1010
1000
0100
0000
0010
0000
,
0010
0000
1000
0001
0010
0000
0100
0000
,
0001
1000
0100
1000
0100
0000
0100
0000
,
0001
0010
0001
0000
0001
0000
0010
1000
,
0010
0020
0000
0000
0000
0032
0000
0000
,
0000
0000
0000
1000
0000
1000
0000
1000
,
0000
0103
0000
0020
0000
0000
0000
0000
,
0000
0100
0000
0100
0000
1000
0000
1000
,
0000
0031
0000
2000
0000
0000
0000
0000
,
0000
0010
0000
0100
0000
0010
0000
3100
,
0000
0011
0000
0000
0000
0002
0000
0000
,
0000
1000
0000
1000
0000
0100
0000
0010
,
0003
0001
1000
0002
0000
0100
0000
1000
,
0000
0103
0000
0001
0010
0100
1000
0010
,
0000
0010
1000
0200
0000
0010
0000
0010
,
0000
0301
0000
0100
0010
0001
0010
0000
,
1000
0200
0000
0301
1000
0020
0000
0000
,
0000
0031
0100
0010
0000
0010
1000
0010
,
0000
0001
0000
0001
0010
0002
0000
0100
,
0000
0103
1000
0001
0000
0100
0010
0001
,
0000
0001
0000
1000
0000
0001
0000
1000
,
0000
0001
0000
0100
0000
0010
0000
1000
,
0000
0010
0000
1000
0000
0100
0000
1000
,
0000
0100
0000
0010
0000
0100
0010
0000
,
0002
0100
0100
0010
,
0013
0100
0001
0000
0010
1000
0100
0000
,
0110
0001
0002
1000
,
0103
0010
0100
0000
0001
0010
0001
0000
;

//--------------- dance-single - B. M'Rey ----------------
#NOTEDATA:;
#STEPSTYPE:dance-single;
#DESCRIPTION:B. M'Rey;
#DIFFICULTY:Medium;
#METER:11;
#RADARVALUES:0,0,0,0,0;
#NOTES:
0000
0000
0000
0000
,
0000
0000
0000
0000
,
0000
0000
0000
0000
,
0000
0000
0000
0000
,
0100
0010
0001
0000
1000
0000
0010
0000
,
0001
0100
0001
0000
0001
0000
0100
0000
,
0010
0100
0001
0000
0001
0000
0010
0000
,
0010
1000
0010
0000
0001
0110
1100
0000
,
0001
0100
0000
0010
0000
0001
0000
0010
,
0100
1000
0000
0100
0000
1000
0000
0100
,
0001
0100
0000
1000
0000
0100
0000
0100
,
0001
0010
0000
0010
0000
1000
1001
0100
,
0000
1000
0000
0100
0000
1000
0000
0100
,
0000
0010
0000
0001
0000
0101
0001
0000
,
1000
0001
1000
0100
,
1000
0000
0100
0000
0011
0100
0000
0001
,
0100
1000
0000
2000
0000
3001
0000
0010
,
1000
0100
0000
1010
0100
0001
0010
0100
,
1000
0000
2000
0000
3100
0000
0010
0100
,
0001
0010
1100
0010
0100
1000
0001
0100
,
0010
0002
0000
0013
0100
0001
0010
0100
,
1000
0101
0010
1000
0001
0010
1000
0001
,
0100
0010
1000
0010
0001
0100
1000
0001
,
0000
0120
0000
1000
0000
0001
0000
1000
,
0000
0001
0000
0100
0000
1000
0000
2030
,
0000
3002
0000
0100
0000
0010
0000
0103
,
1000
0001
0100
0001
0100
0001
1000
0100
,
0000
0200
0000
1000
0000
0010
0000
0301
,
0000
1020
0000
0100
0000
0001
0000
1030
,
0000
2001
0000
0100
0000
0010
0000
3001
,
0000
0102
0000
1000
0000
0100
0000
0013
,
0000
0110
0000
0100
1000
0100
0010
0001
,
0010
0001
1000
0010
1000
0001
0010
0100
,
0010
0100
0010
0001
1000
0001
1000
0010
,
0100
0001
1000
0100
1000
0100
1000
0001
,
0100
0001
0010
0100
1000
0100
0010
0100
,
0010
0001
1000
0010
1000
0010
1000
0100
,
0010
0001
1000
0010
0100
0001
1000
0100
,
1000
0001
1000
0001
0100
0001
0010
0100
,
0010
0000
0100
0000
0001
0000
0000
0001
0010
0000
0000
0010
0100
0000
0010
0000
,
0010
0000
0100
0000
1000
0000
0000
1000
0010
0000
0000
0010
0100
0000
0010
0000
,
0010
0000
0100
0000
0001
0000
0000
0001
0010
0000
0000
0010
0100
0000
0010
0000
,
0010
0000
0100
0000
1000
0000
0000
1000
0010
0000
0000
0010
0100
0000
0000
0000
,
2001
0010
0000
3100
1000
0010
0100
0001
,
1002
0100
0000
0013
0001
0100
0010
1000
,
0010
0100
1000
0001
1000
0100
0001
0010
,
1000
0001
0100
1000
0010
0001
0110
0000
;

//--------------- dance-single - B. M'Rey ----------------
#NOTEDATA:;
#STEPSTYPE:dance-single;
#DESCRIPTION:B. M'Rey;
#DIFFICULTY:Hard;
#METER:13;
#RADARVALUES:0,0,0,0,0;
#NOTES:
0000
0000
0000
0000
,
0000
0000
0000
0000
,
0000
0000
0000
0000
,
0000
0000
0000
0000
,
0010
0000
0100
0000
0001
0000
0000
0001
0010
0000
0000
0010
0100
0000
0000
0000
,
0010
0000
0100
0000
1000
0000
0000
1000
0010
0000
0000
0010
0100
0000
0000
0000
,
0010
0000
0100
0000
0001
0000
0000
0001
0010
0000
0000
0010
0100
0000
0000
0000
,
0010
0000
0100
0000
1000
0000
0000
1000
0010
0000
1001
0000
0010
0000
0100
0000
,
0010
0000
1000
0000
0000
1000
0100
0000
0000
0100
0010
0000
0000
0000
0100
0000
,
0010
0000
0001
0000
0000
0001
0100
0000
0000
0100
0010
0000
0000
0000
0100
0000
,
0010
0000
1000
0000
0000
1000
0100
0000
0000
0100
0010
0000
0000
0000
0100
0000
,
0010
0000
1000
0000
0000
1000
0100
0000
0010
0000
0100
0000
1001
0000
0100
0000
,
0001
1000
0000
0001
0000
0000
1000
0000
0000
0000
0200
0000
0000
0000
0310
0000
,
1000
0001
0000
0010
0000
0000
1000
0000
0000
0000
0110
0000
0100
0000
0010
0001
,
0000
0010
0000
0000
1000
0000
0000
0000
0002
0000
0000
0000
0013
0000
1000
0100
,
0000
0010
0000
0000
1000
0000
0000
0000
0011
0000
0010
0000
0100
0001
0000
0010
,
1000
0000
0100
0000
0010
0100
0010
0000
1000
0000
0100
0000
1000
0010
0000
0010
,
0100
0000
0001
0000
0100
0000
1010
0000
1000
0000
0010
1000
0000
1000
0001
0000
,
0100
0000
0010
1000
0010
0000
0001
0000
1000
0000
0001
1000
0000
1000
0100
0000
,
0010
0000
0100
0000
1001
0000
0001
0000
1000
0001
0000
0001
0100
0000
0010
0000
,
1000
0001
1000
0000
0100
0000
0010
0000
0100
0001
0000
0001
0100
0000
0001
0000
,
0010
0000
1001
0000
1000
0000
0010
1000
0000
0010
0001
0000
0010
0000
0100
1000
,
0100
0000
0010
0000
0100
0000
0001
0000
0100
0001
0000
0001
0100
0000
0010
1000
,
0000
0001
1000
0000
0000
0000
0010
0000
0000
0000
0100
0000
0000
0000
0001
0000
,
0000
0001
0000
0010
1000
0010
0100
0001
,
0100
0010
0000
0100
0000
0010
0000
1000
,
0000
0000
0100
0010
0000
0100
0000
1000
0100
0001
0000
0010
0000
1000
0010
0100
,
0001
0100
0001
1000
0000
0010
1000
0100
,
0000
0001
0010
0100
0000
0010
1000
0100
,
0010
0001
0000
0010
0100
0001
0000
0100
,
1000
0000
0010
0000
0000
0000
1000
0000
0001
0000
0100
0000
0001
0000
0010
1000
,
0010
1000
0001
0000
1000
0000
0100
0000
0010
0000
0001
0000
1000
0000
0010
0000
,
1000
0000
0001
0100
0001
0100
0001
1000
0010
1000
0010
1000
0001
0100
0001
0000
,
1000
0001
0010
0100
1000
0001
1000
0010
,
1000
0000
0100
1000
0100
1000
0100
0010
0001
0010
0001
0010
0100
0000
0010
0000
,
1000
0000
0001
0100
0010
0000
0100
0000
0010
1000
0100
0000
1000
0000
0001
0000
,
0010
0000
0001
1000
0001
1000
0001
0100
0010
1000
0010
1000
0100
1000
0100
0010
,
0001
0010
0001
0000
0100
0010
0001
0000
0100
1000
0001
0000
0010
0000
0100
0000
,
1000
0000
0001
1000
0001
1000
0001
0010
0100
0010
0001
1000
0000
0000
0001
0000
,
0001
0010
1000
0000
0001
0010
0100
0000
0001
1000
0010
0000
0100
0000
1000
0000
,
0100
0000
1000
0000
0100
0001
0010
0000
0001
0100
0010
0000
0001
0000
1000
0000
,
0010
0000
1000
0000
0010
0001
1000
0000
0001
0010
0100
0000
0001
0000
0100
0000
,
0001
0000
0010
0000
0100
1000
0010
0000
0001
0100
0010
0000
1001
0000
0000
0000
,
0001
1000
0100
0010
0001
1000
0010
1000
,
0001
0010
0100
0010
0100
0010
0001
1000
0100
0010
0100
0010
0100
1000
0010
1000
,
0001
0010
0100
1000
0001
1000
0010
1000
,
0001
1000
0001
0100
0001
0100
0010
0100
0010
1000
0010
1000
0010
0000
0000
0000
;
