#TITLE:VV²;
#ARTIST:TAKA;
#GENRE:PROGRESSIVE;
#MUSIC:VV2.ogg;
#BANNER:VV2-bn.png;
#BACKGROUND:VV2-BG.png;
#CDTITLE:./CDTITLES/DANCE DANCE REVOLUTION EXTREME 3.PNG;
#SAMPLESTART:60.837;
#SAMPLELENGTH:12;
#OFFSET:-0.037;
#BPMS:0=150;

//--------------- dance-single - B. M'Rey ----------------
#NOTES:
     dance-single:
     B. M'Rey:
     Beginner:
     1:
     0,0,0,0,0:
0000
0000
0000
0000
,
0000
0000
0000
0000
,
0000
0000
0000
0000
,
0000
0000
0000
0000
,
0000
0000
0000
0000
,
0001
0000
0000
0000
,
0100
0000
0000
0000
,
0010
0000
0000
0000
,
0000
0000
0000
0000
,
1000
0000
1000
0000
,
0001
0000
0001
0000
,
0110
0000
0100
0000
,
0100
0000
0010
0000
,
0011
0000
0000
0000
,
0110
0000
0000
0000
,
1000
0000
0010
0000
,
0100
0000
0100
0000
,
0110
0000
0000
0000
,
0001
0000
0000
0000
,
0010
0000
0000
0000
,
1001
0000
0000
0000
,
0100
0000
0000
0000
,
0011
0000
0000
0000
,
0000
0000
0000
0000
,
1000
0000
0001
0000
,
1000
0000
0000
0000
,
0010
0000
0000
0000
,
0110
0000
0000
0000
,
0001
0000
1000
0000
,
0001
0000
0000
0000
,
0100
0000
0000
0000
,
0010
0000
0000
0000
,
1000
0000
0000
0000
,
0001
0000
0000
0000
,
0010
0000
0000
0000
,
0100
0000
0000
0000
,
0010
0000
0000
0000
,
0001
0000
0000
0000
,
1001
0000
0000
0000
,
0100
0000
0100
0000
,
0110
0000
0000
0000
,
0010
0000
0010
0000
,
0011
0000
0000
0000
,
0001
0000
0001
0000
,
1001
0000
0000
0000
,
0100
0000
0100
0000
,
0010
0000
1000
0000
,
0001
0000
0010
0000
,
0100
0000
0000
0000
,
0000
0000
0000
0000
,
0000
0000
0000
0000
,
0001
0000
1000
0000
,
0000
0000
0000
0000
,
0000
0000
0000
0000
,
0100
0000
0010
0000
,
0000
0000
0000
0000
,
0001
0000
0010
0000
,
1001
0000
0000
0000
,
0110
0000
0000
0000
,
0001
0000
0010
0000
,
1000
0000
0100
0000
,
0010
0000
0000
0000
,
0001
0000
0000
0000
,
1000
0000
0000
0000
,
0010
0000
0000
0000
,
0110
0000
0000
0000
,
0001
0000
0000
0000
,
1000
0000
0000
0000
,
0010
0000
0000
0000
,
0110
0000
0000
0000
,
0001
0000
0000
0000
,
1000
0000
0000
0000
,
0100
0000
0000
0000
,
0001
0000
0000
0000
,
0020
0000
0000
0000
,
0000
0000
0000
0000
,
0200
0000
0000
0000
,
0000
0000
0000
0000
,
0330
0000
0000
0000
;

//--------------- dance-single - B. M'Rey ----------------
#NOTES:
     dance-single:
     B. M'Rey:
     Easy:
     3:
     0,0,0,0,0:
0000
0000
0000
0000
,
0000
0000
0000
0000
,
0000
0000
0000
0000
,
0000
0000
0000
0000
,
0000
0000
0000
0000
,
0100
0000
0100
0000
,
0110
0000
0001
0000
,
0101
0000
0001
0000
,
0100
0000
0100
0000
,
0100
0010
0001
0000
,
0001
0100
0001
0000
,
0100
0010
0100
0000
,
0001
0100
0001
0000
,
1001
0000
0010
0000
,
1010
0000
0001
0000
,
1001
0000
0011
0000
,
0100
0010
0100
0010
,
0002
0000
0000
0000
,
0013
0000
0001
0000
,
0100
0000
0010
0000
,
0001
0010
0000
1000
,
0001
0100
0000
0100
,
0010
0000
0001
0000
,
0200
0000
0000
0000
,
0301
0100
0010
0100
,
1001
0000
1000
0000
,
0001
0000
0100
0000
,
0020
0000
0000
0000
,
0031
1000
0010
0100
,
0001
0000
0001
0000
,
0010
0000
0001
0000
,
0100
0000
0001
0000
,
0100
0010
0100
1000
,
1100
0000
0001
0000
,
0100
0000
0010
0000
,
0100
1000
0010
0100
,
0010
0100
0010
1000
,
0200
0000
0000
0000
,
0310
0000
0000
0000
,
0010
0100
0010
0100
,
0101
0000
0000
0000
,
0100
1000
0100
1000
,
0110
0000
0000
0000
,
0010
0100
0010
0100
,
1010
0000
0000
0000
,
0001
1000
0100
0010
,
0002
0000
0023
0000
,
0230
0000
2300
0000
,
3020
0000
0100
0000
,
0100
0000
0100
0000
,
1000
0000
1000
0000
,
0032
0000
0203
0000
,
0010
0000
0010
0000
,
0001
0000
0001
0000
,
2300
0000
3020
0000
,
0100
0000
0100
0000
,
1030
0001
1000
0000
,
1001
0000
0001
0010
,
0100
0000
0100
0010
,
0001
0000
1000
0000
,
0001
0010
0100
1000
,
0100
0000
0000
0000
,
0010
0100
0010
0000
,
0001
0100
0001
0000
,
0001
0010
0000
0010
,
0100
0000
0100
0010
,
0001
0000
0010
0000
,
0001
0000
0000
0010
,
0100
1000
0000
1000
,
0001
1000
0000
0000
,
0001
0000
0010
0000
,
0001
1000
0000
1000
,
0001
1000
0000
0010
,
0100
0010
0000
1000
,
0020
0000
0000
0000
,
0130
0000
0000
0000
,
0002
0000
0000
0000
,
0000
0000
0000
0000
,
0003
0000
0000
0000
;

//--------------- dance-single - B. M'Rey ----------------
#NOTES:
     dance-single:
     B. M'Rey:
     Medium:
     6:
     0,0,0,0,0:
0000
0000
0000
0000
,
0000
0000
0000
0000
,
0000
0000
0000
0000
,
0000
0000
0000
0000
,
0000
0000
0000
0000
,
1001
1000
0001
1000
,
0101
0100
0010
0100
,
0110
0100
0001
1000
,
0001
1000
0001
0100
,
0110
0100
0010
0100
,
0001
1000
0001
1000
,
1100
1000
0100
0010
,
0100
1000
0001
1000
,
0110
0000
0100
0000
,
1001
0000
0100
0000
,
1100
0000
0011
0000
,
0001
1000
0001
1000
,
0110
1000
0001
0100
,
0001
0100
0001
0010
,
0100
0010
0100
1000
,
1100
1000
0001
1000
,
0001
0100
0001
0100
,
0110
0100
0010
1000
,
0020
0000
0000
0000
,
0031
1000
0001
1000
0010
1000
0010
0100
,
0110
0010
0001
1000
,
0001
0100
0001
0100
,
0020
0000
0000
0000
,
0031
0010
0001
0010
0001
1000
0010
1000
,
0010
0100
0010
1000
,
0001
1000
0100
1000
,
0100
0010
0100
0010
,
0001
1000
0001
1000
0001
0100
0010
0100
,
0010
0000
0100
0000
0010
0001
0100
0000
,
0010
0000
1000
0000
0100
0010
1000
0000
,
0010
0000
1000
0000
0010
1000
0100
0000
,
0010
0000
0100
0000
0001
0010
0100
0000
,
0001
0000
0010
0000
0001
1000
0010
0000
,
0110
0000
0000
0000
,
0100
0010
0001
0100
,
0110
0000
0000
0000
,
0001
0010
0001
0100
,
0101
0000
0000
0000
,
0100
1000
0100
1000
,
0101
0000
0000
0100
,
0001
0010
0100
0010
,
0100
0010
0001
1000
,
0001
0010
0001
0010
,
0100
0010
0100
1000
,
0001
1000
0001
1000
,
0100
0010
0001
0010
,
0001
1000
0001
0100
,
0010
1000
0010
1000
,
0010
0100
0001
0100
,
0001
0010
0001
1000
,
0100
1000
0100
1000
,
0010
0100
0001
0100
,
0010
0000
0100
0000
0010
0100
1000
0000
,
0010
0000
1000
0000
0100
0010
1000
0000
,
0001
1000
0010
0000
0001
0010
0100
0000
,
0001
0100
0010
0100
0010
0100
0001
0010
,
0001
1000
0001
0010
,
0001
0010
0100
0000
0001
0010
0100
0000
,
0010
0100
0010
1000
,
0010
0100
1000
0000
0100
0001
1000
0000
,
0110
0000
0010
0000
0100
1000
0010
0000
,
0001
0100
0010
0000
0001
1000
0100
0000
,
0001
0010
0100
0000
0010
0000
0100
0000
,
0001
0000
1000
0000
0001
0000
1000
0010
,
0001
0010
0100
0010
,
0100
0010
0001
0100
,
0001
1000
0001
0010
,
0100
1000
0100
0010
,
0100
0010
0001
0100
,
0002
0000
0000
0000
,
0103
0000
0100
0000
,
0200
0000
0000
0000
,
0000
0000
0000
0000
,
0300
0000
0000
0000
;

//--------------- dance-single - B. M'Rey ----------------
#NOTES:
     dance-single:
     B. M'Rey:
     Hard:
     9:
     0,0,0,0,0:
0000
0000
0000
0000
,
0000
0000
0000
0000
,
0000
0000
0000
0000
,
0000
0000
0000
0000
,
0000
0000
0000
0000
,
1000
1000
1000
1000
,
0001
0000
0001
0000
0001
0000
0001
0100
,
0001
0100
0100
0100
,
0010
0010
0010
0010
,
0001
0010
0001
0000
0010
1000
0010
0000
,
0100
0010
0100
0000
0001
0100
0001
0000
,
1001
0000
0010
0100
0010
0000
1000
0010
,
1000
0000
0010
0100
0010
0000
0001
0100
,
0101
0010
1000
0010
,
1010
0000
0100
0000
0010
0100
0010
0000
,
0110
0010
0101
0100
,
0001
0100
0010
1000
0100
1000
0100
1000
,
0100
1000
0100
1000
,
0010
1000
0001
0010
,
0100
1000
0100
0010
,
1100
0000
0010
0000
0100
0001
0010
0000
,
1000
0000
0001
0000
0010
0100
0010
0000
,
0110
0010
0001
1000
,
0020
0000
0000
0000
,
0130
1000
0100
1000
0100
0010
0001
0010
0001
1000
0001
0010
0100
1000
0100
1000
,
0001
1000
0100
0000
0100
1000
0001
0100
,
0010
0100
0010
0000
0001
1000
0001
1000
,
1001
0001
1000
0010
,
0001
1000
0100
1000
0100
1000
0010
0100
0010
1000
0010
1000
0001
0010
0001
0010
,
0001
1000
0001
1000
,
0001
0010
0100
0010
,
0100
1000
0100
1000
,
0001
1000
0001
1000
0001
0100
0010
0100
0001
0010
0001
1000
0001
1000
0100
1000
,
0010
0000
1000
0000
0010
0000
0000
0000
0010
0100
0000
0000
0001
0000
0000
0000
,
0001
0000
0100
0000
0010
0000
0000
0000
0010
1000
0000
0000
0010
0000
0000
0000
,
0001
0000
0100
0000
0001
0000
0000
0000
0010
1000
0000
0000
0010
0000
0000
0000
,
0010
0000
0100
0000
0001
0000
0000
0000
0001
0100
0000
0000
0010
0000
0000
0000
,
0010
1000
0100
0010
0100
1000
0100
1000
,
0001
0000
0001
0100
0001
0100
0010
0100
0001
0000
0001
0010
0001
0000
0100
0000
,
0001
1000
0001
1000
0001
0010
0100
0010
,
1001
0000
0001
1000
0001
0100
0010
0100
0010
0000
0001
1000
0001
0000
0100
0000
,
0001
1000
0001
1000
0100
1000
0010
0100
,
1001
0000
0001
1000
0001
0100
0010
1000
0100
0000
0100
0010
0001
0000
0100
0000
,
1001
1000
0001
1000
0001
0010
0100
0010
,
1001
0000
0001
1000
0001
0010
0100
0010
0100
0000
0001
0100
0001
0000
1000
0000
,
0001
1000
0001
0100
0001
0100
0010
0100
,
0001
1000
0001
1000
0001
0010
0100
1000
,
0100
1000
0100
0010
0001
0010
0001
0010
,
0002
2003
3002
0023
,
0032
0023
0230
0320
,
2030
3020
0032
0203
,
0301
1000
0100
1000
0001
0100
0001
0100
,
0001
0010
0100
0010
0100
0010
0001
1000
,
0001
0100
0001
0100
0010
1000
0010
1000
,
0010
0100
0001
0100
0001
0100
0010
1000
,
0010
1000
0010
0100
0001
0100
0001
1000
,
0001
1000
0100
1000
0100
0010
0001
0010
,
1001
0000
0000
0000
0010
0000
0000
0000
0100
0010
0100
0010
0100
0000
0010
0000
,
0001
0000
0000
0000
1000
0000
0000
0000
0001
0010
0001
0010
0001
0000
0100
0000
,
1000
0001
1000
0001
1000
0000
0010
0000
0100
0010
0100
0010
0100
0000
0010
0000
,
0001
1000
0001
1000
0100
1000
0100
0010
,
1000
0000
1000
0001
1000
0001
1000
0001
0100
0000
1000
0010
0001
0000
0100
0000
,
0001
1000
0010
1000
0010
1000
0100
0010
,
0100
0010
0100
1000
0010
0100
0010
1000
,
0010
1000
0001
1000
0001
0100
0001
0100
,
1001
0000
0100
1000
0100
1000
0100
0010
,
0001
0010
0001
0010
0100
1000
0100
0010
,
0100
0010
0001
0010
0001
1000
0001
1000
,
0010
1000
0010
0100
0010
0100
0001
0100
,
1001
0000
0000
0100
0010
0000
0000
0000
0001
0000
1000
0000
0001
0000
0010
0000
,
0001
0010
0100
0010
0100
1000
0001
1000
,
0001
0010
0001
0010
0100
0010
0100
1000
,
0100
1000
0001
1000
0010
0100
0010
0100
,
0010
1000
0100
0010
0100
0010
0100
1000
,
0001
1000
0001
1000
0001
0010
0100
0010
0001
0010
0001
1000
0001
1000
0100
1000
,
0001
0010
0100
1000
,
2002
0000
0000
0000
,
0000
0000
0000
0000
,
3003
0000
0000
0000
;
